osu file format v14

[General]
AudioFilename: audio.ogg
AudioLeadIn: 0
PreviewTime: 13430
Countdown: 0
SampleSet: Soft
StackLeniency: 0.5
Mode: 0
LetterboxInBreaks: 0
WidescreenStoryboard: 1

[Editor]
DistanceSpacing: 1.1
BeatDivisor: 4
GridSize: 32
TimelineZoom: 1

[Metadata]
Title:Calendrier (TV Size)
TitleUnicode:カランドリエ (TV Size)
Artist:Okui Aki
ArtistUnicode:奥井亜紀
Creator:Stompy_
Version:Normal
Source:黄昏乙女×アムネジア
Tags:Kanoe Yuuko 庚夕子 Dusk Maiden of Amnesia Tasogare Otome x anime ending ed female vocals vocalist pop jpop j-pop japanese Karandorie Calendar the fart lord
BeatmapID:4551206
BeatmapSetID:2138766

[Difficulty]
HPDrainRate:3
CircleSize:3.2
OverallDifficulty:4
ApproachRate:5.2
SliderMultiplier:1.2
SliderTickRate:1

[Events]
//Background and Video events
Video,229,"eeeeeeed.avi"
0,0,"bg (1).jpg",0,0
//Break Periods
//Storyboard Layer 0 (Background)
//Storyboard Layer 1 (Fail)
//Storyboard Layer 2 (Pass)
//Storyboard Layer 3 (Foreground)
//Storyboard Layer 4 (Overlay)
//Storyboard Sound Samples

[TimingPoints]
351,365.853658536585,4,2,1,40,1,0
351,-100,4,2,1,40,0,0
4741,-100,4,2,1,70,0,1
5838,-100,4,2,99,70,0,1
5930,-100,4,2,1,70,0,1
8033,-100,4,2,99,70,0,1
8125,-100,4,2,1,70,0,1
10229,-100,4,2,99,70,0,1
10321,-100,4,2,1,70,0,1
12424,-100,4,2,1,73,0,0
13521,-100,4,2,1,50,0,0
17180,-100,4,2,99,50,0,0
17271,-100,4,2,1,50,0,0
21570,-100,4,2,99,50,0,0
21661,-100,4,2,1,50,0,0
25960,-100,4,2,99,50,0,0
26051,-100,4,2,1,50,0,0
29619,-100,4,2,99,50,0,0
29710,-100,4,2,1,50,0,0
30350,-100,4,2,1,58,0,0
31082,-100,4,2,1,60,0,0
32911,-100,4,2,99,60,0,0
33094,-100,4,2,1,60,0,0
34924,-100,4,2,99,60,0,0
35107,-100,4,2,1,60,0,0
36936,-100,4,2,99,60,0,0
37119,-100,4,2,1,60,0,0
39131,-100,4,2,99,60,0,0
39314,-100,4,2,1,60,0,0
39863,-100,4,2,1,66,0,0
40594,-100,4,2,1,66,0,0
40960,-100,4,2,1,68,0,0
41692,-100,4,2,1,68,0,0
42058,-100,4,2,1,70,0,0
42790,-100,4,2,1,70,0,0
44253,-100,4,2,1,72,0,0
44985,-100,4,2,1,70,0,0
45350,-100,4,2,1,72,0,0
45716,-100,4,2,1,72,0,0
48643,-100,4,2,1,50,0,0
52302,-100,4,2,99,50,0,0
52393,-100,4,2,1,50,0,0
56692,-100,4,2,99,50,0,0
56783,-100,4,2,1,50,0,0
61448,-100,4,2,99,50,0,0
61631,-100,4,2,1,50,0,0
61814,-100,4,2,1,50,0,0
62911,-100,4,2,1,50,0,0
64009,-100,4,2,1,70,0,0
64741,-100,4,2,99,70,0,0
64832,-100,4,2,1,70,0,0
66204,-100,4,2,1,70,0,1
68033,-100,4,2,99,70,0,1
68125,-100,4,2,1,70,0,1
71692,-100,4,2,1,65,0,0
72058,-100,4,2,99,70,0,0
72150,-100,4,2,1,70,0,0
76448,-100,4,2,99,70,0,0
76540,-100,4,2,1,70,0,0

[Colours]
Combo1 : 196,0,196
Combo2 : 107,0,215

[HitObjects]
122,126,351,6,0,B|53:145|71:102|-7:127,2,120,2|2|2,0:0|0:0|0:0,0:0:0:0:
207,25,1448,1,2,0:0:0:0:
328,76,1814,2,0,P|321:139|314:203,1,120,2|2,0:0|0:0,0:0:0:0:
402,294,2546,2,0,P|461:298|486:231,2,120,2|2|2,0:0|0:0|0:0,0:0:0:0:
288,361,3643,1,2,0:0:0:0:
171,298,4009,2,0,P|111:305|42:313,1,120,2|2,0:0|0:0,0:0:0:0:
23,157,4741,6,0,P|1:106|43:52,1,120,6|0,3:1|0:0,0:0:0:0:
185,20,5472,1,2,3:2:0:0:
244,70,5655,1,2,0:0:0:0:
317,42,5838,2,0,B|388:41|350:2|438:6,1,120,14|0,0:0|3:2,0:0:0:0:
503,142,6570,5,2,3:2:0:0:
468,211,6753,1,2,0:0:0:0:
390,215,6936,2,0,P|351:178|292:212,1,120,2|0,3:2|0:0,0:0:0:0:
142,228,7668,2,0,P|146:264|150:297,1,60,2|2,3:2|0:0,0:0:0:0:
194,350,8033,2,0,P|248:343|325:333,1,120,14|0,0:0|0:0,0:0:0:0:
457,273,8765,1,6,0:1:0:0:
503,210,8948,1,0,0:0:0:0:
465,141,9131,6,0,B|491:76|448:89|481:17,2,120,6|2|6,3:2|0:0|0:3,0:0:0:0:
317,194,10229,2,0,P|279:190|238:186,1,60,14|0,0:0|0:0,0:0:0:0:
198,136,10594,2,0,P|202:93|205:60,1,60,10|10,0:0|0:1,0:0:0:0:
146,21,10960,1,2,3:2:0:0:
19,112,11326,6,0,P|-8:162|25:229,1,120,6|0,3:1|0:0,0:0:0:0:
91,353,12058,1,10,0:0:0:0:
156,310,12241,1,2,3:2:0:0:
221,352,12424,2,0,P|285:360|303:292,1,120,14|6,0:2|3:1,0:0:0:0:
126,65,13521,6,0,B|50:62|94:26|10:24,2,120,6|2|2,3:1|0:0|0:0,0:0:0:0:
256,43,14619,2,0,P|302:12|360:36,1,120,2|2,0:0|0:0,0:0:0:0:
465,110,15350,1,2,3:2:0:0:
358,188,15716,2,0,P|316:182|227:169,2,120,2|2|2,3:2|0:0|0:0,0:0:0:0:
412,252,16631,1,2,0:0:0:0:
412,252,16814,1,2,0:0:0:0:
330,356,17180,1,6,0:0:0:0:
208,305,17546,1,2,3:2:0:0:
84,260,17911,6,0,B|106:332|66:307|88:384,2,120,2|2|2,3:2|0:0|0:0,0:0:0:0:
58,130,19009,2,0,P|8:121|6:51,2,120,2|2|2,0:0|0:0|3:2,0:0:0:0:
116,77,19924,1,0,0:0:0:0:
116,77,20107,2,0,B|187:70|143:33|243:31,1,120,2|0,3:2|0:0,0:0:0:0:
355,27,20838,1,2,0:0:0:0:
445,122,21204,1,2,0:0:0:0:
346,209,21570,2,0,P|286:201|213:192,1,120,6|2,0:0|3:2,0:0:0:0:
107,250,22302,6,0,B|44:273|55:232|-13:258,2,120,2|2|2,3:2|0:0|0:0,0:0:0:0:
226,193,23399,2,0,P|241:145|178:104,2,120,2|2|2,0:0|0:0|0:0,0:0:0:0:
188,261,24314,1,2,0:0:0:0:
188,261,24497,2,0,P|171:307|225:353,1,120,2|2,0:0|0:0,0:0:0:0:
343,314,25229,1,2,3:2:0:0:
466,358,25594,1,2,0:0:0:0:
492,68,26692,6,0,P|464:20|392:32,1,120,2|2,3:2|0:0,0:0:0:0:
286,80,27424,1,2,3:2:0:0:
172,12,27790,1,2,0:0:0:0:
51,64,28155,2,0,P|55:113|62:199,1,120,2|2,0:0|3:2,0:0:0:0:
17,308,28887,2,0,P|47:369|136:328,1,180,2|0,3:2|0:0,0:0:0:0:
202,295,29619,6,0,P|198:260|193:217,1,60,6|2,0:0|0:0,0:0:0:0:
243,173,29985,1,10,0:0:0:0:
347,92,30350,2,0,L|339:19,1,60,2|8,0:0|0:0,0:0:0:0:
418,23,30716,2,0,L|426:98,1,60,10|0,0:0|0:0,0:0:0:0:
489,125,31082,6,0,P|514:180|474:232,1,120,6|0,3:1|0:0,0:0:0:0:
365,283,31814,1,0,0:0:0:0:
257,360,32180,2,0,B|183:362|219:319|135:322,1,120,14|0,0:0|0:0,0:0:0:0:
24,371,32911,1,2,0:0:0:0:
9,239,33277,2,0,P|5:190|67:171,1,120,6|0,0:1|0:0,0:0:0:0:
192,200,34009,1,2,0:0:0:0:
310,141,34375,1,14,0:0:0:0:
310,141,35472,6,0,P|371:150|440:160,2,120,6|2|2,3:1|0:0|0:0,0:0:0:0:
218,45,36570,2,0,P|181:16|110:49,1,120,14|4,0:0|0:0,0:0:0:0:
13,120,37302,1,2,3:2:0:0:
92,225,37668,2,0,P|86:290|81:356,1,120,6|0,3:1|0:0,0:0:0:0:
211,371,38399,1,2,3:2:0:0:
335,326,38765,2,0,B|407:325|373:287|451:290,1,120,14|4,0:0|0:0,0:0:0:0:
494,229,39314,1,8,0:0:0:0:
494,229,39497,1,4,3:1:0:0:
446,105,39863,6,0,P|478:61|428:13,2,120,6|2|10,3:1|0:0|0:0,0:0:0:0:
396,227,40960,2,0,P|347:220|319:216,1,60,2|0,3:2|0:0,0:0:0:0:
308,145,41326,2,0,P|267:150|236:154,1,60,14|0,1:0|0:0,0:0:0:0:
171,168,41692,1,10,0:0:0:0:
62,243,42058,2,0,B|80:317|39:289|65:377,2,120,2|2|10,3:2|2:0|0:0,0:0:0:0:
20,176,42972,1,0,0:0:0:0:
20,176,43155,1,2,3:2:0:0:
65,51,43521,1,2,0:0:0:0:
191,92,43887,6,0,P|258:98|291:41,1,120,10|6,0:0|3:2,0:0:0:0:
415,23,44619,1,2,0:0:0:0:
499,124,44985,1,10,0:0:0:0:
483,254,45350,6,0,B|409:244|452:213|369:207,1,120,2|2,0:0|0:0,0:0:0:0:
250,251,46082,1,10,0:0:0:0:
169,146,46448,2,0,B|206:112|184:46|122:35|61:79|67:152,1,240,6|10,3:1|0:0,0:0:0:0:
4,268,47546,1,14,0:0:0:0:
106,351,47911,1,6,3:1:0:0:
364,296,48643,6,0,B|437:290|391:253|479:252,2,120,6|2|2,3:1|0:0|0:0,0:0:0:0:
231,305,49741,2,0,P|199:360|141:343,2,120,2|2|2,0:0|0:0|3:2,0:0:0:0:
177,184,50838,2,0,P|114:193|47:202,1,120,2|2,3:2|0:0,0:0:0:0:
7,78,51570,1,2,0:0:0:0:
124,18,51936,2,0,P|162:23|202:28,1,60,10|0,0:0|0:0,0:0:0:0:
261,35,52302,1,6,0:0:0:0:
344,137,52668,1,2,3:2:0:0:
472,110,53033,6,0,P|480:53|489:-17,2,120,2|2|2,3:2|0:0|0:0,0:0:0:0:
446,240,54131,2,0,P|491:259|490:333,2,120,2|2|2,0:0|0:0|3:2,0:0:0:0:
313,238,55229,2,0,B|238:224|282:194|199:185,1,120,2|0,3:2|0:0,0:0:0:0:
100,110,55960,2,0,P|94:141|88:177,1,60,2|2,0:0|0:0,0:0:0:0:
24,212,56326,2,0,P|1:252|28:317,1,120,2|6,0:0|0:0,0:0:0:0:
153,354,57058,1,6,3:2:0:0:
264,284,57424,6,0,P|258:217|252:153,2,120,6|2|2,3:1|0:0|0:0,0:0:0:0:
153,354,58521,2,0,P|116:317|50:343,2,120,2|2|2,0:0|0:0|3:2,0:0:0:0:
284,365,59619,2,0,B|353:362|317:323|401:326,1,120,2|2,3:2|0:0,0:0:0:0:
504,254,60350,1,2,3:2:0:0:
478,124,60716,1,10,0:0:0:0:
401,16,61082,2,0,P|338:23|271:31,1,120,2|6,0:0|3:2,0:0:0:0:
149,38,61814,5,6,3:2:0:0:
14,292,62911,1,6,3:1:0:0:
295,354,63643,1,2,0:0:0:0:
388,244,64009,6,0,P|402:205|354:147,1,120,6|0,3:1|3:1,0:0:0:0:
286,174,64558,1,8,0:0:0:0:
286,174,64741,2,0,P|219:184|152:194,1,120,2|10,0:0|0:0,0:0:0:0:
46,137,65472,1,0,3:2:0:0:
120,27,65838,1,4,0:3:0:0:
241,76,66204,6,0,B|310:64|268:30|366:29,1,120,6|0,3:1|0:0,0:0:0:0:
490,94,66936,1,10,0:0:0:0:
478,171,67119,1,2,3:2:0:0:
467,248,67302,2,0,P|501:281|470:343,1,120,10|0,0:0|0:0,0:0:0:0:
321,366,68033,5,6,3:2:0:0:
259,318,68216,1,2,0:0:0:0:
192,358,68399,2,0,P|130:351|56:343,1,120,2|0,3:2|0:0,0:0:0:0:
9,201,69131,2,0,P|13:162|17:122,1,60,2|2,3:2|0:0,0:0:0:0:
46,69,69497,2,0,P|75:23|133:60,1,120,10|0,0:0|0:0,0:0:0:0:
243,148,70229,1,6,3:2:0:0:
309,188,70411,1,2,0:0:0:0:
371,140,70594,6,0,B|441:132|404:98|487:100,2,120,6|2|10,3:1|0:0|3:2,0:0:0:0:
250,239,71692,2,0,P|252:276|253:306,1,60,6|0,3:1|0:0,0:0:0:0:
307,354,72058,1,6,0:0:0:0:
63,158,72790,2,0,P|47:104|-14:97,2,120,6|2|10,3:2|3:2|0:0,0:0:0:0:
215,125,73887,2,0,P|211:86|208:57,1,60,6|0,0:0|0:0,0:0:0:0:
271,18,74253,1,6,3:1:0:0:
499,150,74985,6,0,P|494:218|490:278,1,120,6|2,3:1|0:0,0:0:0:0:
459,341,75533,1,0,0:0:0:0:
459,341,75716,1,10,0:0:0:0:
304,320,76082,2,0,P|266:325|224:331,1,60,14|0,0:0|0:0,0:0:0:0:
166,337,76448,1,6,3:2:0:0:
10,351,76814,1,2,3:2:0:0:
18,195,77180,6,0,P|74:177|64:112,1,120,6|2,3:1|0:0,0:0:0:0:
165,28,77911,1,2,0:0:0:0:
277,97,78277,2,0,P|270:166|264:226,1,120,10|10,0:0|0:0,0:0:0:0:
318,337,79009,2,0,L|400:349,1,60,2|2,3:2|0:0,0:0:0:0:
447,309,79375,1,6,3:1:0:0:
