osu file format v14

[General]
AudioFilename: audio.ogg
AudioLeadIn: 0
PreviewTime: 13430
Countdown: 0
SampleSet: Soft
StackLeniency: 0.5
Mode: 0
LetterboxInBreaks: 0
WidescreenStoryboard: 0

[Editor]
DistanceSpacing: 1.2
BeatDivisor: 4
GridSize: 32
TimelineZoom: 1

[Metadata]
Title:Calendrier (TV Size)
TitleUnicode:カランドリエ (TV Size)
Artist:Okui Aki
ArtistUnicode:奥井亜紀
Creator:Stompy_
Version:Insane
Source:黄昏乙女×アムネジア
Tags:Kanoe Yuuko 庚夕子 Dusk Maiden of Amnesia Tasogare Otome x anime ending ed female vocals vocalist pop jpop j-pop japanese Karandorie Calendar the fart lord
BeatmapID:4501153
BeatmapSetID:2138766

[Difficulty]
HPDrainRate:4.5
CircleSize:4.2
OverallDifficulty:7.5
ApproachRate:8.8
SliderMultiplier:1.5
SliderTickRate:1

[Events]
//Background and Video events
Video,229,"eeeeeeed.avi"
0,0,"bg (1).jpg",0,0
//Break Periods
//Storyboard Layer 0 (Background)
//Storyboard Layer 1 (Fail)
//Storyboard Layer 2 (Pass)
//Storyboard Layer 3 (Foreground)
//Storyboard Layer 4 (Overlay)
//Storyboard Sound Samples

[TimingPoints]
351,365.853658536585,4,2,1,40,1,0
351,-125,4,2,1,40,0,0
4741,-100,4,2,1,70,0,1
5838,-100,4,2,99,70,0,1
5930,-100,4,2,1,70,0,1
8033,-100,4,2,99,70,0,1
8125,-100,4,2,1,70,0,1
10229,-100,4,2,99,70,0,1
10321,-100,4,2,1,70,0,1
12424,-90.9090909090909,4,2,1,73,0,0
13521,-111.111111111111,4,2,1,50,0,0
17180,-111.111111111111,4,2,99,50,0,0
17271,-111.111111111111,4,2,1,50,0,0
21570,-111.111111111111,4,2,99,50,0,0
21661,-111.111111111111,4,2,1,50,0,0
25960,-111.111111111111,4,2,99,50,0,0
26051,-111.111111111111,4,2,1,50,0,0
29619,-111.111111111111,4,2,99,50,0,0
29710,-111.111111111111,4,2,1,50,0,0
30350,-111.111111111111,4,2,1,58,0,0
31082,-111.111111111111,4,2,1,60,0,0
32911,-111.111111111111,4,2,99,60,0,0
33094,-111.111111111111,4,2,1,60,0,0
34924,-111.111111111111,4,2,99,60,0,0
35107,-111.111111111111,4,2,1,60,0,0
36936,-111.111111111111,4,2,99,60,0,0
37119,-111.111111111111,4,2,1,60,0,0
39131,-111.111111111111,4,2,99,60,0,0
39314,-111.111111111111,4,2,1,60,0,0
39863,-90.9090909090909,4,2,1,66,0,0
40594,-100,4,2,1,66,0,0
40960,-90.9090909090909,4,2,1,68,0,0
41692,-100,4,2,1,68,0,0
42058,-90.9090909090909,4,2,1,70,0,0
42790,-100,4,2,1,70,0,0
44253,-100,4,2,1,72,0,0
44985,-90.9090909090909,4,2,1,70,0,0
45350,-90.9090909090909,4,2,1,72,0,0
45716,-100,4,2,1,72,0,0
48643,-111.111111111111,4,2,1,50,0,0
52302,-111.111111111111,4,2,99,50,0,0
52393,-111.111111111111,4,2,1,50,0,0
56692,-111.111111111111,4,2,99,50,0,0
56783,-111.111111111111,4,2,1,50,0,0
61448,-111.111111111111,4,2,99,50,0,0
61631,-111.111111111111,4,2,1,50,0,0
61814,-111.111111111111,4,2,1,50,0,0
62911,-142.857142857143,4,2,1,50,0,0
64009,-100,4,2,1,70,0,0
64741,-100,4,2,99,70,0,0
64832,-100,4,2,1,70,0,0
66204,-100,4,2,1,70,0,1
68033,-100,4,2,99,70,0,1
68125,-100,4,2,1,70,0,1
71692,-100,4,2,1,65,0,0
72058,-100,4,2,99,70,0,0
72150,-100,4,2,1,70,0,0
76448,-100,4,2,99,70,0,0
76540,-100,4,2,1,70,0,0

[Colours]
Combo1 : 196,0,196
Combo2 : 107,0,215

[HitObjects]
59,92,351,5,2,0:0:0:0:
114,37,533,1,2,0:0:0:0:
189,55,716,1,2,0:0:0:0:
207,130,899,1,2,0:0:0:0:
149,182,1082,6,0,P|106:173|71:167,1,60,2|0,0:0|0:0,0:0:0:0:
189,55,1448,6,0,L|201:-18,1,60,2|0,0:0|0:0,0:0:0:0:
206,129,1814,6,0,L|266:139,1,60,2|0,0:0|0:0,0:0:0:0:
416,159,2180,1,2,0:0:0:0:
416,159,2546,5,2,0:0:0:0:
480,114,2729,1,2,0:0:0:0:
474,36,2911,1,2,0:0:0:0:
402,5,3094,1,2,0:0:0:0:
340,53,3277,6,0,P|348:92|357:134,1,60,2|0,0:0|0:0,0:0:0:0:
492,172,3643,6,0,B|473:86,1,60,2|0,0:0|0:0,0:0:0:0:
278,206,4009,6,0,L|361:187,1,60,2|0,0:0|0:0,0:0:0:0:
226,273,4375,1,2,0:0:0:0:
174,43,4558,5,2,0:0:0:0:
176,50,4649,1,2,0:0:0:0:
179,56,4741,2,0,B|219:76|258:48|236:33|277:6|321:28,1,150,6|0,3:1|0:0,0:0:0:0:
483,56,5290,1,0,0:0:0:0:
406,2,5472,2,0,P|397:42|388:85,1,75,2|2,3:2|0:0,0:0:0:0:
277,202,5838,6,0,P|213:188|176:272,1,150,14|0,0:0|3:2,0:0:0:0:
268,309,6387,1,2,0:0:0:0:
86,309,6570,1,2,3:2:0:0:
118,135,6753,5,2,0:0:0:0:
117,142,6844,1,2,0:0:0:0:
116,149,6936,2,0,P|53:152|28:80,1,150,2|0,3:2|0:0,0:0:0:0:
124,25,7485,1,0,0:0:0:0:
216,129,7668,2,0,P|255:122|302:113,1,75,2|2,3:2|0:0,0:0:0:0:
506,65,8033,6,0,B|519:26|483:-8|427:6|420:61,1,150,14|0,0:0|0:0,0:0:0:0:
385,149,8582,1,0,3:2:0:0:
440,266,8765,2,0,P|476:257|517:247,1,75,6|0,0:1|0:0,0:0:0:0:
324,244,9131,6,0,P|283:208|227:223,1,112.5,6|0,3:2|0:0,0:0:0:0:
223,229,9497,1,2,0:0:0:0:
109,327,9680,1,8,0:3:0:0:
82,175,9863,2,0,P|89:217|95:254,1,75,6|0,0:3|0:0,0:0:0:0:
252,134,10229,6,0,P|244:81|235:20,1,112.5,14|0,0:0|0:0,0:0:0:0:
233,12,10594,1,10,0:0:0:0:
352,80,10777,1,10,0:1:0:0:
344,82,10869,1,10,0:1:0:0:
337,84,10960,1,2,3:2:0:0:
163,107,11143,1,2,0:0:0:0:
295,246,11326,6,0,B|334:257|367:226|340:214|380:182|431:197,1,150,6|0,3:1|0:0,0:0:0:0:
511,276,11875,1,0,3:2:0:0:
404,349,12058,2,0,P|410:308|418:253,1,75,10|2,0:0|3:2,0:0:0:0:
313,94,12424,6,0,P|268:87|226:80,1,82.5000025177003,14|0,0:2|0:0,0:0:0:0:
455,20,12790,2,0,P|449:63|442:115,1,82.5000025177003,6|0,3:1|0:0,0:0:0:0:
21,163,13521,6,0,P|52:120|134:139,1,134.999995880127,6|2,3:1|0:0,0:0:0:0:
153,221,14070,1,0,0:0:0:0:
153,221,14253,2,0,P|116:228|80:235,1,67.4999979400635,2|0,0:0|0:0,0:0:0:0:
188,318,14619,6,0,B|266:318|233:359|313:361,1,134.999995880127,2|2,0:0|0:0,0:0:0:0:
312,361,15350,2,0,P|307:325|301:280,1,67.4999979400635,2|0,3:2|0:0,0:0:0:0:
208,143,15716,6,0,P|244:129|252:60,1,101.249996910095,2|0,3:2|0:0,0:0:0:0:
253,61,16082,1,2,0:0:0:0:
153,33,16265,1,0,0:0:0:0:
113,132,16448,1,2,0:0:0:0:
250,210,16631,5,2,0:0:0:0:
249,218,16722,1,2,0:0:0:0:
249,226,16814,2,0,P|306:212|340:275,1,134.999995880127,2|6,0:0|0:0,0:0:0:0:
340,269,17546,2,0,P|335:301|328:343,1,67.4999979400635,2|0,3:2|0:0,0:0:0:0:
442,249,17911,6,0,P|484:235|488:170,1,101.249996910095,2|0,3:2|0:0,0:0:0:0:
497,166,18277,2,0,P|448:157|420:152,1,67.4999979400635,2|0,0:0|0:0,0:0:0:0:
361,48,18643,2,0,P|356:91|352:127,1,67.4999979400635,2|0,0:0|0:0,0:0:0:0:
262,179,19009,6,0,B|178:185|217:223|138:233,1,134.999995880127,2|2,0:0|0:0,0:0:0:0:
142,232,19741,2,0,P|135:188|129:146,1,67.4999979400635,2|0,3:2|0:0,0:0:0:0:
13,67,20107,6,0,P|23:12|94:46,1,134.999995880127,2|0,3:2|0:0,0:0:0:0:
87,106,20655,1,0,0:0:0:0:
227,193,20838,5,2,0:0:0:0:
296,153,21021,1,2,0:0:0:0:
353,211,21204,2,0,P|346:253|340:292,1,67.4999979400635,2|0,0:0|0:0,0:0:0:0:
249,356,21570,2,0,P|212:350|177:344,1,67.4999979400635,6|0,0:0|0:0,0:0:0:0:
35,324,21936,5,2,3:2:0:0:
35,324,22302,2,0,P|87:293|53:230,1,134.999995880127,2|2,3:2|0:0,0:0:0:0:
17,147,22850,1,0,0:0:0:0:
17,147,23033,2,0,P|50:139|105:124,1,67.4999979400635,2|0,0:0|0:0,0:0:0:0:
234,87,23399,6,0,P|241:52|168:64,1,134.999995880127,2|2,0:0|0:0,0:0:0:0:
453,138,24131,2,0,B|419:153|419:153|393:133,1,67.4999979400635,2|2,0:0|0:0,0:0:0:0:
394,134,24405,5,2,0:0:0:0:
394,134,24497,2,0,B|313:143|351:180|278:196,1,134.999995880127,2|2,0:0|0:0,0:0:0:0:
165,138,25046,1,0,0:0:0:0:
165,138,25229,2,0,P|173:172|184:222,1,67.4999979400635,2|0,3:2|0:0,0:0:0:0:
190,334,25594,6,0,P|197:296|283:296,1,134.999995880127,2|6,0:0|0:0,0:0:0:0:
278,290,26326,2,0,P|243:283|204:276,1,67.4999979400635,2|0,0:0|0:0,0:0:0:0:
378,351,26692,6,0,P|436:361|472:294,1,134.999995880127,2|2,3:2|0:0,0:0:0:0:
508,224,27241,1,0,0:0:0:0:
508,224,27424,2,0,P|465:218|433:214,1,67.4999979400635,2|0,3:2|0:0,0:0:0:0:
319,129,27790,2,0,P|324:82|331:14,1,101.249996910095,2|0,0:0|0:0,0:0:0:0:
331,17,28155,1,2,0:0:0:0:
421,92,28338,1,0,0:0:0:0:
236,123,28521,1,2,3:2:0:0:
236,123,28887,6,0,P|201:100|131:152,1,134.999995880127,2|0,3:2|0:0,0:0:0:0:
80,275,29436,1,0,0:0:0:0:
80,275,29619,2,0,P|115:269|154:263,1,67.4999979400635,6|2,0:0|0:0,0:0:0:0:
342,235,29985,5,10,0:0:0:0:
248,357,30168,1,2,3:2:0:0:
225,180,30350,6,0,P|229:220|235:273,1,67.4999979400635,2|8,0:0|0:0,0:0:0:0:
352,360,30716,2,0,B|386:365|386:365|408:338,1,67.4999979400635,10|0,0:0|0:0,0:0:0:0:
511,174,31082,6,0,B|435:145|454:197|368:160,1,134.999995880127,6|0,3:1|0:0,0:0:0:0:
379,164,31631,1,0,0:0:0:0:
233,94,31814,2,0,P|200:100|167:106,1,67.4999979400635
411,60,32180,6,0,P|392:14|320:29,1,134.999995880127,14|0,0:0|0:0,0:0:0:0:
320,28,32729,1,8,0:0:0:0:
224,177,32911,2,0,P|231:217|237:251,1,67.4999979400635,2|0,0:0|0:0,0:0:0:0:
90,347,33277,6,0,P|32:366|19:298,1,134.999995880127,6|0,0:1|0:0,0:0:0:0:
12,308,33826,1,0,0:0:0:0:
184,299,34009,2,0,P|178:338|173:373,1,67.4999979400635,2|0,0:0|0:0,0:0:0:0:
27,195,34375,6,0,B|103:169|84:218|170:181,1,134.999995880127,14|0,0:0|0:0,0:0:0:0:
158,185,34924,1,12,0:0:0:0:
291,91,35107,2,0,P|243:81|212:75,1,67.4999979400635
401,36,35472,6,0,P|445:9|500:44,1,101.249996910095,6|0,3:1|0:0,0:0:0:0:
495,32,35838,2,0,P|489:82|485:119,1,67.4999979400635,2|0,0:0|0:0,0:0:0:0:
413,255,36204,1,2,0:0:0:0:
343,212,36387,1,0,3:2:0:0:
265,352,36570,6,0,P|335:340|338:280,1,134.999995880127,14|4,0:0|0:0,0:0:0:0:
342,287,37302,2,0,P|305:280|267:273,1,67.4999979400635,2|0,3:2|0:0,0:0:0:0:
96,185,37668,6,0,P|126:130|173:174,1,134.999995880127,6|0,3:1|0:0,0:0:0:0:
172,162,38216,1,0,0:0:0:0:
18,42,38399,2,0,P|26:80|35:124,1,67.4999979400635,2|0,3:2|0:0,0:0:0:0:
95,362,38765,6,0,P|88:328|72:255,1,101.249996910095,14|0,0:0|0:0,0:0:0:0:
72,255,39131,1,4,0:0:0:0:
264,204,39314,1,8,0:0:0:0:
164,58,39497,1,4,3:1:0:0:
136,173,39680,1,0,0:0:0:0:
342,94,39863,6,0,B|368:47|313:5|246:27|254:119,1,165.000005035401,6|2,3:1|0:0,0:0:0:0:
255,85,40411,1,0,3:2:0:0:
384,197,40594,2,0,P|429:189|476:182,1,75,10|0,0:0|0:0,0:0:0:0:
356,359,40960,2,0,P|325:322|253:339,1,123.75000377655,2|0,3:2|0:0,0:0:0:0:
244,345,41326,2,0,P|201:339|138:329,1,82.5000025177003,14|0,1:0|0:0,0:0:0:0:
24,246,41692,1,10,0:0:0:0:
141,205,41875,1,0,3:2:0:0:
295,156,42058,6,0,P|278:94|221:131,1,123.75000377655,2|2,3:2|2:0,0:0:0:0:
226,111,42424,1,2,2:0:0:0:
235,232,42607,1,2,0:0:0:0:
410,250,42790,2,0,B|372:264|372:264|342:239,1,75,10|0,0:0|0:0,0:0:0:0:
396,54,43155,2,0,P|440:47|484:40,1,75,2|2,3:2|0:0,0:0:0:0:
479,40,43430,1,2,0:0:0:0:
488,39,43521,1,2,0:0:0:0:
383,171,43704,1,0,0:0:0:0:
258,12,43887,6,0,P|213:18|169:24,1,75,10|0,0:0|0:0,0:0:0:0:
0,185,44253,1,6,3:2:0:0:
136,92,44436,1,0,0:0:0:0:
20,12,44619,2,0,P|26:52|33:97,1,75,2|0,0:0|0:0,0:0:0:0:
148,204,44985,6,0,P|203:187|240:247,1,123.75000377655,10|0,0:0|0:0,0:0:0:0:
243,241,45350,1,2,0:0:0:0:
151,370,45533,1,0,3:2:0:0:
21,286,45716,2,0,P|72:290|112:293,1,75,2|0,0:0|0:0,0:0:0:0:
308,340,46082,2,0,B|273:355|273:355|243:330,1,75,10|0,0:0|0:0,0:0:0:0:
321,161,46448,5,6,3:1:0:0:
379,103,46631,1,2,0:0:0:0:
460,118,46814,1,2,0:0:0:0:
487,195,46997,1,2,0:0:0:0:
485,204,47088,1,2,0:0:0:0:
482,213,47180,2,0,P|436:222|398:229,1,75,10|0,0:0|3:2,0:0:0:0:
185,99,47546,6,0,B|248:72|236:107|298:82,1,112.5,14|0,0:0|0:0,0:0:0:0:
304,78,47911,2,0,P|298:39|292:-4,1,75,6|0,3:1|0:0,0:0:0:0:
128,220,48643,6,0,P|108:176|35:195,1,134.999995880127,6|2,3:1|0:0,0:0:0:0:
26,311,49192,1,0,0:0:0:0:
26,311,49375,2,0,P|62:303|100:295,1,67.4999979400635,2|0,0:0|0:0,0:0:0:0:
211,190,49741,6,0,B|279:154|276:201|347:162,1,134.999995880127,2|2,0:0|0:0,0:0:0:0:
340,165,50472,2,0,P|333:208|325:252,1,67.4999979400635,2|0,3:2|0:0,0:0:0:0:
436,350,50838,6,0,P|465:360|510:307,1,101.249996910095,2|0,3:2|0:0,0:0:0:0:
512,303,51204,1,2,0:0:0:0:
445,235,51387,1,2,0:0:0:0:
375,298,51570,1,2,0:0:0:0:
267,200,51753,5,2,0:0:0:0:
268,207,51844,1,2,0:0:0:0:
269,214,51936,2,0,L|285:349,1,134.999995880127,10|6,0:0|0:0,0:0:0:0:
99,346,52668,2,0,B|67:361|67:361|35:346,1,67.4999979400635,2|0,3:2|0:0,0:0:0:0:
31,189,53033,6,0,B|90:164|71:201|133:172,1,101.249996910095,2|0,3:2|0:0,0:0:0:0:
139,170,53399,2,0,P|134:129|130:86,1,67.4999979400635,2|0,0:0|0:0,0:0:0:0:
9,41,53765,2,0,P|44:38|98:33,1,67.4999979400635,2|0,0:0|0:0,0:0:0:0:
233,24,54131,6,0,P|286:9|314:85,1,134.999995880127,2|2,0:0|0:0,0:0:0:0:
320,69,54863,2,0,P|320:109|321:145,1,67.4999979400635,2|0,3:2|0:0,0:0:0:0:
413,277,55229,2,0,B|391:247|430:203|481:224|491:268,1,134.999995880127,2|0,3:2|0:0,0:0:0:0:
471,334,55777,1,0,0:0:0:0:
332,236,55960,5,2,0:0:0:0:
265,196,56143,1,2,0:0:0:0:
202,241,56326,2,0,L|203:327,1,67.4999979400635,2|0,0:0|0:0,0:0:0:0:
63,358,56692,2,0,P|104:357|157:355,1,67.4999979400635,6|8,0:0|0:0,0:0:0:0:
322,349,57058,5,6,3:2:0:0:
322,349,57424,2,0,P|344:290|394:323,1,134.999995880127,6|2,3:1|0:0,0:0:0:0:
495,238,57972,1,0,0:0:0:0:
495,238,58155,2,0,B|462:252|462:252|430:231,1,67.4999979400635,2|0,0:0|0:0,0:0:0:0:
354,96,58521,6,0,P|425:84|499:71,1,134.999995880127,2|2,0:0|0:0,0:0:0:0:
488,73,59253,2,0,P|437:63|407:57,1,67.4999979400635,2|2,3:2|0:0,0:0:0:0:
253,29,59619,6,0,B|169:40|214:73|129:89,1,134.999995880127,2|2,3:2|0:0,0:0:0:0:
135,87,60350,2,0,P|128:45|122:8,1,67.4999979400635,2|0,3:2|0:0,0:0:0:0:
12,159,60716,2,0,P|66:141|103:198,1,134.999995880127,10|2,0:0|0:0,0:0:0:0:
102,198,61265,1,8,0:0:0:0:
139,308,61448,2,0,P|100:298|60:289,1,67.4999979400635,6|0,3:2|0:0,0:0:0:0:
228,189,61814,6,0,B|214:148|267:121|302:148|310:198|243:236|243:236|212:280|240:325|240:325|244:290|273:265,1,337.499989700318,6|0,3:2|0:0,0:0:0:0:
463,319,62911,6,0,P|415:359|399:285,1,157.499995193482,6|0,3:1|0:0,0:0:0:0:
391,291,63643,1,2,0:0:0:0:
161,33,64009,6,0,B|196:15|196:15|235:47,1,75,6|0,3:1|0:0,0:0:0:0:
229,45,64283,1,0,3:0:0:0:
234,52,64375,1,0,3:1:0:0:
384,166,64558,5,8,0:0:0:0:
246,286,64741,1,2,0:0:0:0:
270,147,64924,1,8,0:0:0:0:
435,264,65107,2,0,P|391:258|336:250,1,75,10|8,0:0|0:3,0:0:0:0:
99,239,65472,5,0,3:2:0:0:
192,212,65655,1,8,0:3:0:0:
167,117,65838,1,4,0:3:0:0:
72,140,66021,1,0,3:2:0:0:
187,349,66204,6,0,B|227:369|266:341|244:326|285:299|329:321,1,150,6|0,3:1|0:0,0:0:0:0:
322,318,66753,1,0,3:2:0:0:
491,226,66936,2,0,P|449:234|407:243,1,75,10|2,0:0|3:2,0:0:0:0:
261,170,67302,6,0,P|252:119|234:16,1,150,10|0,0:0|0:0,0:0:0:0:
152,124,67850,1,2,0:0:0:0:
339,192,68033,1,6,3:2:0:0:
327,18,68216,5,2,0:0:0:0:
327,27,68308,1,2,0:0:0:0:
326,36,68399,2,0,P|382:4|401:80,1,150,2|0,3:2|0:0,0:0:0:0:
474,152,68948,1,0,0:0:0:0:
429,277,69131,2,0,P|477:268|525:259,1,75,2|2,3:2|0:0,0:0:0:0:
347,350,69497,6,0,B|307:370|268:342|290:327|249:300|205:322,1,150,10|0,0:0|0:0,0:0:0:0:
26,359,70046,1,8,0:0:0:0:
114,208,70229,2,0,P|123:255|130:297,1,75,6|2,3:2|0:0,0:0:0:0:
220,75,70594,6,0,B|233:36|197:2|141:16|134:71,1,150,6|2,3:1|0:0,0:0:0:0:
134,69,71143,1,8,0:3:0:0:
252,193,71326,2,0,P|297:183|336:174,1,75,10|4,3:2|0:3,0:0:0:0:
507,128,71692,6,0,L|428:148,1,75,6|0,3:1|0:0,0:0:0:0:
252,193,72058,1,6,0:0:0:0:
29,346,72790,6,0,B|69:366|108:338|86:323|127:296|171:318,1,150,6|2,3:2|3:2,0:0:0:0:
164,315,73338,1,0,3:2:0:0:
376,337,73521,2,0,B|340:355|340:355|306:331,1,75,10|0,0:0|3:2,0:0:0:0:
100,228,73887,6,0,B|140:220|196:208,1,75,6|0,0:0|0:0,0:0:0:0:
392,170,74253,1,6,3:1:0:0:
68,24,74802,5,2,0:0:0:0:
66,33,74893,1,2,0:0:0:0:
64,42,74985,2,0,P|12:11|-3:83,1,150,6|2,3:1|0:0,0:0:0:0:
49,157,75533,1,0,0:0:0:0:
168,32,75716,1,10,0:0:0:0:
260,127,75899,1,0,0:0:0:0:
348,26,76082,6,0,P|308:32|260:39,1,75,14|0,0:0|0:0,0:0:0:0:
161,215,76448,2,0,P|205:200|251:253,1,112.5,6|0,3:2|0:0,0:0:0:0:
251,251,76814,2,0,P|245:299|241:336,1,75,2|0,3:2|0:0,0:0:0:0:
398,353,77180,6,0,B|433:368|433:368|471:344,1,75,6|0,3:1|0:0,0:0:0:0:
503,236,77546,1,2,0:0:0:0:
389,141,77729,1,2,0:0:0:0:
498,41,77911,2,0,P|494:87|490:135,1,75,2|0,0:0|0:0,0:0:0:0:
336,239,78277,6,0,P|279:235|258:184,1,112.5,10|0,0:0|0:0,0:0:0:0:
258,180,78643,2,0,P|267:137|276:97,1,75,10|2,0:0|0:0,0:0:0:0:
104,16,79009,1,2,3:2:0:0:
166,150,79192,1,2,0:0:0:0:
371,17,79375,5,6,3:1:0:0:
