osu file format v14

[General]
AudioFilename: audio.ogg
AudioLeadIn: 0
PreviewTime: 13430
Countdown: 0
SampleSet: Soft
StackLeniency: 0.5
Mode: 0
LetterboxInBreaks: 0
WidescreenStoryboard: 1

[Editor]
DistanceSpacing: 1.4
BeatDivisor: 4
GridSize: 32
TimelineZoom: 1

[Metadata]
Title:Calendrier (TV Size)
TitleUnicode:カランドリエ (TV Size)
Artist:Okui Aki
ArtistUnicode:奥井亜紀
Creator:Stompy_
Version:Hard
Source:黄昏乙女×アムネジア
Tags:Kanoe Yuuko 庚夕子 Dusk Maiden of Amnesia Tasogare Otome x anime ending ed female vocals vocalist pop jpop j-pop japanese Karandorie Calendar the fart lord
BeatmapID:4551205
BeatmapSetID:2138766

[Difficulty]
HPDrainRate:4
CircleSize:3.8
OverallDifficulty:6
ApproachRate:7.5
SliderMultiplier:1.45
SliderTickRate:1

[Events]
//Background and Video events
Video,229,"eeeeeeed.avi"
0,0,"bg (1).jpg",0,0
//Break Periods
//Storyboard Layer 0 (Background)
//Storyboard Layer 1 (Fail)
//Storyboard Layer 2 (Pass)
//Storyboard Layer 3 (Foreground)
//Storyboard Layer 4 (Overlay)
//Storyboard Sound Samples

[TimingPoints]
351,365.853658536585,4,2,1,40,1,0
351,-125,4,2,1,40,0,0
4741,-100,4,2,1,70,0,1
5838,-100,4,2,99,70,0,1
5930,-100,4,2,1,70,0,1
8033,-100,4,2,99,70,0,1
8125,-100,4,2,1,70,0,1
10229,-100,4,2,99,70,0,1
10321,-100,4,2,1,70,0,1
12424,-100,4,2,1,73,0,0
13521,-125,4,2,1,50,0,0
17180,-125,4,2,99,50,0,0
17271,-125,4,2,1,50,0,0
21570,-125,4,2,99,50,0,0
21661,-125,4,2,1,50,0,0
25960,-125,4,2,99,50,0,0
26051,-125,4,2,1,50,0,0
29619,-125,4,2,99,50,0,0
29710,-125,4,2,1,50,0,0
30350,-125,4,2,1,58,0,0
31082,-125,4,2,1,60,0,0
32911,-125,4,2,99,60,0,0
33094,-125,4,2,1,60,0,0
34924,-125,4,2,99,60,0,0
35107,-100,4,2,1,60,0,0
36936,-100,4,2,99,60,0,0
37119,-100,4,2,1,60,0,0
39131,-100,4,2,99,60,0,0
39314,-100,4,2,1,60,0,0
39863,-100,4,2,1,66,0,0
40594,-100,4,2,1,66,0,0
40960,-100,4,2,1,68,0,0
41692,-100,4,2,1,68,0,0
42058,-100,4,2,1,70,0,0
42790,-100,4,2,1,70,0,0
44253,-100,4,2,1,72,0,0
44985,-100,4,2,1,70,0,0
45350,-100,4,2,1,72,0,0
45716,-100,4,2,1,72,0,0
48643,-125,4,2,1,50,0,0
52302,-125,4,2,99,50,0,0
52393,-125,4,2,1,50,0,0
56692,-125,4,2,99,50,0,0
56783,-125,4,2,1,50,0,0
61448,-125,4,2,99,50,0,0
61631,-125,4,2,1,50,0,0
61814,-125,4,2,1,50,0,0
62911,-125,4,2,1,50,0,0
64009,-125,4,2,1,70,0,0
64741,-125,4,2,99,70,0,0
64832,-125,4,2,1,70,0,0
66204,-100,4,2,1,70,0,1
68033,-100,4,2,99,70,0,1
68125,-100,4,2,1,70,0,1
71692,-100,4,2,1,65,0,0
72058,-100,4,2,99,70,0,0
72150,-100,4,2,1,70,0,0
76448,-100,4,2,99,70,0,0
76540,-100,4,2,1,70,0,0

[Colours]
Combo1 : 196,0,196
Combo2 : 107,0,215

[HitObjects]
29,70,351,6,0,P|72:39|135:77,1,116,2|2,0:0|0:0,0:0:0:0:
210,71,899,1,2,0:0:0:0:
210,71,1082,2,0,L|200:137,1,58,2|0,0:0|0:0,0:0:0:0:
186,208,1448,2,0,L|168:333,1,116,2|2,0:0|0:0,0:0:0:0:
169,322,2180,2,0,L|242:336,1,58,2|0,0:0|0:0,0:0:0:0:
303,358,2546,6,0,B|370:348|330:314|421:314,1,116,2|2,0:0|0:0,0:0:0:0:
488,339,3094,1,2,0:0:0:0:
488,339,3277,2,0,L|479:258,1,58,2|0,0:0|0:0,0:0:0:0:
472,200,3643,2,0,L|461:74,1,116,2|2,0:0|0:0,0:0:0:0:
461,84,4375,2,0,L|382:87,1,58,2|2,0:0|0:0,0:0:0:0:
281,46,4741,6,0,P|221:17|201:91,1,145,6|0,3:1|0:0,0:0:0:0:
170,184,5290,1,0,0:0:0:0:
170,184,5472,2,0,P|210:180|256:176,1,72.5,2|2,3:2|0:0,0:0:0:0:
359,229,5838,2,0,P|397:283|360:351,1,145,14|0,0:0|3:2,0:0:0:0:
257,363,6387,1,2,0:0:0:0:
148,354,6570,6,0,P|153:307|157:265,1,72.5,2|2,3:2|0:0,0:0:0:0:
133,246,6844,1,2,0:0:0:0:
133,246,6936,2,0,B|51:242|91:193|-13:196,1,145,2|0,3:2|0:0,0:0:0:0:
0,86,7485,1,0,0:0:0:0:
105,58,7668,2,0,L|94:144,1,72.5,2|2,3:2|0:0,0:0:0:0:
220,181,8033,6,0,P|271:186|299:98,1,145,14|0,0:0|0:0,0:0:0:0:
305,110,8765,2,0,P|301:69|296:24,1,72.5,6|0,0:1|0:0,0:0:0:0:
426,46,9131,6,0,L|438:145,1,72.5,6|0,3:2|0:0,0:0:0:0:
446,222,9497,2,0,P|494:212|502:296,1,145,2|6,0:0|0:3,0:0:0:0:
511,288,10046,1,0,0:0:0:0:
428,358,10229,2,0,P|376:351|333:345,1,72.5,14|0,0:0|0:0,0:0:0:0:
267,284,10594,2,0,L|259:363,1,72.5,10|10,0:0|0:1,0:0:0:0:
150,346,10960,2,0,L|160:264,1,72.5,2|2,3:2|0:0,0:0:0:0:
175,151,11326,6,0,L|191:-1,1,145,6|0,3:1|0:0,0:0:0:0:
190,6,12058,1,10,0:0:0:0:
97,24,12241,1,2,3:2:0:0:
0,42,12424,2,0,L|7:126,1,72.5,14|0,0:2|0:0,0:0:0:0:
94,223,12790,2,0,L|103:152,1,72.5,6|0,3:1|0:0,0:0:0:0:
295,353,13521,6,0,P|346:360|360:301,1,116,6|2,3:1|0:0,0:0:0:0:
363,307,14253,2,0,P|356:273|349:233,1,58,2|0,0:0|0:0,0:0:0:0:
288,190,14619,2,0,B|216:187|253:153|175:152,2,116,2|2|2,0:0|0:0|3:2,0:0:0:0:
457,149,15716,6,0,P|496:111|461:48,1,116,2|2,3:2|0:0,0:0:0:0:
400,18,16265,1,0,0:0:0:0:
400,18,16448,2,0,P|365:23|337:27,1,58,2|2,0:0|0:0,0:0:0:0:
242,8,16814,2,0,L|259:137,1,116,2|6,0:0|0:0,0:0:0:0:
257,123,17546,2,0,P|254:152|250:192,1,58,2|0,3:2|0:0,0:0:0:0:
301,251,17911,6,0,P|355:249|385:318,2,116,2|2|2,3:2|0:0|0:0,0:0:0:0:
163,358,19009,2,0,P|102:351|36:343,1,116,2|2,0:0|0:0,0:0:0:0:
47,344,19741,2,0,L|55:278,1,58,2|0,3:2|0:0,0:0:0:0:
23,181,20107,6,0,P|2:132|29:74,1,116,2|0,3:2|0:0,0:0:0:0:
82,17,20655,1,0,0:0:0:0:
82,17,20838,2,0,L|147:25,1,58,2|2,0:0|0:0,0:0:0:0:
227,10,21204,2,0,L|221:79,1,58,2|0,0:0|0:0,0:0:0:0:
309,73,21570,2,0,L|312:2,1,58,6|0,0:0|0:0,0:0:0:0:
391,50,21936,1,2,3:2:0:0:
257,223,22302,6,0,B|190:218|219:181|147:180,1,116,2|2,3:2|0:0,0:0:0:0:
152,180,23033,2,0,P|146:222|143:248,1,58,2|0,0:0|0:0,0:0:0:0:
83,300,23399,2,0,P|109:353|171:341,1,116,2|2,0:0|0:0,0:0:0:0:
250,350,23948,1,0,0:0:0:0:
250,350,24131,2,0,P|290:353|326:355,1,58,2|2,0:0|0:0,0:0:0:0:
386,314,24497,6,0,B|459:307|417:275|500:277,1,116,2|2,0:0|0:0,0:0:0:0:
492,276,25229,2,0,L|488:202,1,58,2|0,3:2|0:0,0:0:0:0:
436,148,25594,2,0,P|467:122|464:73,1,87,2|0,0:0|0:0,0:0:0:0:
450,37,25960,2,0,P|419:33|383:29,1,58,6|0,0:0|0:0,0:0:0:0:
306,2,26326,2,0,L|300:76,1,58,2|0,0:0|0:0,0:0:0:0:
294,141,26692,6,0,L|281:272,1,116,2|2,3:2|0:0,0:0:0:0:
282,256,27424,2,0,P|248:253|216:250,1,58,2|0,3:2|0:0,0:0:0:0:
168,310,27790,2,0,P|131:338|92:329,1,87,2|0,0:0|0:0,0:0:0:0:
55,316,28155,2,0,P|60:274|63:246,1,58,2|0,0:0|0:0,0:0:0:0:
17,189,28521,2,0,P|15:152|12:118,1,58,2|0,3:2|0:0,0:0:0:0:
91,30,28887,6,0,P|138:17|176:67,1,116,2|0,3:2|0:0,0:0:0:0:
175,64,29619,1,6,0:0:0:0:
121,146,29802,1,2,0:0:0:0:
204,197,29985,2,0,P|239:191|280:183,1,58,10|2,0:0|3:2,0:0:0:0:
302,97,30350,2,0,P|339:99|381:101,1,58,2|8,0:0|0:0,0:0:0:0:
454,69,30716,2,0,L|456:2,1,58,10|0,0:0|0:0,0:0:0:0:
499,151,31082,6,0,B|433:163|464:191|401:213,1,116,6|0,3:1|0:0,0:0:0:0:
403,211,31631,1,0,0:0:0:0:
314,186,31814,2,0,P|317:146|320:113,1,58
242,22,32180,2,0,L|232:152,1,116,14|0,0:0|0:0,0:0:0:0:
233,137,32911,2,0,L|170:134,1,58,2|0,0:0|0:0,0:0:0:0:
91,47,33277,6,0,P|46:20|8:66,1,116,6|0,0:1|0:0,0:0:0:0:
8,59,33826,1,0,0:0:0:0:
47,143,34009,2,0,P|41:185|37:217,1,58,2|0,0:0|0:0,0:0:0:0:
61,322,34375,2,0,B|133:314|91:282|173:279,1,116,14|0,0:0|0:0,0:0:0:0:
165,279,34924,1,12,0:0:0:0:
271,301,35107,2,0,P|266:344|262:380,1,72.5
385,356,35472,6,0,P|438:338|426:257,1,145,6|2,3:1|0:0,0:0:0:0:
430,260,36204,2,0,P|392:252|347:243,1,72.5,2|0,0:0|3:2,0:0:0:0:
232,175,36570,2,0,L|387:154,1,145,14|4,0:0|0:0,0:0:0:0:
375,155,37119,1,0,0:0:0:0:
470,102,37302,2,0,L|460:16,1,72.5,2|0,3:2|0:0,0:0:0:0:
333,17,37668,6,0,B|245:20|283:58|200:65,1,145,6|0,3:1|0:0,0:0:0:0:
200,64,38216,1,0,0:0:0:0:
107,7,38399,2,0,P|102:49|97:93,1,72.5,2|0,3:2|0:0,0:0:0:0:
13,147,38765,1,14,0:0:0:0:
13,147,38948,1,0,0:0:0:0:
7,241,39131,1,4,0:0:0:0:
95,273,39314,1,8,0:0:0:0:
164,209,39497,2,0,P|203:203|256:196,1,72.5,4|0,3:1|0:0,0:0:0:0:
325,104,39863,6,0,P|391:92|443:150,1,145,6|2,3:1|0:0,0:0:0:0:
464,235,40411,1,0,3:2:0:0:
375,201,40594,1,10,0:0:0:0:
197,137,40960,2,0,P|203:93|209:44,1,72.5,2|0,3:2|0:0,0:0:0:0:
128,1,41326,2,0,P|121:50|115:98,1,72.5,14|0,1:0|3:2,0:0:0:0:
37,122,41692,1,10,0:0:0:0:
97,350,42058,6,0,P|146:342|196:334,1,72.5,2|0,3:2|0:0,0:0:0:0:
211,204,42424,2,0,P|216:248|222:297,1,72.5,2|0,2:0|0:0,0:0:0:0:
328,351,42790,2,0,B|415:352|368:308|483:313,1,145,10|2,0:0|3:2,0:0:0:0:
503,226,43338,1,2,0:0:0:0:
503,226,43430,1,2,0:0:0:0:
503,226,43521,1,2,0:0:0:0:
431,164,43704,1,0,0:0:0:0:
340,189,43887,2,0,P|348:231|355:265,1,72.5,10|0,0:0|0:0,0:0:0:0:
246,366,44253,6,0,P|235:309|215:212,1,145,6|2,3:2|0:0,0:0:0:0:
217,223,44802,1,0,0:0:0:0:
200,131,44985,2,0,P|191:79|184:39,1,72.5,10|0,0:0|0:0,0:0:0:0:
103,17,45350,6,0,P|60:7|11:51,1,108.75,2|0,0:0|0:0,0:0:0:0:
3,91,45716,2,0,P|10:137|17:179,1,72.5,2|0,0:0|0:0,0:0:0:0:
71,238,46082,2,0,P|111:230|155:224,1,72.5,10|0,0:0|0:0,0:0:0:0:
289,207,46448,6,0,B|280:150|325:126|372:148|368:198|368:198|364:251|407:268|452:255|448:189,1,290,6|10,3:1|0:0,0:0:0:0:
471,111,47363,1,0,3:2:0:0:
471,111,47454,1,0,0:0:0:0:
471,111,47546,2,0,P|461:66|453:27,1,72.5,14|0,0:0|0:0,0:0:0:0:
359,7,47911,2,0,P|367:49|374:84,1,72.5,6|0,3:1|0:0,0:0:0:0:
162,163,48643,6,0,P|126:124|66:141,1,116,6|2,3:1|0:0,0:0:0:0:
69,137,49375,2,0,P|61:175|55:206,1,58,2|0,0:0|0:0,0:0:0:0:
94,272,49741,2,0,B|162:251|138:293|216:266,2,116,2|2|2,0:0|0:0|3:2,0:0:0:0:
249,350,50838,6,0,P|307:365|349:322,1,116,2|2,3:2|0:0,0:0:0:0:
418,294,51387,1,2,0:0:0:0:
418,294,51570,2,0,P|451:296|482:298,1,58,2|2,0:0|0:0,0:0:0:0:
512,196,51936,2,0,L|387:188,1,116,10|6,0:0|0:0,0:0:0:0:
396,188,52668,2,0,P|365:181|327:173,1,58,2|0,3:2|0:0,0:0:0:0:
270,122,53033,6,0,P|273:63|221:43,2,116,2|2|2,3:2|0:0|0:0,0:0:0:0:
309,291,54131,2,0,P|249:301|175:313,1,116,2|2,0:0|0:0,0:0:0:0:
194,309,54863,2,0,P|162:303|130:296,1,58,2|0,3:2|0:0,0:0:0:0:
23,271,55229,6,0,P|0:222|39:166,1,116,2|0,3:2|0:0,0:0:0:0:
9,91,55777,1,0,0:0:0:0:
9,91,55960,2,0,P|44:79|82:65,1,58,2|2,0:0|0:0,0:0:0:0:
122,7,56326,2,0,P|163:13|196:17,1,58,2|0,0:0|0:0,0:0:0:0:
266,23,56692,2,0,P|260:73|256:107,1,58,6|8,0:0|0:0,0:0:0:0:
334,125,57058,1,6,3:2:0:0:
191,224,57424,6,0,B|126:226|157:187|75:195,1,116,6|2,3:1|0:0,0:0:0:0:
82,194,58155,2,0,P|76:241|73:268,1,58,2|0,0:0|0:0,0:0:0:0:
9,310,58521,2,0,P|7:353|74:364,1,116,2|2,0:0|0:0,0:0:0:0:
157,354,59070,1,0,0:0:0:0:
157,354,59253,2,0,P|200:349|238:344,1,58,2|2,3:2|0:0,0:0:0:0:
309,291,59619,6,0,P|381:299|450:307,1,116,2|2,3:2|0:0,0:0:0:0:
424,303,60350,2,0,L|494:290,1,58,2|0,3:2|0:0,0:0:0:0:
501,213,60716,2,0,P|514:174|481:133,1,87,10|0,0:0|0:0,0:0:0:0:
455,111,61082,2,0,P|458:78|461:42,1,58,2|8,0:0|0:0,0:0:0:0:
366,44,61448,2,0,L|361:106,1,58,6|0,3:2|0:0,0:0:0:0:
293,147,61814,5,6,3:2:0:0:
293,147,62911,5,6,3:1:0:0:
293,147,64009,6,0,P|257:142|213:137,1,58,6|0,3:1|0:0,0:0:0:0:
195,137,64283,1,0,3:0:0:0:
195,137,64375,1,0,3:1:0:0:
141,61,64558,2,0,P|116:22|53:33,1,116,8|8,0:0|0:0,0:0:0:0:
0,100,65107,1,10,0:0:0:0:
41,176,65290,1,8,0:3:0:0:
125,196,65472,2,0,P|122:160|119:125,1,58,0|8,3:2|0:3,0:0:0:0:
213,199,65838,2,0,P|216:228|218:257,1,58,4|0,0:3|3:2,0:0:0:0:
282,361,66204,6,0,P|259:315|173:327,1,145,6|0,3:1|0:0,0:0:0:0:
74,363,66753,1,0,3:2:0:0:
74,363,66936,2,0,P|34:357|-12:352,1,72.5,10|2,0:0|3:2,0:0:0:0:
3,230,67302,2,0,P|48:205|22:114,1,145,10|0,0:0|0:0,0:0:0:0:
90,28,67850,1,2,0:0:0:0:
185,80,68033,6,0,P|230:72|266:66,1,72.5,6|2,3:2|0:0,0:0:0:0:
305,39,68308,1,2,0:0:0:0:
305,39,68399,2,0,B|390:56|358:5|454:26,1,145,2|0,3:2|0:0,0:0:0:0:
508,113,68948,1,0,0:0:0:0:
416,171,69131,2,0,P|417:128|418:90,1,72.5,2|2,3:2|0:0,0:0:0:0:
325,178,69497,6,0,P|271:165|233:237,1,145,10|0,0:0|0:0,0:0:0:0:
232,233,70229,2,0,P|238:274|243:310,1,72.5,6|2,3:2|0:0,0:0:0:0:
350,360,70594,2,0,L|441:347,1,72.5,6|0,3:1|0:0,0:0:0:0:
502,276,70960,2,0,B|475:192|521:224|484:127,1,145,2|10,0:0|3:2,0:0:0:0:
486,134,71509,1,4,0:3:0:0:
511,32,71692,6,0,P|469:26|414:18,1,72.5,6|0,3:1|0:0,0:0:0:0:
309,74,72058,2,0,P|344:80|380:86,1,72.5,6|0,0:0|0:0,0:0:0:0:
181,39,72790,6,0,P|123:8|101:74,1,145,6|2,3:2|3:2,0:0:0:0:
96,66,73338,1,0,3:2:0:0:
142,164,73521,2,0,P|182:158|223:152,1,72.5,10|0,0:0|3:2,0:0:0:0:
302,206,73887,6,0,P|310:259|314:290,1,72.5,6|0,0:0|0:0,0:0:0:0:
407,362,74253,2,0,P|400:317|394:280,1,72.5,6|0,3:1|0:0,0:0:0:0:
215,320,74802,5,2,0:0:0:0:
215,320,74893,1,2,0:0:0:0:
215,320,74985,2,0,B|127:309|157:358|70:349,1,145,6|2,3:1|0:0,0:0:0:0:
23,271,75533,1,0,0:0:0:0:
76,193,75716,2,0,P|115:186|158:178,1,72.5,10|0,0:0|0:0,0:0:0:0:
238,110,76082,6,0,P|211:75|235:16,1,108.75,14|0,0:0|0:0,0:0:0:0:
277,9,76448,2,0,P|323:13|356:16,1,72.5,6|0,3:2|0:0,0:0:0:0:
443,20,76814,1,2,3:2:0:0:
497,206,77180,6,0,P|456:181|395:246,1,145,6|2,3:1|0:0,0:0:0:0:
394,238,77729,1,2,0:0:0:0:
429,340,77911,2,0,P|473:334|520:328,1,72.5,2|0,0:0|0:0,0:0:0:0:
350,308,78277,2,0,P|294:299|198:283,1,145,10|10,0:0|0:0,0:0:0:0:
206,284,78826,1,2,0:0:0:0:
120,207,79009,2,0,P|112:259|106:296,1,72.5,2|2,3:2|0:0,0:0:0:0:
92,371,79375,1,6,3:1:0:0:
