osu file format v14

[General]
AudioFilename: audio.mp3
AudioLeadIn: 0
PreviewTime: 166442
Countdown: 0
SampleSet: Soft
StackLeniency: 0.7
Mode: 0
LetterboxInBreaks: 0
WidescreenStoryboard: 0

[Editor]
DistanceSpacing: 1.2
BeatDivisor: 2
GridSize: 8
TimelineZoom: 1.2

[Metadata]
Title:Calendrier
TitleUnicode:カランドリエ
Artist:Okui Aki
ArtistUnicode:奥井亜紀
Creator:Kalibe
Version:Easy
Source:黄昏乙女×アムネジア
Tags:Tasogare Otome x Amnesia Dusk Maiden of full version ed ending anime akitoshi corinn left
BeatmapID:1317481
BeatmapSetID:623684

[Difficulty]
HPDrainRate:2
CircleSize:3
OverallDifficulty:2
ApproachRate:3
SliderMultiplier:0.899999999999999
SliderTickRate:1

[Events]
//Background and Video events
0,0,"gggg.jpg",0,0
//Break Periods
2,83593,84514
2,149812,165734
//Storyboard Layer 0 (Background)
//Storyboard Layer 1 (Fail)
//Storyboard Layer 2 (Pass)
//Storyboard Layer 3 (Foreground)
//Storyboard Sound Samples

[TimingPoints]
345,365.853658536585,3,2,6,35,1,0
345,-100,3,2,6,35,0,0
4735,-100,3,2,2,70,0,0
12417,-100,3,2,2,75,0,0
13515,-100,3,2,2,55,0,0
26320,-100,3,2,2,50,0,0
26594,-100,3,2,2,5,0,0
26686,-100,3,2,2,55,0,0
31076,-100,3,2,2,60,0,0
39857,-100,3,2,2,65,0,1
43881,-100,3,2,2,65,0,0
44247,-100,3,2,2,75,0,1
47905,-100,3,2,2,80,0,0
48271,-100,3,2,2,30,0,0
48637,-100,3,2,2,55,0,0
64003,-100,3,2,2,70,0,0
83759,-100,3,2,6,50,0,0
85954,-100,3,2,2,55,0,0
98759,-100,3,2,2,55,0,0
99033,-100,3,2,2,55,0,0
99125,-100,3,2,2,55,0,0
103515,-100,3,2,2,60,0,0
112296,-100,3,2,2,65,0,1
116320,-100,3,2,2,70,0,0
116594,-100,3,2,2,5,0,0
116686,-100,3,2,2,75,0,1
120344,-100,3,2,2,80,0,0
120710,-100,3,2,2,30,0,0
121076,-100,3,2,2,55,0,0
136442,-100,3,2,2,65,0,0
140832,-100,3,2,2,70,0,0
149613,-100,3,2,6,45,0,0
150985,-100,3,2,2,5,0,0
151076,-100,3,2,6,60,0,0
151808,-100,3,2,2,45,0,0
152905,-100,3,2,6,50,0,0
153271,-100,3,2,2,60,0,0
154003,-100,3,2,2,45,0,0
155375,-100,3,2,2,5,0,0
155466,-100,3,2,2,60,0,0
157662,-100,3,2,6,40,0,0
158027,-100,3,2,2,55,0,0
158302,-100,3,2,2,5,0,0
158393,-100,3,2,2,45,0,0
158759,-100,3,2,2,60,0,0
159491,-100,3,2,2,45,0,0
159765,-100,3,2,2,5,0,0
159857,-100,3,2,2,60,0,0
160588,-100,3,2,2,45,0,0
160954,-100,3,2,2,60,0,0
161686,-100,3,2,2,45,0,0
162052,-100,3,2,2,60,0,0
162784,-100,3,2,2,45,0,0
163058,-100,3,2,2,5,0,0
163149,-100,3,2,2,60,0,0
163881,-100,3,2,2,45,0,0
164247,-100,3,2,2,60,0,0
164704,-100,3,2,2,60,0,0
164979,-100,3,2,2,65,0,0
167174,-100,3,2,2,60,0,0
175954,-100,3,2,2,65,0,1
176960,-100,3,2,2,5,0,1
177052,-100,3,2,2,65,0,1
179979,-100,3,2,2,70,0,0
180253,-100,3,2,2,5,0,0
180344,-100,3,2,2,75,0,1
184003,-100,3,2,2,80,0,0
184369,-100,3,2,2,30,0,0
184735,-100,3,2,2,55,0,0
192784,-100,3,2,6,60,0,0
193149,-100,3,2,2,50,0,0
193424,-100,3,2,2,5,0,0
193515,-100,3,2,2,55,0,0
200101,-100,3,2,2,70,0,0
208149,-100,3,2,6,60,0,0
208515,-100,3,2,2,70,0,0
212540,-100,3,2,6,60,0,0
212905,-100,3,2,2,70,0,0
216564,-100,3,2,2,75,0,0
217662,-100,3,2,2,70,0,0
218759,-100,3,2,2,75,0,0
219857,-100,3,2,2,70,0,0
224247,-100,3,2,2,50,0,0
224430,-100,3,2,2,5,0,0
226442,-100,3,2,2,40,0,0
226991,-100,3,2,2,5,0,0
228271,-100,3,2,2,30,0,0
228820,-100,3,2,2,5,0,0
230832,-100,3,2,2,30,0,0
230924,-100,3,2,2,40,0,0
233027,-100,3,2,2,25,0,0
235223,-100,3,2,2,5,0,0

[Colours]
Combo1 : 255,51,51
Combo2 : 255,0,128
Combo3 : 0,128,192
Combo4 : 128,128,192

[HitObjects]
256,192,345,12,2,3271,0:0:0:0:
48,352,4735,6,0,P|13:308|40:192,1,180,2|2,3:2|3:0,0:0:0:0:
124,131,5832,2,0,B|179:121|179:121|240:143|240:143|306:132,1,180,8|2,0:0|0:0,0:0:0:0:
386,70,6930,2,0,P|338:144|356:236,1,180,4|2,0:0|0:0,0:0:0:0:
438,296,8027,2,0,B|354:263|354:263|281:323,1,180,12|12,0:0|0:0,0:0:0:0:
192,377,9125,6,0,P|175:334|185:286,1,89.9999999999999,4|2,0:0|0:0,0:0:0:0:
258,214,9857,1,2,3:2:0:0:
157,174,10223,2,0,L|51:196,2,89.9999999999999,8|2|2,0:0|0:0|0:0,0:0:0:0:
206,77,11320,6,0,B|269:55|294:79|324:106|388:84,1,180,4|10,0:0|0:0,0:0:0:0:
462,14,12418,1,6,0:0:0:0:
510,110,12784,1,14,0:0:0:0:
381,283,13515,6,0,P|296:305|220:261,1,180,4|2,0:0|0:0,0:0:0:0:
156,173,14613,2,0,P|152:128|176:77,2,89.9999999999999,2|0|0,0:0|0:0|0:0,0:0:0:0:
220,261,15710,2,0,L|199:351,1,89.9999999999999,2|0,3:2|0:0,0:0:0:0:
121,273,16442,1,2,0:0:0:0:
29,331,16808,2,0,P|-1:249|54:179,1,180,2|2,0:0|3:0,0:0:0:0:
152,144,17905,6,0,L|168:51,2,89.9999999999999,2|2|2,3:2|0:0|0:0,0:0:0:0:
135,250,19003,2,0,P|179:250|218:229,1,89.9999999999999,2|0,3:2|0:0,0:0:0:0:
260,128,19735,1,0,0:0:0:0:
334,208,20101,2,0,B|527:233,1,180,2|2,3:2|0:0,0:0:0:0:
450,319,21198,2,0,B|355:306,1,89.9999999999999,2|2,3:2|3:0,0:0:0:0:
266,360,21930,1,6,3:0:0:0:
210,267,22296,6,0,P|205:222|186:160,2,89.9999999999999,2|0|2,0:0|0:0|0:0,0:0:0:0:
133,342,23393,2,0,P|87:352|42:334,1,89.9999999999999,2|2,0:0|0:0,0:0:0:0:
95,241,24125,1,0,3:0:0:0:
27,156,24491,2,0,P|87:93|183:96,1,180,0|2,3:0|0:0,0:0:0:0:
256,20,25588,2,0,L|350:35,1,89.9999999999999,2|2,0:0|0:0,0:0:0:0:
410,121,26320,1,6,3:0:0:0:
479,37,26686,6,0,P|458:124|435:221,1,180,2|0,0:0|3:0,0:0:0:0:
338,256,27784,2,0,P|325:211|341:159,2,89.9999999999999,2|2|2,0:0|0:3|3:2,0:0:0:0:
413,333,28881,2,0,P|316:301|208:327,1,180,2|2,0:0|0:0,0:0:0:0:
149,370,29979,2,0,P|132:325|141:278,1,89.9999999999999,8|2,0:0|0:0,0:0:0:0:
222,216,30710,1,8,3:2:0:0:
179,116,31076,6,0,B|118:107|118:107|67:127|67:127|2:118,1,180,4|2,0:0|3:2,0:0:0:0:
50,216,32174,2,0,L|242:238,1,180,8|2,0:0|3:2,0:0:0:0:
289,146,33271,2,0,P|338:219|310:313,1,180,2|0,0:0|3:0,0:0:0:0:
235,374,34369,2,0,P|311:330|397:349,1,180,8|2,0:0|0:0,0:0:0:0:
488,291,35466,6,0,P|507:334|501:382,2,89.9999999999999,4|2|0,0:0|0:0|3:0,0:0:0:0:
427,200,36564,2,0,B|347:240|347:240|254:209,1,180,8|2,0:0|3:2,0:0:0:0:
188,291,37662,2,0,P|149:213|189:133,1,180,2|2,0:3|0:0,0:0:0:0:
267,62,38759,2,0,L|174:46,1,89.9999999999999,8|2,0:0|0:0,0:0:0:0:
78,5,39490,1,4,3:2:0:0:
25,99,39857,6,0,P|8:143|0:201,2,89.9999999999999,2|2|8,0:0|0:0|0:0,0:0:0:0:
108,167,40954,2,0,P|152:158|193:142,2,89.9999999999999,4|12|10,0:0|0:0|0:0,0:0:0:0:
44,253,42052,2,0,L|150:271,1,89.9999999999999,4|2,0:0|1:2,0:0:0:0:
230,221,42784,1,8,0:0:0:0:
280,316,43149,2,0,P|358:356|445:329,1,180,2|8,3:2|0:0,0:0:0:0:
506,243,44247,6,0,L|491:153,1,89.9999999999999,4|10,0:0|0:0,0:0:0:0:
440,58,44979,1,8,0:0:0:0:
354,123,45344,2,0,P|314:144|260:138,1,89.9999999999999,4|4,0:0|0:3,0:0:0:0:
194,64,46076,1,8,0:0:0:0:
110,132,46442,2,0,B|141:243|141:243|114:314,1,180,6|8,0:0|0:0,0:0:0:0:
18,342,47540,1,8,1:2:0:0:
32,236,47905,1,2,0:0:0:0:
232,312,48637,6,0,B|326:281|307:359|416:316,1,180,4|2,0:0|0:0,0:0:0:0:
504,275,49735,2,0,P|438:207|345:233,1,180,2|0,0:0|0:0,0:0:0:0:
271,159,50832,2,0,P|225:162|175:144,2,89.9999999999999,0|0|2,3:0|0:0|0:0,0:0:0:0:
361,220,51930,2,0,L|343:311,1,89.9999999999999,10|0,0:0|3:0,0:0:0:0:
248,360,52662,1,4,3:0:0:0:
148,319,53027,6,0,P|102:322|49:345,2,89.9999999999999,2|0|2,0:0|0:0|0:0,0:0:0:0:
213,233,54125,2,0,P|170:217|126:214,2,89.9999999999999,2|0|0,0:3|3:0|3:0,0:0:0:0:
285,313,55223,2,0,B|337:281|371:310|404:336|460:311,1,180,2|0,3:3|3:0,0:0:0:0:
395,225,56320,2,0,P|383:181|403:129,1,89.9999999999999,8|2,0:0|0:0,0:0:0:0:
480,72,57052,1,4,0:0:0:0:
390,11,57418,6,0,L|262:27,1,89.9999999999999,4|0,0:0|0:0,0:0:0:0:
223,97,58149,1,2,0:0:0:0:
125,49,58515,2,0,P|109:91|123:144,2,89.9999999999999,2|0|4,0:0|0:0|3:0,0:0:0:0:
223,97,59613,2,0,P|259:178|228:272,1,180,2|2,0:0|0:0,0:0:0:0:
189,360,60710,2,0,P|293:347|372:382,1,180,8|2,0:0|3:0,0:0:0:0:
454,319,61808,6,0,P|461:275|471:221,2,89.9999999999999,6|0|2,0:0|0:0|0:0,0:0:0:0:
374,246,62905,2,0,P|366:201|358:157,2,89.9999999999999,6|0|4,0:0|0:0|3:0,0:0:0:0:
296,322,64003,2,0,P|192:351|120:296,1,180,4|2,3:2|0:0,0:0:0:0:
40,369,65101,2,0,P|24:327|37:282,1,89.9999999999999,8|0,0:0|3:0,0:0:0:0:
109,206,65832,1,2,3:3:0:0:
36,127,66198,6,0,P|115:165|202:126,1,180,2|2,3:2|3:0,0:0:0:0:
274,57,67296,2,0,B|337:62|337:62|376:99|376:99|446:109,1,180,10|2,0:0|0:0,0:0:0:0:
507,25,68393,2,0,P|478:106|456:208,1,180,2|2,0:0|0:0,0:0:0:0:
494,299,69491,2,0,B|419:259|391:332|317:285,1,180,8|12,0:0|0:0,0:0:0:0:
336,180,70588,6,0,P|292:178|246:204,1,89.9999999999999,4|2,0:0|0:0,0:0:0:0:
199,293,71320,1,2,0:0:0:0:
97,258,71686,2,0,P|89:308|84:356,2,89.9999999999999,8|4|2,0:0|3:0|3:0,0:0:0:0:
162,171,72784,2,0,P|84:210|9:163,1,180,4|8,0:0|0:0,0:0:0:0:
19,58,73881,1,8,1:2:0:0:
126,71,74247,1,0,1:0:0:0:
233,84,74613,1,2,1:2:0:0:
309,160,74979,6,0,B|425:139|425:139|483:169,1,180,6|2,0:0|3:2,0:0:0:0:
415,253,76076,2,0,P|335:290|256:253,1,180,12|2,0:0|0:0,0:0:0:0:
207,157,77174,2,0,P|169:237|186:328,1,180,2|2,0:0|3:2,0:0:0:0:
276,379,78271,2,0,L|88:346,1,180,8|12,0:0|0:0,0:0:0:0:
38,258,79369,6,0,L|135:243,1,89.9999999999999,4|2,0:0|0:0,0:0:0:0:
190,156,80101,1,0,3:0:0:0:
109,83,80466,2,0,L|-2:67,2,89.9999999999999,10|4|0,0:0|3:0|3:0,0:0:0:0:
190,156,81564,2,0,B|262:187|295:124|368:156,1,180,4|8,0:0|0:0,0:0:0:0:
424,244,82662,2,0,P|468:240|513:254,2,89.9999999999999,12|6|2,0:0|0:0|1:2,0:0:0:0:
347,318,85954,6,0,B|286:306|286:306|236:324|236:324|171:311,1,180,4|2,3:2|0:0,0:0:0:0:
68,282,87052,2,0,B|53:322|53:322|71:365,2,89.9999999999999,2|0|2,0:0|0:0|0:0,0:0:0:0:
135,197,88149,2,0,P|207:220|297:155,1,180,2|2,0:0|0:3,0:0:0:0:
342,72,89247,1,2,0:0:0:0:
21,26,90344,6,0,P|36:71|50:128,1,89.9999999999999,2|0,3:2|0:0,0:0:0:0:
1,210,91076,1,2,0:3:0:0:
83,280,91442,2,0,L|183:294,2,89.9999999999999,2|2|0,0:0|0:0|0:0,0:0:0:0:
6,356,92540,2,0,L|199:380,1,180,2|2,0:0|0:0,0:0:0:0:
282,333,93637,2,0,P|309:249|261:163,1,180,8|4,0:0|3:2,0:0:0:0:
167,204,94735,6,0,P|160:159|178:116,1,89.9999999999999,2|2,0:0|0:3,0:0:0:0:
259,51,95466,1,2,0:0:0:0:
353,103,95832,2,0,P|399:93|451:87,2,89.9999999999999,2|2|0,0:0|0:3|3:0,0:0:0:0:
270,173,96930,2,0,P|357:191|442:224,1,180,2|2,0:0|0:0,0:0:0:0:
495,317,98027,2,0,P|408:335|323:368,1,180,2|6,0:0|3:0,0:0:0:0:
264,277,99125,6,0,P|256:232|252:178,2,89.9999999999999,2|2|0,0:0|0:0|3:0,0:0:0:0:
324,368,100223,2,0,P|251:316|161:332,1,180,2|0,0:0|3:0,0:0:0:0:
71,381,101320,1,2,0:0:0:0:
145,178,102052,1,2,0:0:0:0:
40,159,102418,2,0,P|36:203|57:244,2,89.9999999999999,8|2|8,0:0|0:0|1:2,0:0:0:0:
145,178,103515,6,0,P|230:198|290:123,1,180,4|4,0:0|3:0,0:0:0:0:
225,47,104613,1,8,0:0:0:0:
40,159,105344,1,0,3:0:0:0:
93,253,105710,2,0,P|196:276|257:237,1,180,2|6,3:2|3:0,0:0:0:0:
349,186,106808,2,0,B|361:242|361:242|342:303|342:303|353:362,1,180,8|2,0:0|0:0,0:0:0:0:
436,292,107905,6,0,P|452:249|433:191,1,89.9999999999999,4|2,0:0|0:0,0:0:0:0:
344,161,108637,1,0,3:0:0:0:
422,86,109003,2,0,P|337:110|262:56,1,180,8|2,0:0|3:2,0:0:0:0:
176,0,110101,2,0,P|161:91|157:189,1,180,4|2,3:0|0:0,0:0:0:0:
73,247,111198,2,0,P|55:214|52:155,2,89.9999999999999,8|0|6,0:0|1:0|0:0,0:0:0:0:
169,297,112296,6,0,P|157:347|148:395,2,89.9999999999999,4|2|8,0:0|0:0|0:0,0:0:0:0:
276,293,113393,2,0,P|267:248|256:205,2,89.9999999999999,6|12|8,0:0|0:0|0:0,0:0:0:0:
348,374,114491,2,0,P|391:363|435:354,1,89.9999999999999,6|8,0:0|0:0,0:0:0:0:
497,265,115223,1,2,3:0:0:0:
402,213,115588,2,0,P|307:203|220:196,1,180,0|8,3:0|0:0,0:0:0:0:
113,210,116686,6,0,P|123:167|140:125,1,89.9999999999999,6|8,0:0|0:0,0:0:0:0:
231,67,117418,1,8,1:2:0:0:
142,4,117784,2,0,P|97:10|53:19,1,89.9999999999999,4|8,3:0|0:0,0:0:0:0:
10,118,118515,1,8,0:0:0:0:
44,221,118881,2,0,P|121:209|232:195,1,180,4|8,0:0|0:0,0:0:0:0:
312,136,119979,1,12,0:0:0:0:
405,190,120344,1,2,0:0:0:0:
266,356,121076,6,0,B|326:345|326:345|378:364|378:364|452:352,1,180,4|2,0:0|0:3,0:0:0:0:
497,261,122174,2,0,B|386:280|386:280|314:251,1,180,2|0,0:2|3:0,0:0:0:0:
403,182,123271,2,0,L|523:159,2,89.9999999999999,2|0|0,3:2|0:0|0:0,0:0:0:0:
323,254,124369,2,0,P|218:284|150:230,1,180,8|2,0:0|3:0,0:0:0:0:
59,221,125466,6,0,P|48:265|46:316,2,89.9999999999999,2|0|2,3:2|0:0|0:3,0:0:0:0:
150,161,126564,2,0,P|161:205|163:256,2,89.9999999999999,2|2|0,3:0|0:0|3:0,0:0:0:0:
57,105,127662,2,0,P|139:136|221:104,1,180,2|2,3:2|3:2,0:0:0:0:
315,51,128759,2,0,P|397:20|479:52,1,180,8|4,0:0|3:2,0:0:0:0:
482,161,129857,6,0,P|436:149|382:140,2,89.9999999999999,4|2|2,0:0|0:0|0:3,0:0:0:0:
406,238,130954,2,0,P|361:231|318:219,2,89.9999999999999,2|2|0,0:0|0:0|3:0,0:0:0:0:
495,298,132052,1,2,3:2:0:0:
290,368,132784,1,2,0:0:0:0:
210,295,133149,2,0,B|188:200|243:213|213:113,1,180,8|4,0:0|3:0,0:0:0:0:
137,42,134247,6,0,P|102:128|118:226,1,180,6|4,0:0|3:0,0:0:0:0:
45,297,135344,2,0,P|126:264|221:306,1,180,10|8,0:0|0:0,0:0:0:0:
256,192,136442,12,4,138637,0:0:0:0:
0,74,140832,6,0,B|77:48|99:113|176:79,1,180,4|2,0:0|3:2,0:0:0:0:
265,19,141930,2,0,L|356:31,1,89.9999999999999,8|2,0:0|0:0,0:0:0:0:
442,93,142662,1,4,3:0:0:0:
349,147,143027,2,0,P|321:260|341:320,1,180,2|2,3:2|3:0,0:0:0:0:
431,375,144125,2,0,L|220:340,1,180,8|0,0:0|3:0,0:0:0:0:
149,377,145223,5,4,0:0:0:0:
96,167,145954,1,0,3:0:0:0:
182,231,146320,2,0,P|269:247|340:193,1,180,10|2,0:0|3:2,0:0:0:0:
430,253,147418,2,0,P|458:172|391:105,1,180,2|0,3:2|3:2,0:0:0:0:
297,76,148515,2,0,L|201:93,1,89.9999999999999,10|6,0:0|1:2,0:0:0:0:
113,39,149247,2,0,L|97:127,1,89.9999999999999,6|2,3:3|0:0,0:0:0:0:
0,342,167174,6,0,L|213:318,1,180,4|2,0:0|3:2,0:0:0:0:
285,307,168271,1,8,0:0:0:0:
89,217,169003,1,4,3:0:0:0:
193,188,169369,2,0,P|289:224|370:184,1,180,2|4,3:2|3:0,0:0:0:0:
426,279,170466,2,0,P|462:183|422:102,1,180,8|2,0:0|0:0,0:0:0:0:
453,8,171564,6,0,P|409:9|362:25,1,89.9999999999999,4|2,3:2|0:3,0:0:0:0:
291,101,172296,1,2,3:2:0:0:
196,48,172662,2,0,P|208:134|224:235,1,180,8|2,0:0|0:0,0:0:0:0:
284,314,173759,2,0,P|207:270|107:300,1,180,4|0,3:0|3:0,0:0:0:0:
43,363,174857,2,0,P|27:317|27:255,1,89.9999999999999,8|2,0:0|3:2,0:0:0:0:
95,194,175588,1,4,3:2:0:0:
88,85,175954,6,0,P|43:93|-3:101,2,89.9999999999999,6|2|8,0:0|0:0|0:0,0:0:0:0:
189,46,177052,2,0,P|181:90|173:134,2,89.9999999999999,6|12|8,0:0|0:0|0:0,0:0:0:0:
289,6,178149,2,0,P|296:50|304:94,1,89.9999999999999,6|8,0:0|0:0,0:0:0:0:
365,184,178881,1,0,3:0:0:0:
428,96,179247,2,0,P|406:204|392:290,1,180,0|12,3:0|0:0,0:0:0:0:
418,378,180344,6,0,P|376:359|317:345,1,89.9999999999999,6|8,0:0|0:0,0:0:0:0:
230,381,181076,1,8,0:0:0:0:
137,325,181442,2,0,P|121:288|122:226,1,89.9999999999999,4|2,3:0|0:0,0:0:0:0:
181,150,182174,1,8,0:0:0:0:
236,242,182540,2,0,P|331:270|408:229,1,180,4|8,3:2|0:0,0:0:0:0:
463,149,183637,1,12,0:0:0:0:
512,245,184003,1,2,0:0:0:0:
430,45,184735,6,0,P|344:29|263:80,1,180,4|0,0:0|0:0,0:0:0:0:
302,176,185832,2,0,P|178:157|111:148,1,180,2|0,0:0|3:0,0:0:0:0:
18,124,186930,2,0,P|24:168|32:212,1,89.9999999999999,2|0,3:2|0:0,0:0:0:0:
126,266,187662,1,2,0:3:0:0:
67,356,188027,2,0,P|141:311|234:329,1,180,8|4,0:0|3:0,0:0:0:0:
325,375,189125,6,0,P|369:366|413:359,2,89.9999999999999,2|0|0,3:2|0:0|0:0,0:0:0:0:
341,267,190223,2,0,P|385:259|429:251,2,89.9999999999999,0|2|0,3:0|0:0|3:0,0:0:0:0:
240,302,191320,2,0,B|229:238|229:238|245:192|245:192|230:108,1,180,2|0,3:2|3:0,0:0:0:0:
141,69,192418,2,0,P|121:109|126:156,2,89.9999999999999,12|2|4,0:0|0:0|3:2,0:0:0:0:
239,25,193515,6,0,L|346:14,1,89.9999999999999,4|2,0:0|0:0,0:0:0:0:
430,52,194247,1,0,0:0:0:0:
372,143,194613,2,0,P|331:131|277:121,2,89.9999999999999,2|2|4,0:0|0:0|3:0,0:0:0:0:
425,236,195710,2,0,P|468:223|512:215,2,89.9999999999999,2|2|2,0:0|0:0|3:2,0:0:0:0:
350,314,196808,2,0,P|264:338|185:299,1,180,8|4,0:0|3:0,0:0:0:0:
96,239,197905,5,4,0:0:0:0:
405,142,199003,1,4,0:0:0:0:
96,239,200101,2,0,P|58:192|93:86,1,180,4|4,0:0|3:0,0:0:0:0:
178,23,201198,2,0,L|281:36,1,89.9999999999999,8|0,0:0|3:0,0:0:0:0:
349,104,201930,1,2,3:0:0:0:
428,30,202296,6,0,P|400:113|381:204,1,180,2|2,3:2|3:0,0:0:0:0:
467,268,203393,2,0,B|405:253|405:253|349:272|349:272|294:259,1,180,8|2,0:0|0:0,0:0:0:0:
225,174,204491,2,0,P|177:245|212:333,1,180,2|2,0:0|3:2,0:0:0:0:
299,384,205588,2,0,L|107:361,1,180,8|12,0:0|0:0,0:0:0:0:
27,306,206686,6,0,P|15:263|20:198,1,89.9999999999999,4|2,0:0|0:0,0:0:0:0:
81,132,207418,1,0,3:0:0:0:
172,189,207784,2,0,P|184:146|179:81,1,89.9999999999999,8|2,0:0|0:0,0:0:0:0:
258,22,208515,1,8,0:0:0:0:
326,102,208881,2,0,P|397:92|511:76,1,180,4|8,0:0|0:0,0:0:0:0:
449,170,209979,1,12,0:0:0:0:
511,257,210344,1,2,0:0:0:0:
479,360,210710,1,2,3:0:0:0:
395,291,211076,6,0,P|315:252|222:274,1,180,4|2,0:0|1:2,0:0:0:0:
153,347,212174,2,0,P|76:378|-2:328,1,180,10|2,0:0|0:3,0:0:0:0:
82,260,213271,1,2,3:3:0:0:
142,55,214003,1,2,3:2:0:0:
50,111,214369,2,0,B|135:78|143:153|231:114,1,180,8|4,0:0|3:2,0:0:0:0:
325,80,215466,6,0,P|369:86|413:96,2,89.9999999999999,4|2|4,0:0|0:0|1:2,0:0:0:0:
224,116,216564,2,0,P|233:160|244:203,1,89.9999999999999,12|12,0:0|0:0,0:0:0:0:
433,308,217662,6,0,P|332:284|270:331,1,180,4|4,0:0|1:2,0:0:0:0:
185,262,218759,2,0,P|173:303|166:350,1,89.9999999999999,12|12,0:0|0:0,0:0:0:0:
357,243,219857,6,0,P|369:155|324:79,1,180,4|2,0:0|1:2,0:0:0:0:
224,116,220954,2,0,P|186:136|133:131,1,89.9999999999999,12|2,0:0|0:3,0:0:0:0:
60,60,221686,1,2,3:2:0:0:
14,158,222052,2,0,L|48:349,1,180,4|8,0:0|0:0,0:0:0:0:
127,265,223149,2,0,L|107:162,2,89.9999999999999,10|8|0,0:0|0:0|3:0,0:0:0:0:
149,371,224247,5,4,0:1:0:0:
256,192,224613,12,2,226442,0:0:0:0:
256,192,228637,12,2,230832,0:0:0:0:
88,140,233393,6,0,P|42:133|-6:122,2,89.9999999999999,2|0|0,0:0|0:0|0:0,0:0:0:0:
157,222,234491,2,0,P|112:228|68:238,1,89.9999999999999,2|2,0:0|0:0,0:0:0:0:
