osu file format v14

[General]
AudioFilename: audio.mp3
AudioLeadIn: 0
PreviewTime: 61580
Countdown: 0
SampleSet: Soft
StackLeniency: 0.7
Mode: 0
LetterboxInBreaks: 0
WidescreenStoryboard: 0

[Editor]
Bookmarks: 13073,25541,38008,50476,61385,75411
DistanceSpacing: 1.1
BeatDivisor: 4
GridSize: 32
TimelineZoom: 1.2

[Metadata]
Title:Kimi no Hana (TV size)
TitleUnicode:キミの花 (TV size)
Artist:Oku Hanako
ArtistUnicode:奥華子
Creator:Del05
Version:Xinying's Insane
Source:セイレン
Tags:Seiren opening Tsuneki Hikari Miyamae Tooru Touno Kyouko xinying chocox walaowey op
BeatmapID:1184212
BeatmapSetID:557856

[Difficulty]
HPDrainRate:6
CircleSize:4
OverallDifficulty:7
ApproachRate:8
SliderMultiplier:1.8
SliderTickRate:1

[Events]
//Background and Video events
0,0,"BG.jpg",0,0
Video,0,"OP.avi"
//Break Periods
//Storyboard Layer 0 (Background)
//Storyboard Layer 1 (Fail)
//Storyboard Layer 2 (Pass)
//Storyboard Layer 3 (Foreground)
//Storyboard Sound Samples

[TimingPoints]
606,389.61038961039,4,2,1,30,1,0
606,-133.333333333333,4,2,1,30,0,0
13073,-133.333333333333,4,2,1,40,0,0
25541,-100,4,2,1,65,0,0
50476,-117.647058823529,4,2,1,50,0,0
61385,-100,4,2,1,60,0,0
62164,-200,4,2,1,30,0,0
62943,-100,4,2,1,70,0,1
75313,-100,4,2,1,70,0,0
75411,-100,4,2,1,70,0,1
87878,-100,4,2,1,50,0,0
89437,-100,4,2,1,5,0,0

[Colours]
Combo1 : 254,241,90
Combo2 : 255,128,191
Combo3 : 178,159,151
Combo4 : 165,196,230
Combo5 : 182,224,84
Combo6 : 255,227,210

[HitObjects]
487,96,606,6,0,L|352:96,1,135.000005149842,2|8,0:0|2:1,0:0:0:0:
308,159,1190,2,0,P|300:198|314:236,1,67.5000025749208,0|8,2:1|2:1,0:0:0:0:
371,273,1580,1,0,0:0:0:0:
371,273,1774,2,0,L|449:273,1,67.5000025749208,10|0,2:1|0:0,0:0:0:0:
296,303,2164,6,0,L|218:303,1,67.5000025749208,10|0,2:1|0:0,0:0:0:0:
136,238,2554,1,8,2:1:0:0:
136,238,2748,2,0,P|172:227|205:232,1,67.5000025749208,2|8,2:1|2:1,0:0:0:0:
340,192,3138,2,0,P|309:182|275:185,1,67.5000025749208,0|10,0:0|2:1,0:0:0:0:
301,266,3528,1,2,0:0:0:0:
318,105,3722,6,0,L|327:35,1,67.5000025749208,2|0,0:0|0:0,0:0:0:0:
227,127,4112,2,0,L|236:57,1,67.5000025749208,8|2,2:1|2:1,0:0:0:0:
136,149,4502,2,0,L|145:79,1,67.5000025749208,8|0,2:1|0:0,0:0:0:0:
70,195,4891,1,10,2:1:0:0:
136,149,5086,1,0,0:0:0:0:
117,262,5281,6,0,P|168:284|243:269,1,135.000005149842,10|8,2:1|2:1,0:0:0:0:
294,205,5865,2,0,L|280:125,1,67.5000025749208,2|8,2:1|2:1,0:0:0:0:
325,13,6255,2,0,L|273:56,1,67.5000025749208,0|10,0:0|2:1,0:0:0:0:
207,105,6644,1,0,0:0:0:0:
346,163,6839,6,0,P|382:173|421:164,1,67.5000025749208,2|0,0:0|0:0,0:0:0:0:
499,263,7229,2,0,P|463:253|424:262,1,67.5000025749208,8|2,2:1|2:1,0:0:0:0:
355,359,7618,2,0,P|391:369|430:360,1,67.5000025749208,8|0,2:1|0:0,0:0:0:0:
355,359,8008,1,10,2:1:0:0:
318,286,8203,1,0,0:0:0:0:
274,355,8398,6,0,B|229:370|229:370|128:370,1,135.000005149842,10|8,2:1|2:1,0:0:0:0:
78,318,8982,2,0,P|71:281|91:235,1,67.5000025749208,2|8,2:1|2:1,0:0:0:0:
154,223,9372,2,0,P|161:256|154:289,1,67.5000025749208,0|10,0:0|2:1,0:0:0:0:
92,174,9761,1,2,0:0:0:0:
189,82,9956,6,0,P|239:65|322:81,1,135.000005149842,2|8,0:0|2:1,0:0:0:0:
378,134,10541,2,0,L|374:215,1,67.5000025749208,2|8,2:1|2:1,0:0:0:0:
355,288,10930,1,0,0:0:0:0:
290,228,11125,2,0,P|257:219|224:222,1,67.5000025749208,10|0,2:1|0:0,0:0:0:0:
136,341,11515,6,0,P|160:317|174:287,1,67.5000025749208,10|0,2:1|0:0,0:0:0:0:
126,132,11904,1,8,2:1:0:0:
16,222,12099,1,2,2:1:0:0:
158,214,12294,1,8,2:1:0:0:
39,137,12489,1,2,2:1:0:0:
90,270,12683,1,8,2:1:0:0:
126,132,12878,1,0,0:0:0:0:
11,310,13073,6,0,P|62:355|141:344,1,135.000005149842,6|8,0:0|2:1,0:0:0:0:
158,214,13657,1,0,0:0:0:0:
90,270,13852,1,8,2:1:0:0:
210,348,14047,1,0,0:0:0:0:
233,262,14242,2,0,L|250:185,1,67.5000025749208,8|0,2:1|0:0,0:0:0:0:
229,69,14631,6,0,P|187:53|106:94,1,135.000005149842,10|8,2:1|2:1,0:0:0:0:
104,170,15216,2,0,L|115:236,1,67.5000025749208,2|8,2:1|2:1,0:0:0:0:
190,204,15606,2,0,L|179:138,1,67.5000025749208,0|8,0:0|2:1,0:0:0:0:
29,202,15995,1,2,0:0:0:0:
159,299,16190,6,0,B|214:314|214:314|300:314,1,135.000005149842,2|8,0:0|2:1,0:0:0:0:
451,285,16774,2,0,P|457:321|444:361,1,67.5000025749208,2|8,2:1|2:1,0:0:0:0:
373,316,17164,1,0,0:0:0:0:
385,232,17359,2,0,P|413:208|454:200,1,67.5000025749208,8|0,2:1|0:0,0:0:0:0:
373,316,17748,6,0,L|219:316,1,135.000005149842,10|8,2:1|2:1,0:0:0:0:
159,292,18333,2,0,P|148:256|165:210,1,67.5000025749208,0|8,0:0|2:1,0:0:0:0:
228,160,18722,2,0,P|239:192|234:225,1,67.5000025749208,2|8,2:1|2:1,0:0:0:0:
141,130,19112,1,0,0:0:0:0:
243,46,19307,6,0,B|306:29|306:29|379:48,1,135.000005149842,2|8,0:0|2:1,0:0:0:0:
422,171,19891,2,0,L|429:104,1,67.5000025749208,2|8,2:1|2:1,0:0:0:0:
349,207,20281,1,2,2:1:0:0:
401,318,20476,1,8,2:1:0:0:
401,318,20865,6,0,P|335:328|271:300,1,135.000005149842,8|8,2:1|2:1,0:0:0:0:
196,277,21450,2,0,L|186:354,1,67.5000025749208,2|8,2:1|2:1,0:0:0:0:
92,239,21839,2,0,L|102:316,1,67.5000025749208,2|8,2:1|2:1,0:0:0:0:
176,167,22229,1,2,0:0:0:0:
281,301,22424,6,0,L|426:287,1,135.000005149842,2|8,0:0|2:1,0:0:0:0:
459,219,23008,2,0,P|417:205|376:213,1,67.5000025749208,2|8,2:1|2:1,0:0:0:0:
456,362,23398,1,2,2:1:0:0:
500,293,23593,1,8,2:1:0:0:
288,224,23982,5,8,2:3:0:0:
157,170,24177,1,0,0:0:0:0:
176,311,24372,1,4,0:0:0:0:
238,159,24567,1,0,0:0:0:0:
76,181,24761,5,8,0:0:0:0:
157,170,24956,1,0,0:0:0:0:
126,246,25151,1,0,0:0:0:0:
76,181,25346,1,0,0:0:0:0:
188,94,25541,5,4,0:0:0:0:
45,257,25930,1,8,0:0:0:0:
126,246,26125,1,0,0:0:0:0:
76,181,26320,1,0,0:0:0:0:
45,257,26515,1,2,0:0:0:0:
95,322,26709,2,0,P|148:326|185:302,1,90,0|8,0:0|0:0,0:0:0:0:
258,234,27099,6,0,L|357:234,1,90,0|2,0:0|0:0,0:0:0:0:
408,301,27489,1,8,0:0:0:0:
436,215,27683,2,0,P|464:170|464:125,1,90
348,234,28073,1,2,0:0:0:0:
408,301,28268,2,0,L|512:301,1,90,8|0,0:0|0:0,0:0:0:0:
376,148,28657,6,0,B|304:149|304:149|261:135|261:135|176:135,1,180,2|8,0:0|0:0,0:0:0:0:
119,179,29242,2,0,P|107:136|117:93,1,90
197,224,29631,1,2,0:0:0:0:
198,135,29826,1,0,0:0:0:0:
120,269,30021,2,0,L|120:371,1,90,8|0,0:0|0:0,0:0:0:0:
197,224,30411,5,2,0:0:0:0:
276,359,30606,2,0,P|325:367|370:349,1,90,8|0,0:0|0:0,0:0:0:0:
444,242,30995,1,0,0:0:0:0:
362,269,31190,1,2,0:0:0:0:
444,381,31385,1,8,0:0:0:0:
494,311,31580,1,0,0:0:0:0:
379,184,31774,6,0,B|315:160|315:160|203:160,1,180,2|8,0:0|0:0,0:0:0:0:
119,125,32359,2,0,P|111:173|132:217,1,90,0|0,0:0|0:0,0:0:0:0:
277,107,32749,2,0,P|239:76|190:72,1,90,2|0,0:0|0:0,0:0:0:0:
214,253,33138,1,8,0:0:0:0:
203,160,33333,5,2,0:0:0:0:
139,310,33528,1,2,0:0:0:0:
289,196,33722,1,8,0:0:0:0:
225,346,33917,2,0,L|314:381,1,90
214,253,34307,2,0,P|178:224|123:221,1,90,2|8,0:0|0:0,0:0:0:0:
139,310,34696,1,0,0:0:0:0:
300,289,34891,6,0,P|330:201|294:113,1,180,2|8,0:0|0:0,0:0:0:0:
233,63,35476,2,0,L|135:59,1,90
69,165,35865,2,0,L|167:161,1,90,2|0,0:0|0:0,0:0:0:0:
233,267,36255,1,8,0:0:0:0:
233,267,36450,6,0,L|135:263,1,90,0|2,0:0|0:0,0:0:0:0:
270,186,36839,1,8,0:0:0:0:
285,339,37034,2,0,P|335:345|378:326,1,90,0|0,0:0|0:0,0:0:0:0:
322,258,37424,1,2,0:0:0:0:
196,348,37618,2,0,L|101:348,1,90,8|0,0:0|0:0,0:0:0:0:
181,195,38008,5,6,0:0:0:0:
404,370,38398,1,8,0:0:0:0:
454,300,38593,1,0,0:0:0:0:
322,343,38787,1,0,0:0:0:0:
404,231,38982,1,2,0:0:0:0:
322,258,39177,2,0,P|321:205|345:168,1,90,0|8,0:0|0:0,0:0:0:0:
505,115,39567,6,0,P|468:140|424:143,1,90,0|2,0:0|0:0,0:0:0:0:
277,112,39956,1,8,0:0:0:0:
289,27,40151,2,0,P|329:46|354:84,1,90
259,194,40541,2,0,P|218:174|194:137,1,90,2|8,0:0|0:0,0:0:0:0:
277,112,40930,1,0,0:0:0:0:
322,250,41125,6,0,B|273:286|273:286|144:276,1,180,2|8,0:0|0:0,0:0:0:0:
65,291,41709,2,0,L|74:389,1,90,0|0,0:0|0:0,0:0:0:0:
65,291,42099,1,2,0:0:0:0:
97,207,42294,1,0,0:0:0:0:
211,345,42489,2,0,L|314:360,1,90,8|0,0:0|0:0,0:0:0:0:
388,342,42878,5,2,0:0:0:0:
332,273,43073,2,0,L|242:260,1,90,8|0,0:0|0:0,0:0:0:0:
185,192,43463,1,0,0:0:0:0:
155,276,43657,1,2,0:0:0:0:
273,177,43852,1,8,0:0:0:0:
215,108,44047,1,0,0:0:0:0:
331,245,44242,6,0,P|356:209|362:160,1,90,2|0,0:0|0:0,0:0:0:0:
242,260,44631,1,8,0:0:0:0:
301,329,44826,2,0,L|400:337,1,90,0|0,0:0|0:0,0:0:0:0:
331,245,45216,1,2,0:0:0:0:
213,345,45411,1,0,0:0:0:0:
185,192,45606,1,8,0:0:0:0:
361,161,45800,6,0,P|401:190|419:236,1,90,2|2,0:0|0:0,0:0:0:0:
301,327,46190,1,8,0:0:0:0:
301,327,46385,2,0,P|261:298|243:252,1,90
389,313,46774,2,0,L|493:313,1,90,2|8,0:0|0:0,0:0:0:0:
417,226,47164,1,0,0:0:0:0:
244,261,47359,6,0,P|197:275|142:254,1,90,2|0,0:0|0:0,0:0:0:0:
151,116,47748,2,0,P|198:102|253:123,1,90,8|0,0:0|0:0,0:0:0:0:
197,188,48138,1,0,0:0:0:0:
197,188,48333,1,2,0:0:0:0:
286,332,48528,2,0,L|398:332,1,90,0|8,0:0|0:0,0:0:0:0:
461,185,48917,6,0,L|445:274,1,90,0|2,0:0|0:0,0:0:0:0:
328,134,49307,2,0,L|344:222,1,90,12|0,0:0|0:0,0:0:0:0:
394,73,49696,1,8,0:0:0:0:
250,91,49891,1,8,2:3:0:0:
328,134,50086,1,8,2:3:0:0:
267,4,50281,1,8,2:3:0:0:
251,180,50476,6,0,B|247:248|247:248|277:340,1,153.000002918243,6|0,0:0|0:0,0:0:0:0:
358,362,51060,1,2,0:0:0:0:
273,328,51255,2,0,P|201:312|117:346,1,153.000002918243,8|0,0:0|0:0,0:0:0:0:
46,379,51839,1,2,0:0:0:0:
46,379,52034,6,0,L|39:288,1,76.5000014591217,0|0,0:0|0:0,0:0:0:0:
120,257,52424,2,0,L|127:166,1,76.5000014591217,2|0,0:0|0:0,0:0:0:0:
70,107,52813,2,0,P|129:86|229:116,1,153.000002918243,8|0,0:0|0:0,0:0:0:0:
380,295,53593,6,0,P|308:316|236:296,1,153.000002918243,2|0,0:0|0:0,0:0:0:0:
155,249,54177,1,0,0:0:0:0:
101,323,54372,1,8,0:0:0:0:
101,323,54567,2,0,L|21:323,1,76.5000014591217
77,206,54956,6,0,B|136:206|136:206|175:189|175:189|228:189,1,153.000002918243,2|0,0:0|0:0,0:0:0:0:
300,224,55541,2,0,P|308:181|290:137,1,76.5000014591217,2|0,0:0|0:0,0:0:0:0:
226,189,55930,2,0,P|218:232|236:276,1,76.5000014591217,8|0,0:0|0:0,0:0:0:0:
263,330,56320,2,0,L|345:330,1,76.5000014591217
447,264,56709,6,0,B|470:212|470:212|460:100,1,153.000002918243,2|0,0:0|0:0,0:0:0:0:
412,47,57294,1,2,0:0:0:0:
377,125,57489,2,0,L|300:125,1,76.5000014591217,8|2,0:0|0:0,0:0:0:0:
249,49,57878,2,0,L|326:49,1,76.5000014591217,0|2,0:0|0:0,0:0:0:0:
171,21,58268,6,0,P|116:76|125:166,1,153.000002918243,0|2,0:0|0:0,0:0:0:0:
283,127,58852,2,0,L|208:114,1,76.5000014591217,0|8,0:0|0:0,0:0:0:0:
120,237,59242,2,0,L|195:223,1,76.5000014591217,0|0,0:0|0:0,0:0:0:0:
43,185,59631,1,0,0:0:0:0:
114,330,59826,6,0,L|294:298,1,153.000002918243,2|0,0:0|0:0,0:0:0:0:
340,249,60411,2,0,P|357:292|352:333,1,76.5000014591217,0|8,0:0|0:0,0:0:0:0:
256,211,60800,2,0,B|242:170|242:170|261:43,1,153.000002918243,0|2,0:0|0:0,0:0:0:0:
332,157,61385,5,0,0:0:0:0:
264,303,61580,1,8,0:0:0:0:
172,173,61774,1,8,0:0:0:0:
340,249,61969,1,8,0:0:0:0:
180,265,62164,6,0,L|74:265,1,90,2|0,2:1|0:0,0:0:0:0:
75,276,62943,5,6,0:0:0:0:
37,194,63138,1,0,0:0:0:0:
164,263,63333,1,8,0:0:0:0:
103,133,63528,1,0,0:0:0:0:
181,176,63722,2,0,L|271:176,1,90,2|0,0:0|0:0,0:0:0:0:
341,34,64112,1,8,0:0:0:0:
433,127,64307,2,0,L|343:127,1,90,2|0,0:0|0:0,0:0:0:0:
263,83,64696,5,2,0:0:0:0:
346,218,64891,2,0,P|358:267|343:318,1,90,8|0,0:0|0:0,0:0:0:0:
266,174,65281,1,2,0:0:0:0:
343,127,65476,1,2,0:0:0:0:
269,265,65670,1,8,0:0:0:0:
269,265,66060,5,2,0:0:0:0:
128,224,66255,1,0,0:0:0:0:
266,174,66450,1,8,0:0:0:0:
184,296,66644,1,0,0:0:0:0:
179,148,66839,2,0,L|215:51,1,90,2|2,0:0|0:0,0:0:0:0:
266,174,67229,1,8,0:0:0:0:
128,224,67424,2,0,P|74:239|31:220,1,90,2|0,0:0|0:0,0:0:0:0:
179,148,67813,5,2,0:0:0:0:
184,296,68008,1,8,0:0:0:0:
266,174,68203,1,0,0:0:0:0:
269,265,68398,2,0,L|372:265,1,90,2|2,0:0|0:0,0:0:0:0:
439,225,68787,2,0,P|448:274|433:315,1,90,8|0,0:0|0:0,0:0:0:0:
364,175,69177,6,0,P|401:142|444:135,1,90,2|0,0:0|0:0,0:0:0:0:
359,265,69567,1,8,0:0:0:0:
280,145,69761,2,0,L|296:31,1,90,0|2,0:0|0:0,0:0:0:0:
223,214,70151,1,2,0:0:0:0:
359,265,70346,1,8,0:0:0:0:
280,145,70541,1,2,0:0:0:0:
272,289,70735,6,0,P|294:334|338:358,1,90,0|2,0:0|0:0,0:0:0:0:
364,175,71125,1,8,0:0:0:0:
223,214,71320,2,0,L|106:214,1,90,0|2,0:0|0:0,0:0:0:0:
280,145,71709,1,2,0:0:0:0:
183,294,71904,2,0,L|66:294,1,90,8|0,0:0|0:0,0:0:0:0:
223,214,72294,5,2,0:0:0:0:
272,289,72489,1,0,0:0:0:0:
134,219,72683,1,8,0:0:0:0:
263,134,72878,1,0,0:0:0:0:
183,294,73073,1,2,0:0:0:0:
312,209,73268,2,0,L|397:166,1,90,2|8,0:0|0:0,0:0:0:0:
263,134,73657,1,2,0:0:0:0:
272,289,73852,6,0,L|315:374,1,90,0|2,0:0|0:0,0:0:0:0:
272,289,74242,1,8,0:0:0:0:
134,219,74437,1,0,0:0:0:0:
143,374,74631,1,6,0:0:0:0:
223,214,74826,2,0,L|234:120,1,90,0|8,0:0|0:0,0:0:0:0:
403,36,75216,1,8,0:0:0:0:
403,36,75313,1,8,0:0:0:0:
403,36,75411,6,0,L|413:125,1,90,6|0,0:0|0:0,0:0:0:0:
422,268,75800,1,8,0:0:0:0:
331,156,75995,1,0,0:0:0:0:
470,194,76190,2,0,P|503:233|509:280,1,90,2|2,0:0|0:0,0:0:0:0:
335,247,76580,1,8,0:0:0:0:
413,125,76774,2,0,L|512:105,1,90,2|0,0:0|0:0,0:0:0:0:
422,268,77164,5,2,0:0:0:0:
335,247,77359,2,0,L|236:227,1,90,10|0,0:0|0:0,0:0:0:0:
396,182,77748,1,2,0:0:0:0:
361,333,77943,1,2,0:0:0:0:
309,161,78138,1,8,0:0:0:0:
274,312,78333,1,0,3:2:0:0:
396,182,78528,6,0,L|491:187,1,90,2|0,0:0|0:0,0:0:0:0:
330,74,78917,2,0,L|425:79,1,90,8|0,0:0|0:0,0:0:0:0:
309,161,79307,2,0,P|264:138|244:101,1,90,2|2,0:0|0:0,0:0:0:0:
309,161,79696,1,8,0:0:0:0:
396,182,79891,6,0,B|395:247|395:247|350:353,1,180,2|2,0:0|0:0,0:0:0:0:
258,352,80476,2,0,B|223:361|223:361|169:353,1,90,8|0,0:0|0:0,0:0:0:0:
100,294,80865,1,2,0:0:0:0:
185,264,81060,1,2,0:0:0:0:
83,383,81255,2,0,P|31:354|14:313,1,90,8|0,0:0|0:0,0:0:0:0:
118,204,81644,6,0,P|163:174|210:175,1,90,2|0,0:0|0:0,0:0:0:0:
185,264,82034,1,8,0:0:0:0:
203,82,82229,2,0,L|197:172,1,90,0|2,0:0|0:0,0:0:0:0:
277,322,82618,1,2,0:0:0:0:
277,322,82813,2,0,L|271:233,1,90,8|0,0:0|0:0,0:0:0:0:
303,200,83106,1,0,0:0:0:0:
303,200,83203,6,0,P|352:183|397:196,1,90,2|2,0:0|0:0,0:0:0:0:
485,337,83593,1,8,0:0:0:0:
485,337,83787,2,0,P|450:309|435:268,1,90,0|2,0:0|0:0,0:0:0:0:
508,112,84177,1,2,0:0:0:0:
508,112,84372,2,0,P|502:156|474:191,1,90,8|0,0:0|0:0,0:0:0:0:
314,114,84761,6,0,P|320:69|348:35,1,90,2|0,0:0|0:0,0:0:0:0:
412,114,85151,1,8,0:0:0:0:
284,211,85346,2,0,L|169:211,1,90,0|2,0:0|0:0,0:0:0:0:
314,114,85735,1,2,0:0:0:0:
364,267,85930,1,8,0:0:0:0:
412,114,86125,1,2,0:0:0:0:
284,211,86320,6,0,P|266:269|285:321,1,90,0|2,0:0|0:0,0:0:0:0:
364,185,86709,1,8,0:0:0:0:
214,136,86904,2,0,L|88:136,1,90,0|2,0:0|0:0,0:0:0:0:
124,136,87294,1,0,0:0:0:0:
70,208,87489,1,8,0:0:0:0:
54,237,87586,1,8,0:0:0:0:
48,271,87683,1,8,0:0:0:0:
53,304,87781,1,8,0:0:0:0:
67,334,87878,5,4,0:0:0:0:
256,192,87976,12,0,89437,0:0:0:0:
