osu file format v14

[General]
AudioFilename: audio.mp3
AudioLeadIn: 0
PreviewTime: 61580
Countdown: 0
SampleSet: Soft
StackLeniency: 0.7
Mode: 0
LetterboxInBreaks: 0
WidescreenStoryboard: 0

[Editor]
Bookmarks: 12661,25129,37596,47726,48505,50064,60973,61168,61362,61557,71882,74219,74999,84349
DistanceSpacing: 0.5
BeatDivisor: 4
GridSize: 16
TimelineZoom: 1.5

[Metadata]
Title:Kimi no Hana (TV size)
TitleUnicode:キミの花 (TV size)
Artist:Oku Hanako
ArtistUnicode:奥華子
Creator:Del05
Version:Walao's Flower
Source:セイレン
Tags:Seiren opening Tsuneki Hikari Miyamae Tooru Touno Kyouko xinying chocox walaowey op
BeatmapID:1186443
BeatmapSetID:557856

[Difficulty]
HPDrainRate:6.5
CircleSize:4
OverallDifficulty:8
ApproachRate:8.5
SliderMultiplier:1.7
SliderTickRate:1

[Events]
//Background and Video events
0,0,"BG.jpg",0,0
Video,0,"OP.avi"
//Break Periods
//Storyboard Layer 0 (Background)
//Storyboard Layer 1 (Fail)
//Storyboard Layer 2 (Pass)
//Storyboard Layer 3 (Foreground)
//Storyboard Sound Samples

[TimingPoints]
606,389.61038961039,4,2,1,30,1,0
606,-133.333333333333,4,2,1,30,0,0
13073,-133.333333333333,4,2,1,40,0,0
25541,-100,4,2,1,65,0,0
48138,-100,4,2,1,65,0,0
48917,-100,4,2,1,65,0,0
49696,-100,4,2,1,65,0,0
49891,-100,4,2,1,35,0,0
50476,-133.333333333333,4,2,1,65,0,0
59826,-100,4,2,1,65,0,0
61385,-100,4,2,1,65,0,0
61774,-100,4,2,1,65,0,0
61969,-100,4,2,1,65,0,0
62943,-100,4,2,1,85,0,1
74826,-100,4,2,1,85,0,0
75411,-100,4,2,1,85,0,1
87878,-100,4,2,1,55,0,0
89437,-100,4,2,1,5,0,0

[Colours]
Combo1 : 254,241,90
Combo2 : 255,128,191
Combo3 : 178,159,151
Combo4 : 165,196,230
Combo5 : 182,224,84
Combo6 : 255,227,210

[HitObjects]
115,99,606,6,0,P|161:54|239:65,1,127.500004863739,6|8,0:0|0:1,0:0:0:0:
191,131,1190,2,0,L|220:200,1,63.7500024318696,0|8,0:0|0:1,0:0:0:0:
187,268,1580,1,0,0:0:0:0:
187,268,1774,2,0,P|156:249|134:199,1,63.7500024318696,8|0,0:1|0:0,0:0:0:0:
274,256,2164,6,0,B|303:233|305:192|305:192|361:168,1,127.500004863739,2|8,0:1|0:1,0:0:0:0:
434,194,2748,2,0,P|456:260|413:322,1,127.500004863739,0|0,0:0|0:0,0:0:0:0:
374,250,3333,1,2,0:1:0:0:
410,111,3528,1,2,0:0:0:0:
275,147,3722,6,0,L|210:165,1,63.7500024318696,2|0,0:0|0:0,0:0:0:0:
203,246,4112,2,0,L|288:222,1,63.7500024318696,8|0,0:1|0:0,0:0:0:0:
252,311,4502,1,8,0:1:0:0:
252,311,4696,2,0,L|170:336,2,63.7500024318696,0|8|0,0:0|0:1|0:0,0:0:0:0:
358,359,5281,6,0,P|296:354|252:311,1,127.500004863739,2|8,0:1|0:1,0:0:0:0:
287,235,5865,2,0,P|349:240|393:284,1,127.500004863739,0|0,0:0|0:0,0:0:0:0:
469,318,6450,2,0,P|477:283|465:243,1,63.7500024318696,2|0,0:1|0:0,0:0:0:0:
384,166,6839,6,0,P|376:131|388:91,1,63.7500024318696,2|0,0:0|0:0,0:0:0:0:
457,71,7229,2,0,P|465:106|453:146,1,63.7500024318696,8|0,0:1|0:0,0:0:0:0:
451,215,7618,1,8,0:1:0:0:
451,215,7813,2,0,P|433:235|372:251,2,63.7500024318696,0|8|0,0:0|0:1|0:0,0:0:0:0:
319,136,8398,6,0,B|276:129|276:129|177:152,1,127.500004863739,2|8,0:1|0:1,0:0:0:0:
151,219,8982,2,0,B|194:226|194:226|293:203,1,127.500004863739,0|0,0:0|0:0,0:0:0:0:
359,210,9567,1,2,0:1:0:0:
278,288,9761,1,2,0:0:0:0:
319,136,9956,6,0,L|356:68,1,63.7500024318696,2|0,0:0|0:0,0:0:0:0:
404,143,10346,2,0,L|489:135,1,63.7500024318696,8|0,0:1|0:0,0:0:0:0:
444,215,10735,2,0,L|500:281,1,63.7500024318696,8|0,0:1|0:0,0:0:0:0:
402,282,11125,2,0,L|401:362,1,63.7500024318696,8|0,0:1|0:0,0:0:0:0:
318,280,11515,5,8,0:1:0:0:
318,280,11904,1,2,0:1:0:0:
444,215,12099,1,2,0:1:0:0:
275,207,12294,1,2,0:1:0:0:
404,143,12489,1,2,0:1:0:0:
402,282,12683,1,2,0:1:0:0:
319,136,12878,1,0,0:0:0:0:
234,278,13073,6,0,P|167:298|99:278,1,127.500004863739,6|8,0:0|0:1,0:0:0:0:
65,217,13657,2,0,P|92:204|150:213,1,63.7500024318696,0|8,0:0|0:1,0:0:0:0:
208,198,14047,1,0,0:0:0:0:
208,198,14242,2,0,P|198:161|173:136,1,63.7500024318696,8|0,0:1|0:0,0:0:0:0:
285,36,14631,6,0,P|311:67|399:85,1,127.500004863739,2|8,0:1|0:1,0:0:0:0:
391,169,15216,2,0,P|328:176|283:219,1,127.500004863739,2|0,0:1|0:0,0:0:0:0:
207,197,15800,1,2,0:1:0:0:
211,62,15995,1,2,0:0:0:0:
127,172,16190,6,0,P|123:204|141:249,1,63.7500024318696,2|0,0:0|0:0,0:0:0:0:
207,197,16580,2,0,P|239:201|284:183,1,63.7500024318696,8|0,0:1|0:0,0:0:0:0:
230,119,16969,2,0,P|234:87|216:42,1,63.7500024318696,8|0,0:1|0:0,0:0:0:0:
150,92,17359,2,0,P|118:88|73:106,1,63.7500024318696,8|0,0:1|0:0,0:0:0:0:
131,233,17748,6,0,P|168:274|237:277,1,127.500004863739,2|8,0:1|0:1,0:0:0:0:
295,217,18332,2,0,P|276:279|311:337,1,127.500004863739,2|0,0:1|0:1,0:0:0:0:
359,269,18917,2,0,L|385:191,1,63.7500024318696,2|0,0:1|0:0,0:0:0:0:
358,58,19307,6,0,P|310:97|225:71,1,127.500004863739,2|8,0:0|0:1,0:0:0:0:
228,212,19891,2,0,P|260:212|290:202,1,63.7500024318696,2|8,0:1|0:1,0:0:0:0:
403,130,20281,2,0,P|439:152|458:188,2,63.7500024318696,0|10|0,0:1|0:1|0:0,0:0:0:0:
332,278,20865,6,0,B|297:292|297:292|203:275,1,127.500004863739,2|8,0:1|0:1,0:0:0:0:
229,192,21450,2,0,L|291:203,1,63.7500024318696,2|0,0:1|0:0,0:0:0:0:
379,207,21839,2,0,P|375:172|354:140,1,63.7500024318696,0|2,0:0|0:1,0:0:0:0:
260,61,22229,1,2,0:0:0:0:
143,172,22424,6,0,B|110:208|58:225|58:225|63:182,1,127.500004863739,2|8,0:0|0:1,0:0:0:0:
133,89,23008,2,0,P|164:91|193:105,1,63.7500024318696,2|8,0:1|0:1,0:0:0:0:
184,243,23398,2,0,L|163:317,2,63.7500024318696,0|10|0,0:0|0:1|0:0,0:0:0:0:
306,61,23982,5,0,0:0:0:0:
263,225,24177,1,2,0:1:0:0:
225,85,24372,1,6,0:0:0:0:
364,124,24567,1,0,0:0:0:0:
203,166,24761,1,8,0:0:0:0:
306,61,24956,1,2,0:0:0:0:
344,203,25151,1,0,0:0:0:0:
285,144,25346,1,0,0:0:0:0:
447,99,25541,6,0,P|422:177|328:199,1,170,6|8,0:0|0:0,0:0:0:0:
225,85,26126,1,0,0:0:0:0:
182,243,26320,1,0,0:0:0:0:
285,144,26515,1,2,0:0:0:0:
119,186,26709,1,0,0:0:0:0:
263,225,26904,1,8,0:0:0:0:
142,106,27100,6,0,P|63:123|40:211,1,170,0|8,0:0|0:0,0:0:0:0:
180,243,27683,2,0,L|205:160,1,85,0|0,0:0|0:0,0:0:0:0:
306,61,28073,1,2,0:0:0:0:
345,206,28268,2,0,L|244:229,1,85,8|0,0:0|0:0,0:0:0:0:
364,124,28657,6,0,P|423:177|398:270,1,170,2|8,0:0|0:0,0:0:0:0:
262,225,29242,2,0,L|191:146,1,85
345,206,29631,1,2,0:0:0:0:
239,296,29827,1,0,0:0:0:0:
280,142,30021,6,0,L|364:124,1,85,8|0,0:0|0:0,0:0:0:0:
324,286,30411,1,2,0:0:0:0:
205,162,30606,2,0,L|119:180,1,85,8|0,0:0|0:0,0:0:0:0:
193,306,30995,1,0,0:0:0:0:
205,162,31190,1,2,0:0:0:0:
112,273,31385,1,8,0:0:0:0:
251,242,31580,1,0,0:0:0:0:
121,179,31774,6,0,P|74:185|38:215,1,85,2|0,0:0|0:0,0:0:0:0:
112,273,32164,1,8,0:0:0:0:
205,162,32359,2,0,L|317:134,1,85,0|0,0:0|0:0,0:0:0:0:
425,181,32748,1,2,0:0:0:0:
320,286,32944,1,0,0:0:0:0:
364,124,33138,6,0,B|427:108|470:146|470:146|402:198,1,170,8|2,0:0|0:0,0:0:0:0:
262,224,33723,1,8,0:0:0:0:
304,63,33917,2,0,L|364:124,1,85,0|0,0:0|0:0,0:0:0:0:
320,286,34307,1,2,0:0:0:0:
285,145,34502,1,8,0:0:0:0:
404,264,34696,1,0,0:0:0:0:
235,302,34892,6,0,B|167:291|130:254|130:254|190:240,1,170,2|8,0:0|0:0,0:0:0:0:
320,286,35476,2,0,L|291:378,1,85,2|0,0:1|0:0,0:0:0:0:
262,224,35865,2,0,L|289:139,1,85,2|0,0:0|0:0,0:0:0:0:
142,106,36255,1,8,0:0:0:0:
235,302,36450,5,2,0:1:0:0:
203,166,36644,1,2,0:0:0:0:
100,265,36839,1,8,0:0:0:0:
320,286,37034,2,0,L|423:259,1,85,2|0,0:1|0:0,0:0:0:0:
362,131,37424,1,2,0:0:0:0:
203,166,37618,2,0,L|266:227,1,85,8|0,0:0|0:0,0:0:0:0:
447,99,38008,6,0,P|391:48|299:66,1,170,6|8,0:0|0:0,0:0:0:0:
203,166,38593,1,0,0:0:0:0:
344,205,38787,1,0,0:0:0:0:
181,242,38982,1,2,0:0:0:0:
288,144,39177,1,0,0:0:0:0:
142,106,39372,1,8,0:0:0:0:
264,225,39567,6,0,P|230:313|137:316,1,170,0|8,0:0|0:0,0:0:0:0:
120,188,40151,2,0,L|207:164,1,85,0|0,0:0|0:0,0:0:0:0:
363,123,40541,1,2,0:0:0:0:
223,83,40735,2,0,L|142:106,1,85,8|0,0:0|0:0,0:0:0:0:
264,225,41125,6,0,P|344:200|356:106,1,170,2|8,0:0|0:0,0:0:0:0:
202,166,41709,2,0,L|177:258,1,85,0|0,0:0|0:0,0:0:0:0:
142,106,42099,1,2,0:0:0:0:
264,225,42294,1,0,0:0:0:0:
99,268,42488,6,0,L|29:201,1,85,8|0,0:0|0:0,0:0:0:0:
202,166,42878,1,2,0:0:0:0:
155,329,43073,2,0,P|111:353|66:344,1,85,8|0,0:0|0:0,0:0:0:0:
122,186,43462,1,0,0:0:0:0:
239,309,43657,1,2,0:0:0:0:
282,142,43852,1,8,0:0:0:0:
320,286,44047,1,0,0:0:0:0:
202,166,44242,6,0,P|202:118|243:67,1,85,2|0,0:0|0:0,0:0:0:0:
386,47,44631,1,8,0:0:0:0:
344,205,44826,2,0,P|305:228|238:220,1,85,0|0,0:0|0:0,0:0:0:0:
362,123,45215,1,2,0:0:0:0:
404,264,45411,1,0,0:0:0:0:
282,142,45606,6,0,P|197:172|185:269,1,170,8|2,0:0|0:0,0:0:0:0:
320,286,46190,1,8,0:0:0:0:
362,123,46385,2,0,P|339:79|287:59,1,85,0|0,0:0|0:0,0:0:0:0:
142,106,46774,1,2,0:0:0:0:
264,225,46969,1,8,0:0:0:0:
223,83,47163,1,0,0:0:0:0:
122,186,47359,6,0,L|192:260,1,85,2|0,0:0|0:0,0:0:0:0:
282,142,47748,2,0,L|199:164,1,85,8|2,0:0|0:1,0:0:0:0:
72,350,48138,1,0,0:0:0:0:
239,309,48333,1,2,0:0:0:0:
122,186,48528,1,0,0:0:0:0:
155,329,48722,1,8,0:0:0:0:
282,142,48917,5,2,0:1:0:0:
239,309,49112,1,2,0:0:0:0:
142,106,49307,1,12,0:0:0:0:
264,225,49502,1,0,0:0:0:0:
155,329,49696,2,0,L|55:355,1,85,8|12,0:0|0:3,0:0:0:0:
181,246,50086,2,0,L|264:225,1,85,8|0,0:3|0:0,0:0:0:0:
423,245,50476,6,0,P|379:289|317:288,1,127.500004863739,6|0,0:0|0:0,0:0:0:0:
348,211,51060,1,2,0:0:0:0:
415,163,51255,2,0,P|439:100|391:72,1,127.500004863739,8|0,0:0|0:0,0:0:0:0:
322,46,51839,1,2,0:0:0:0:
341,127,52034,6,0,P|276:145|214:129,1,127.500004863739,0|2,0:0|0:0,0:0:0:0:
56,95,52813,2,0,L|50:174,1,63.7500024318696,8|0,0:0|0:0,0:0:0:0:
104,222,53203,2,0,L|98:285,1,63.7500024318696,0|0,0:0|0:0,0:0:0:0:
155,346,53593,6,0,P|208:371|278:336,1,127.500004863739,2|0,0:0|0:0,0:0:0:0:
335,297,54177,1,0,0:0:0:0:
280,234,54372,1,8,0:0:0:0:
194,226,54567,2,0,P|197:258|213:286,1,63.7500024318696,0|0,0:0|0:0,0:0:0:0:
335,297,54956,6,0,L|397:183,1,127.500004863739,2|0,0:0|0:0,0:0:0:0:
311,178,55541,2,0,L|280:234,1,63.7500024318696,2|0,0:0|0:0,0:0:0:0:
194,226,55930,1,8,0:0:0:0:
239,156,56125,1,0,0:0:0:0:
230,301,56320,2,0,P|192:309|159:303,1,63.7500024318696,0|0,0:0|0:0,0:0:0:0:
99,160,56709,6,0,P|159:174|194:226,1,127.500004863739,2|0,0:0|0:0,0:0:0:0:
167,305,57294,1,2,0:0:0:0:
112,241,57489,1,8,0:0:0:0:
246,287,57683,2,0,L|333:274,1,63.7500024318696,0|0,0:0|0:0,0:0:0:0:
391,263,58073,1,2,0:0:0:0:
308,158,58268,6,0,P|289:218|309:278,1,127.500004863739,0|2,0:0|0:0,0:0:0:0:
391,263,58852,1,0,0:0:0:0:
387,180,59047,1,8,0:0:0:0:
247,221,59242,2,0,L|174:224,1,63.7500024318696,0|0,0:0|0:0,0:0:0:0:
214,148,59631,1,0,0:0:0:0:
214,304,59826,6,0,P|126:287|100:201,1,170,2|0,0:0|0:0,0:0:0:0:
214,148,60411,1,0,0:0:0:0:
302,306,60606,1,8,0:0:0:0:
351,151,60800,2,0,L|317:55,1,85,2|0,0:1|0:0,0:0:0:0:
260,227,61190,1,2,0:0:0:0:
468,154,61385,5,8,0:0:0:0:
250,103,61580,1,8,0:0:0:0:
396,267,61774,1,8,0:0:0:0:
381,46,61969,1,8,0:0:0:0:
347,30,62943,5,6,0:0:0:0:
304,168,63138,1,0,0:0:0:0:
206,61,63333,1,8,0:0:0:0:
368,111,63528,1,0,0:0:0:0:
224,144,63722,2,0,L|133:115,1,85,2|2,0:0|0:0,0:0:0:0:
287,88,64112,1,8,0:0:0:0:
240,223,64307,6,0,P|296:252|381:199,1,170,2|2,0:0|0:0,0:0:0:0:
224,144,64891,1,8,0:0:0:0:
175,280,65086,1,0,0:0:0:0:
304,168,65281,2,0,L|377:102,1,85,2|2,0:0|0:0,0:0:0:0:
466,216,65670,2,0,L|396:280,1,85,8|0,0:0|0:0,0:0:0:0:
224,144,66060,5,2,0:0:0:0:
386,192,66255,1,0,0:0:0:0:
254,309,66450,1,8,0:0:0:0:
304,168,66644,1,0,0:0:0:0:
334,338,66839,2,0,L|254:309,1,85,2|2,0:0|0:0,0:0:0:0:
93,252,67229,1,8,0:0:0:0:
242,228,67424,6,0,P|248:324|177:368,1,170,2|2,0:0|0:0,0:0:0:0:
157,198,68008,1,8,0:0:0:0:
304,168,68203,1,0,0:0:0:0:
173,278,68398,2,0,P|126:273|87:238,1,85,2|2,0:0|0:0,0:0:0:0:
55,89,68787,2,0,L|78:188,1,85,8|0,0:0|0:0,0:0:0:0:
304,168,69177,6,0,P|258:140|213:143,1,85,2|0,0:0|0:0,0:0:0:0:
254,309,69567,1,8,0:0:0:0:
386,192,69761,1,0,0:0:0:0:
240,223,69956,2,0,L|152:299,1,85,2|2,0:0|0:0,0:0:0:0:
319,251,70346,1,8,0:0:0:0:
157,198,70541,1,2,0:0:0:0:
334,338,70735,6,0,P|380:315|405:271,1,85,2|0,0:0|0:0,0:0:0:0:
304,168,71125,2,0,P|259:191|232:243,1,85,8|0,0:0|0:0,0:0:0:0:
386,192,71515,1,2,0:0:0:0:
287,88,71709,1,2,0:0:0:0:
319,251,71904,1,8,0:0:0:0:
449,134,72099,1,0,0:0:0:0:
224,144,72294,6,0,P|181:164|155:213,1,85,2|0,0:0|0:0,0:0:0:0:
190,361,72683,1,8,0:0:0:0:
240,223,72878,1,0,0:0:0:0:
334,338,73073,1,2,0:0:0:0:
304,168,73268,1,2,0:0:0:0:
175,278,73463,1,8,0:0:0:0:
224,144,73657,1,2,0:0:0:0:
397,284,73852,6,0,L|461:228,1,85,2|0,0:0|0:0,0:0:0:0:
367,110,74242,1,8,0:0:0:0:
319,251,74437,1,0,0:0:0:0:
430,54,74631,2,0,P|398:31|334:33,1,85,6|2,0:0|0:0,0:0:0:0:
224,144,75021,1,8,0:0:0:0:
461,228,75216,1,8,0:0:0:0:
461,228,75313,1,8,0:0:0:0:
461,228,75411,5,6,0:0:0:0:
319,251,75606,1,0,0:0:0:0:
367,110,75801,1,8,0:0:0:0:
397,284,75996,1,0,0:0:0:0:
241,227,76190,2,0,L|224:144,1,85,2|2,0:0|0:0,0:0:0:0:
383,197,76580,1,8,0:0:0:0:
254,309,76775,6,0,P|174:276|169:188,1,170,2|2,0:0|0:0,0:0:0:0:
287,88,77359,1,8,0:0:0:0:
241,227,77554,1,0,0:0:0:0:
143,118,77749,2,0,P|106:89|44:88,1,85,2|2,0:0|0:0,0:0:0:0:
21,216,78138,2,0,P|58:245|120:246,1,85,8|0,0:0|0:0,0:0:0:0:
304,168,78528,5,2,0:0:0:0:
175,278,78723,1,0,0:0:0:0:
223,143,78918,1,8,0:0:0:0:
254,309,79112,1,0,0:0:0:0:
158,201,79307,2,0,L|143:118,1,85,2|2,0:0|0:0,0:0:0:0:
0,55,79696,1,8,0:0:0:0:
9,226,79891,6,0,P|89:246|158:201,1,170,2|2,0:0|0:0,0:0:0:0:
287,88,80476,1,8,0:0:0:0:
319,251,80671,1,0,0:0:0:0:
224,144,80866,2,0,L|206:59,1,85,2|2,0:0|0:0,0:0:0:0:
304,168,81255,1,8,0:0:0:0:
158,201,81450,1,0,0:0:0:0:
367,110,81644,6,0,P|391:151|379:206,1,85,2|0,0:0|0:0,0:0:0:0:
254,309,82034,1,8,0:0:0:0:
304,168,82229,1,0,0:0:0:0:
396,283,82424,2,0,L|313:248,1,85,2|2,0:0|0:0,0:0:0:0:
452,134,82814,1,8,0:0:0:0:
330,334,83009,1,2,0:0:0:0:
330,334,83106,1,0,0:0:0:0:
330,334,83203,6,0,P|288:331|253:308,1,85,2|0,0:0|0:0,0:0:0:0:
158,201,83593,1,8,0:0:0:0:
304,168,83788,1,0,0:0:0:0:
175,278,83983,2,0,P|168:322|201:366,1,85,2|2,0:0|0:0,0:0:0:0:
241,227,84372,1,8,0:0:0:0:
94,256,84567,1,0,0:0:0:0:
317,249,84761,6,0,L|388:192,1,85,2|0,0:0|0:0,0:0:0:0:
287,88,85151,1,8,0:0:0:0:
241,227,85346,1,0,0:0:0:0:
367,110,85541,1,2,0:0:0:0:
396,283,85736,1,2,0:0:0:0:
304,168,85931,1,8,0:0:0:0:
254,309,86125,1,2,0:0:0:0:
367,110,86320,6,0,P|326:84|265:91,1,85,2|0,0:0|0:0,0:0:0:0:
150,180,86710,1,8,0:0:0:0:
319,189,86905,1,0,0:0:0:0:
189,83,87099,1,2,0:0:0:0:
234,247,87294,1,2,0:0:0:0:
290,82,87489,1,8,0:0:0:0:
311,79,87586,1,8,0:0:0:0:
332,80,87683,1,8,0:0:0:0:
352,86,87781,1,8,0:0:0:0:
371,95,87878,5,4,0:0:0:0:
256,192,87976,12,0,89437,0:0:0:0:
