osu file format v14

[General]
AudioFilename: audio.mp3
AudioLeadIn: 0
PreviewTime: 61580
Countdown: 0
SampleSet: Soft
StackLeniency: 0.7
Mode: 0
LetterboxInBreaks: 0
WidescreenStoryboard: 0

[Editor]
Bookmarks: 12661,25129,37596,50064,60973,74999
DistanceSpacing: 1.2
BeatDivisor: 4
GridSize: 4
TimelineZoom: 1.5

[Metadata]
Title:Kimi no Hana (TV size)
TitleUnicode:キミの花 (TV size)
Artist:Oku Hanako
ArtistUnicode:奥華子
Creator:Del05
Version:Hard
Source:セイレン
Tags:Seiren opening Tsuneki Hikari Miyamae Tooru Touno Kyouko xinying chocox walaowey op
BeatmapID:1180258
BeatmapSetID:557856

[Difficulty]
HPDrainRate:5
CircleSize:4
OverallDifficulty:6
ApproachRate:7
SliderMultiplier:1.4
SliderTickRate:1

[Events]
//Background and Video events
0,0,"BG.jpg",0,0
Video,0,"OP.avi"
//Break Periods
//Storyboard Layer 0 (Background)
//Storyboard Layer 1 (Fail)
//Storyboard Layer 2 (Pass)
//Storyboard Layer 3 (Foreground)
//Storyboard Sound Samples

[TimingPoints]
606,389.61038961039,4,2,1,30,1,0
606,-133.333333333333,4,2,1,30,0,0
13073,-133.333333333333,4,2,1,40,0,0
25541,-100,4,2,1,65,0,0
49891,-100,4,2,1,35,0,0
50476,-117.647058823529,4,2,1,65,0,0
61385,-100,4,2,1,65,0,0
62943,-100,4,2,1,85,0,1
87878,-100,4,2,1,55,0,0
89437,-100,4,2,1,5,0,0

[Colours]
Combo1 : 254,241,90
Combo2 : 255,128,191
Combo3 : 178,159,151
Combo4 : 165,196,230
Combo5 : 182,224,84
Combo6 : 255,227,210

[HitObjects]
160,68,606,6,0,P|100:68|48:72,2,105.000004005432,6|8|8,0:0|0:1|0:1,0:0:0:0:
232,104,1580,1,0,0:0:0:0:
184,168,1774,2,0,L|192:236,1,52.5000020027161,8|0,0:1|0:0,0:0:0:0:
260,252,2164,6,0,P|300:236|368:241,1,105.000004005432,2|8,0:1|0:1,0:0:0:0:
376,316,2748,2,0,P|336:332|268:327,1,105.000004005432
200,308,3333,1,2,0:1:0:0:
136,356,3528,1,2,0:0:0:0:
136,356,3722,6,0,L|24:368,2,105.000004005432,2|8|8,0:0|0:1|0:1,0:0:0:0:
124,280,4696,1,0,0:0:0:0:
48,292,4891,2,0,P|49:260|59:238,1,52.5000020027161,8|0,0:1|0:0,0:0:0:0:
124,200,5281,6,0,L|240:212,1,105.000004005432,2|8,0:1|0:1,0:0:0:0:
228,290,5865,2,0,L|124:280,1,105.000004005432
56,241,6450,2,0,P|46:217|50:176,1,52.5000020027161,2|0,0:1|0:0,0:0:0:0:
96,132,6839,6,0,L|84:16,2,105.000004005432,2|8|8,0:0|0:1|0:1,0:0:0:0:
172,112,7813,1,0,0:0:0:0:
220,172,8008,2,0,L|212:232,1,52.5000020027161,8|0,0:1|0:0,0:0:0:0:
269,280,8398,6,0,P|320:263|377:272,1,105.000004005432,2|8,0:1|0:1,0:0:0:0:
412,204,8982,2,0,P|405:152|422:103,1,105.000004005432
444,28,9567,1,2,0:1:0:0:
364,24,9761,1,2,0:0:0:0:
364,24,9956,6,0,L|252:44,2,105.000004005432,2|8|8,0:0|0:1|0:1,0:0:0:0:
460,152,11125,1,8,0:1:0:0:
344,260,11515,1,8,0:1:0:0:
200,192,11904,5,2,0:1:0:0:
200,192,12099,1,2,0:1:0:0:
156,128,12294,1,2,0:1:0:0:
156,128,12489,1,2,0:1:0:0:
112,192,12683,2,0,P|120:231|141:255,1,52.5000020027161,2|0,0:1|0:0,0:0:0:0:
278,207,13073,6,0,P|272:156|236:120,2,105.000004005432,6|8|8,0:0|0:1|0:1,0:0:0:0:
232,272,14047,1,0,0:0:0:0:
292,324,14242,2,0,L|364:312,1,52.5000020027161,8|0,0:1|0:0,0:0:0:0:
408,268,14631,6,0,P|420:220|399:150,1,105.000004005432,2|8,0:1|0:1,0:0:0:0:
340,128,15216,2,0,L|235:119,1,105.000004005432,2|0,0:1|0:0,0:0:0:0:
168,76,15800,1,2,0:1:0:0:
116,136,15995,1,2,0:0:0:0:
116,136,16190,6,0,P|103:187|132:241,2,105.000004005432,2|8|8,0:0|0:1|0:1,0:0:0:0:
180,180,17164,1,0,0:0:0:0:
228,244,17359,2,0,L|220:304,1,52.5000020027161,8|0,0:1|0:0,0:0:0:0:
272,356,17748,6,0,P|317:364|388:341,1,105.000004005432,2|8,0:1|0:1,0:0:0:0:
408,280,18333,2,0,P|409:249|413:215,1,52.5000020027161,2|8,0:1|0:1,0:0:0:0:
408,148,18722,1,2,0:1:0:0:
336,184,18917,2,0,P|302:195|266:192,1,52.5000020027161,8|0,0:1|0:0,0:0:0:0:
208,176,19307,6,0,L|96:188,1,105.000004005432,2|8,0:0|0:1,0:0:0:0:
72,260,19891,2,0,L|184:272,1,105.000004005432,2|0,0:1|0:0,0:0:0:0:
228,332,20476,2,0,L|221:385,1,52.5000020027161,2|0,0:1|0:0,0:0:0:0:
300,372,20865,6,0,L|315:264,1,105.000004005432,2|8,0:1|0:1,0:0:0:0:
376,220,21450,2,0,P|420:244|488:232,1,105.000004005432,2|0,0:1|0:0,0:0:0:0:
504,168,22034,2,0,L|492:112,1,52.5000020027161,2|2,0:1|0:0,0:0:0:0:
424,80,22424,6,0,P|374:106|323:95,1,105.000004005432,2|8,0:0|0:1,0:0:0:0:
256,64,23008,2,0,L|144:80,1,105.000004005432,2|0,0:1|0:0,0:0:0:0:
100,140,23593,2,0,P|101:174|104:208,1,52.5000020027161,2|0,0:1|0:0,0:0:0:0:
148,260,23982,5,0,0:0:0:0:
180,188,24177,1,2,0:1:0:0:
68,260,24372,2,0,P|74:291|103:325,1,52.5000020027161,6|0,0:0|0:0,0:0:0:0:
160,340,24761,1,8,0:0:0:0:
224,292,24956,2,0,P|231:266|226:231,1,52.5000020027161,2|0,0:0|0:0,0:0:0:0:
148,260,25346,1,0,0:0:0:0:
236,364,25541,6,0,L|388:352,1,140,6|8,0:0|0:0,0:0:0:0:
456,380,26126,1,0,0:0:0:0:
508,312,26320,2,0,P|504:276|496:232,1,70,0|2,0:0|0:0,0:0:0:0:
432,192,26709,2,0,P|436:156|444:112,1,70,0|8,0:0|0:0,0:0:0:0:
360,140,27100,6,0,P|283:149|208:152,1,140,0|8,0:0|0:0,0:0:0:0:
148,112,27684,2,0,P|72:133|89:194,1,140,0|2,0:0|0:0,0:0:0:0:
128,248,28268,2,0,P|118:281|106:314,1,70,8|0,0:0|0:0,0:0:0:0:
184,348,28658,6,0,P|253:335|348:328,1,140,2|8,0:0|0:0,0:0:0:0:
392,284,29242,2,0,P|385:214|373:145,1,140,0|2,0:0|0:0,0:0:0:0:
312,88,29827,1,0,0:0:0:0:
248,144,30022,6,0,P|172:142|104:116,1,140,8|2,0:0|0:0,0:0:0:0:
56,184,30606,2,0,P|58:227|61:264,1,70,8|0,0:0|0:0,0:0:0:0:
120,312,30995,1,0,0:0:0:0:
120,312,31190,2,0,P|160:302|198:296,1,70,2|8,0:0|0:0,0:0:0:0:
260,344,31580,1,0,0:0:0:0:
320,284,31775,6,0,P|377:257|461:287,1,140,2|8,0:0|0:0,0:0:0:0:
452,192,32359,2,0,P|445:120|440:36,1,140,0|2,0:0|0:0,0:0:0:0:
356,60,32944,1,0,0:0:0:0:
296,120,33139,6,0,P|219:139|162:83,1,140,8|2,0:0|0:0,0:0:0:0:
164,24,33723,1,8,0:0:0:0:
239,58,33917,2,0,P|231:131|224:204,1,140,0|2,0:0|0:0,0:0:0:0:
296,240,34502,2,0,P|326:230|378:219,1,70,8|0,0:0|0:0,0:0:0:0:
346,304,34892,6,0,P|292:321|220:265,1,140,2|8,0:0|0:0,0:0:0:0:
176,208,35476,2,0,P|183:168|192:128,1,70,2|0,0:1|0:0,0:0:0:0:
274,101,35866,2,0,P|286:169|295:239,1,140,2|8,0:0|0:0,0:0:0:0:
346,304,36450,6,0,P|378:300|423:303,1,70,2|2,0:1|0:0,0:0:0:0:
388,380,36839,1,8,0:0:0:0:
292,363,37034,2,0,P|265:300|295:239,1,140,2|2,0:1|0:0,0:0:0:0:
378,229,37619,1,8,0:0:0:0:
346,304,37813,1,0,0:0:0:0:
330,161,38008,6,0,P|388:145|455:195,1,140,6|8,0:0|0:0,0:0:0:0:
489,266,38593,1,0,0:0:0:0:
409,291,38787,2,0,P|392:260|378:229,1,70,0|2,0:0|0:0,0:0:0:0:
308,276,39177,2,0,P|291:306|276:338,1,70,0|8,0:0|0:0,0:0:0:0:
224,272,39567,6,0,P|206:230|152:150,1,140,0|8,0:0|0:0,0:0:0:0:
236,136,40151,2,0,P|303:131|400:120,1,140,0|2,0:0|0:0,0:0:0:0:
352,204,40735,2,0,P|341:241|336:280,1,70,8|0,0:0|0:0,0:0:0:0:
260,312,41125,6,0,P|192:280|112:300,1,140,2|8,0:0|0:0,0:0:0:0:
72,232,41709,2,0,P|80:164|96:92,1,140,0|2,0:0|0:0,0:0:0:0:
160,40,42294,1,0,0:0:0:0:
220,96,42489,6,0,P|288:88|360:72,1,140,8|2,0:0|0:0,0:0:0:0:
368,156,43073,2,0,P|361:191|356:232,1,70,8|0,0:0|0:0,0:0:0:0:
360,308,43463,1,0,0:0:0:0:
360,308,43657,1,2,0:0:0:0:
284,276,43852,2,0,P|277:240|272:200,1,70,8|0,0:0|0:0,0:0:0:0:
196,172,44242,6,0,P|140:212|68:192,1,140,2|8,0:0|0:0,0:0:0:0:
52,116,44826,2,0,P|115:98|196:84,1,140,0|2,0:0|0:0,0:0:0:0:
272,76,45411,1,0,0:0:0:0:
328,139,45606,6,0,P|322:209|320:279,1,140,8|2,0:0|0:0,0:0:0:0:
296,360,46190,1,8,0:0:0:0:
224,320,46385,2,0,P|144:312|72:344,1,140,0|2,0:0|0:0,0:0:0:0:
92,248,46969,2,0,P|95:212|96:160,1,70,8|0,0:0|0:0,0:0:0:0:
168,132,47359,6,0,P|225:168|290:148,1,140,2|8,0:0|0:0,0:0:0:0:
356,96,47943,2,0,L|340:24,1,70,2|0,0:1|0:0,0:0:0:0:
424,40,48333,2,0,L|456:176,1,140,2|8,0:0|0:0,0:0:0:0:
392,232,48917,6,0,L|375:162,1,70,2|2,0:1|0:0,0:0:0:0:
469,253,49307,2,0,P|443:295|410:310,1,70,12|0,0:0|0:0,0:0:0:0:
352,344,49696,1,8,0:0:0:0:
284,296,49891,1,12,0:3:0:0:
284,296,50086,1,8,0:3:0:0:
356,252,50281,1,0,0:0:0:0:
278,373,50476,6,0,P|217:360|160:354,1,119.000002269745,6|0,0:0|0:0,0:0:0:0:
89,384,51060,1,2,0:0:0:0:
45,320,51255,2,0,P|38:261|33:200,1,119.000002269745,8|0,0:0|0:0,0:0:0:0:
56,128,51839,1,2,0:0:0:0:
132,140,52034,6,0,P|190:134|274:134,1,119.000002269745,0|2,0:0|0:0,0:0:0:0:
380,220,52813,2,0,L|372:284,1,59.5000011348725,8|0,0:0|0:0,0:0:0:0:
300,256,53203,2,0,L|308:192,1,59.5000011348725
317,331,53593,6,0,P|250:315|224:259,1,119.000002269745,2|0,0:0|0:0,0:0:0:0:
196,200,54177,1,0,0:0:0:0:
272,202,54372,1,8,0:0:0:0:
272,202,54567,2,0,L|300:255,1,59.5000011348725
376,276,54956,6,0,L|436:164,1,119.000002269745,2|0,0:0|0:0,0:0:0:0:
360,133,55541,1,2,0:0:0:0:
220,211,55930,2,0,L|228:271,1,59.5000011348725,8|0,0:0|0:0,0:0:0:0:
152,264,56320,2,0,L|144:204,1,59.5000011348725
185,333,56709,6,0,P|121:335|81:289,1,119.000002269745,2|0,0:0|0:0,0:0:0:0:
64,224,57294,1,2,0:0:0:0:
144,204,57489,2,0,P|193:201|264:204,1,119.000002269745,8|0,0:0|0:0,0:0:0:0:
324,252,58073,1,2,0:0:0:0:
392,212,58268,6,0,P|396:154|408:72,1,119.000002269745,0|2,0:0|0:0,0:0:0:0:
260,36,59047,2,0,L|180:52,1,59.5000011348725,8|0,0:0|0:0,0:0:0:0:
236,116,59437,2,0,L|316:132,1,59.5000011348725
211,198,59826,6,0,P|165:163|152:106,1,119.000002269745,2|0,0:0|0:0,0:0:0:0:
344,53,60606,1,8,0:0:0:0:
356,128,60800,2,0,P|340:188|328:256,1,119.000002269745,2|2,0:1|0:0,0:0:0:0:
336,328,61385,5,8,0:0:0:0:
404,276,61580,1,8,0:0:0:0:
263,290,61774,1,8,0:0:0:0:
414,366,61969,1,8,0:0:0:0:
32,192,62943,6,0,P|38:155|48:120,1,70,6|0,0:0|0:0,0:0:0:0:
108,68,63333,1,8,0:0:0:0:
108,68,63528,1,0,0:0:0:0:
180,112,63722,2,0,P|193:146|203:181,1,70,2|2,0:0|0:0,0:0:0:0:
120,184,64112,1,8,0:0:0:0:
108,68,64307,6,0,P|183:29|251:67,1,140,2|2,0:0|0:0,0:0:0:0:
280,112,64891,2,0,P|277:148|272:184,1,70,8|0,0:0|0:0,0:0:0:0:
196,216,65281,2,0,P|177:184|157:154,1,70,2|2,0:0|0:0,0:0:0:0:
84,116,65670,2,0,P|68:148|53:181,1,70,8|0,0:0|0:0,0:0:0:0:
56,264,66060,6,0,P|92:258|128:254,1,70,2|0,0:0|0:0,0:0:0:0:
200,296,66450,1,8,0:0:0:0:
200,296,66644,1,0,0:0:0:0:
260,236,66839,2,0,P|263:198|268:164,1,70,2|2,0:0|0:0,0:0:0:0:
352,180,67229,1,8,0:0:0:0:
324,293,67424,6,0,P|262:321|200:296,1,140,2|2,0:0|0:0,0:0:0:0:
128,248,68008,2,0,P|94:239|44:232,1,70,8|0,0:0|0:0,0:0:0:0:
20,160,68398,2,0,P|54:151|104:144,1,70,2|2,0:0|0:0,0:0:0:0:
132,76,68787,2,0,P|98:67|48:60,1,70,8|0,0:0|0:0,0:0:0:0:
167,148,69177,6,0,P|208:97|188:20,1,140,2|8,0:0|0:0,0:0:0:0:
280,32,69761,2,0,P|287:77|292:124,1,70,0|2,0:0|0:0,0:0:0:0:
364,196,70151,1,2,0:0:0:0:
364,196,70346,2,0,P|365:162|370:127,1,70,8|2,0:0|0:0,0:0:0:0:
310,251,70735,6,0,P|247:224|180:240,1,140,2|8,0:1|0:0,0:0:0:0:
107,280,71320,2,0,P|61:269|27:264,1,70,0|2,0:0|0:0,0:0:0:0:
20,348,71709,1,2,0:0:0:0:
99,376,71904,2,0,P|134:367|167:358,1,70,8|0,0:0|0:0,0:0:0:0:
248,332,72294,6,0,L|320:340,1,70,2|0,0:0|0:0,0:0:0:0:
363,254,72683,2,0,L|291:262,1,70,8|0,0:0|0:0,0:0:0:0:
396,325,73073,2,0,P|424:302|440:263,1,70,2|2,0:0|0:0,0:0:0:0:
416,190,73463,1,8,0:0:0:0:
363,254,73657,1,2,0:0:0:0:
496,208,73852,6,0,P|484:142|395:111,1,140,2|8,0:1|0:0,0:0:0:0:
416,190,74437,1,0,0:0:0:0:
320,109,74631,2,0,L|338:177,1,70,6|0,0:0|0:0,0:0:0:0:
373,54,75021,1,8,0:0:0:0:
278,39,75216,1,8,0:0:0:0:
278,39,75313,1,8,0:0:0:0:
278,39,75411,6,0,P|241:43|208:45,1,70,6|0,0:0|0:0,0:0:0:0:
126,35,75800,1,8,0:0:0:0:
126,35,75995,1,0,0:0:0:0:
86,111,76190,2,0,P|91:149|96:192,1,70,2|2,0:0|0:0,0:0:0:0:
10,195,76580,1,8,0:0:0:0:
8,76,76774,6,0,P|58:30|126:35,1,140,2|2,0:0|0:0,0:0:0:0:
178,103,77359,2,0,P|173:145|170:199,1,70,8|0,0:0|0:0,0:0:0:0:
234,227,77748,2,0,P|249:195|265:164,1,70,2|2,0:0|0:0,0:0:0:0:
334,115,78138,2,0,P|350:145|365:177,1,70,8|0,0:0|0:0,0:0:0:0:
382,259,78528,6,0,P|347:250|313:244,1,70,2|0,0:0|0:0,0:0:0:0:
258,307,78917,1,8,0:0:0:0:
258,307,79112,1,0,0:0:0:0:
183,267,79307,2,0,P|178:231|172:197,1,70,2|2,0:0|0:0,0:0:0:0:
93,228,79696,1,8,0:0:0:0:
136,336,79891,6,0,P|204:347|259:307,1,140,2|2,0:0|0:0,0:0:0:0:
322,251,80476,2,0,P|354:243|418:243,1,70,8|0,0:0|0:0,0:0:0:0:
434,167,80865,2,0,P|402:159|338:159,1,70,2|2,0:0|0:0,0:0:0:0:
322,83,81255,2,0,P|354:75|418:75,1,70,8|0,0:0|0:0,0:0:0:0:
285,152,81644,6,0,P|246:97|287:13,1,140,2|8,0:0|0:0,0:0:0:0:
178,26,82229,2,0,P|171:61|170:96,1,70,0|2,0:0|0:0,0:0:0:0:
94,191,82619,1,2,0:0:0:0:
94,191,82814,2,0,P|92:157|87:122,1,70,8|2,0:0|0:0,0:0:0:0:
38,244,83203,6,0,P|84:268|168:213,1,140,2|8,0:1|0:0,0:0:0:0:
202,159,83787,2,0,P|248:148|282:143,1,70,0|2,0:0|0:0,0:0:0:0:
306,223,84176,1,2,0:0:0:0:
225,250,84372,2,0,P|191:243|158:233,1,70,8|0,0:0|0:0,0:0:0:0:
306,223,84761,6,0,P|307:262|288:306,1,70,6|2,0:0|0:0,0:0:0:0:
238,351,85151,1,8,0:0:0:0:
225,249,85346,2,0,P|293:264|361:279,1,140,2|2,0:1|0:0,0:0:0:0:
430,231,85930,2,0,P|432:196|438:159,1,70,8|2,0:0|0:0,0:0:0:0:
484,296,86320,6,0,P|419:316|362:280,1,140,2|8,0:1|0:0,0:0:0:0:
278,263,86904,2,0,P|204:269|110:287,1,140,2|2,0:1|0:0,0:0:0:0:
58,251,87489,2,8,L|50:215,3,35
62,175,87878,5,4,0:0:0:0:
256,192,87976,12,0,89437,0:0:0:0:
