osu file format v14

[General]
AudioFilename: audio.mp3
AudioLeadIn: 0
PreviewTime: 61580
Countdown: 0
SampleSet: Soft
StackLeniency: 0.7
Mode: 0
LetterboxInBreaks: 0
WidescreenStoryboard: 0

[Editor]
Bookmarks: 12661,25129,37596,50064,60973,74999
DistanceSpacing: 1.1
BeatDivisor: 4
GridSize: 4
TimelineZoom: 1.5

[Metadata]
Title:Kimi no Hana (TV size)
TitleUnicode:キミの花 (TV size)
Artist:Oku Hanako
ArtistUnicode:奥華子
Creator:Del05
Version:Normal
Source:セイレン
Tags:Seiren opening Tsuneki Hikari Miyamae Tooru Touno Kyouko xinying chocox walaowey op
BeatmapID:1181953
BeatmapSetID:557856

[Difficulty]
HPDrainRate:4
CircleSize:3.5
OverallDifficulty:4
ApproachRate:5
SliderMultiplier:1
SliderTickRate:1

[Events]
//Background and Video events
0,0,"BG.jpg",0,0
Video,0,"OP.avi"
//Break Periods
//Storyboard Layer 0 (Background)
//Storyboard Layer 1 (Fail)
//Storyboard Layer 2 (Pass)
//Storyboard Layer 3 (Foreground)
//Storyboard Sound Samples

[TimingPoints]
606,389.61038961039,4,2,1,30,1,0
13073,-100,4,2,1,40,0,0
25541,-100,4,2,1,65,0,0
49891,-100,4,2,1,35,0,0
50281,-100,4,2,1,55,0,0
50476,-100,4,2,1,65,0,0
62943,-100,4,2,1,85,0,1
87878,-100,4,2,1,55,0,0
89437,-100,4,2,1,5,0,0

[Colours]
Combo1 : 254,241,90
Combo2 : 255,128,191
Combo3 : 178,159,151
Combo4 : 165,196,230
Combo5 : 182,224,84
Combo6 : 255,227,210

[HitObjects]
404,260,606,6,0,L|516:272,2,100,6|8|8,0:0|0:1|0:1,0:0:0:0:
312,200,1774,1,8,0:1:0:0:
232,276,2164,2,0,P|173:289|115:269,1,100,2|8,0:1|0:1,0:0:0:0:
99,239,2748,2,0,P|112:186|128:129,1,100,2|0,0:1|0:0,0:0:0:0:
204,68,3528,1,2,0:0:0:0:
204,68,3722,6,0,P|248:64|310:93,2,100,2|8|8,0:0|0:1|0:1,0:0:0:0:
236,172,4891,1,8,0:1:0:0:
348,168,5281,2,0,P|337:221|305:262,1,100,2|8,0:1|0:1,0:0:0:0:
260,280,5865,2,0,P|207:272|160:270,1,100,2|0,0:1|0:0,0:0:0:0:
116,300,6450,1,2,0:1:0:0:
28,232,6839,6,0,P|3:187|5:122,2,100,2|8|8,0:0|0:1|0:1,0:0:0:0:
108,156,8008,1,8,0:1:0:0:
199,216,8398,2,0,P|217:169|211:120,1,100,2|8,0:1|0:1,0:0:0:0:
256,87,8982,2,0,P|305:92|355:89,1,100,2|0,0:1|0:0,0:0:0:0:
456,40,9761,1,2,0:0:0:0:
456,40,9956,6,0,P|466:97|453:142,2,100,2|8|8,0:0|0:1|0:1,0:0:0:0:
355,89,11125,1,8,0:1:0:0:
263,153,11515,2,0,P|244:104|252:46,1,100,8|2,0:1|0:1,0:0:0:0:
355,89,12294,1,2,0:1:0:0:
355,89,12683,1,2,0:1:0:0:
380,197,13073,6,0,P|425:175|455:135,2,100,6|8|8,0:0|0:1|0:1,0:0:0:0:
272,212,14242,1,8,0:1:0:0:
184,148,14631,2,0,P|172:100|196:32,1,100,2|8,0:1|0:1,0:0:0:0:
232,28,15216,2,0,P|280:32|331:39,1,100,2|0,0:1|0:0,0:0:0:0:
364,84,15800,2,0,P|360:113|360:140,1,50,2|2,0:1|0:0,0:0:0:0:
388,180,16190,6,0,P|434:175|496:172,2,100,2|8|8,0:0|0:1|0:1,0:0:0:0:
288,224,17359,1,8,0:1:0:0:
192,168,17748,2,0,L|204:64,1,100,2|8,0:1|0:1,0:0:0:0:
160,32,18333,2,0,P|119:50|60:52,1,100,2|0,0:1|0:0,0:0:0:0:
12,32,18917,1,2,0:1:0:0:
12,144,19307,6,0,L|28:252,1,100,2|8,0:0|0:1,0:0:0:0:
76,272,19891,2,0,P|127:258|188:270,1,100,2|0,0:1|0:0,0:0:0:0:
216,300,20476,1,2,0:1:0:0:
312,248,20865,2,0,L|324:148,1,100,2|8,0:1|0:1,0:0:0:0:
372,124,21450,2,0,P|414:138|480:128,1,100,2|0,0:1|0:0,0:0:0:0:
512,100,22034,1,2,0:1:0:0:
452,8,22424,6,0,L|336:16,1,100,2|8,0:0|0:1,0:0:0:0:
316,56,23008,2,0,L|200:48,1,100,2|0,0:1|0:0,0:0:0:0:
164,36,23593,1,2,0:1:0:0:
116,136,23982,2,0,L|128:188,1,50,2|2,0:1|0:0,0:0:0:0:
124,240,24372,2,0,P|58:245|17:217,2,100,6|8|0,0:0|0:0|0:0,0:0:0:0:
216,180,25541,6,0,L|316:188,1,100,6|8,0:0|0:0,0:0:0:0:
380,280,26320,2,0,L|271:273,1,100
172,248,27099,2,0,L|73:264,1,100,0|8,0:0|0:0,0:0:0:0:
24,240,27684,2,0,P|20:186|55:130,1,100,0|2,0:0|0:0,0:0:0:0:
87,120,28268,1,8,0:0:0:0:
188,168,28658,6,0,P|257:155|300:148,1,100,2|8,0:0|0:0,0:0:0:0:
336,172,29242,2,0,P|341:241|278:294,1,150
232,296,30022,2,0,P|178:283|124:272,1,100,8|2,0:0|0:0,0:0:0:0:
80,288,30606,1,8,0:0:0:0:
8,204,30995,2,0,L|0:154,2,50,0|2|8,0:0|0:0|0:0,0:0:0:0:
112,164,31775,6,0,L|128:60,1,100,2|8,0:0|0:0,0:0:0:0:
168,28,32359,2,0,P|224:32|272:16,1,100,0|2,0:0|0:0,0:0:0:0:
348,92,33139,2,0,P|342:161|336:248,1,150,8|8,0:0|0:0,0:0:0:0:
288,264,33917,2,0,P|232:264|172:271,1,100,0|2,0:0|0:0,0:0:0:0:
136,292,34502,1,8,0:0:0:0:
40,236,34892,6,0,P|34:188|51:128,1,100,2|8,0:0|0:0,0:0:0:0:
80,96,35476,1,2,0:1:0:0:
172,156,35865,2,0,P|222:169|288:152,1,100,2|8,0:0|0:0,0:0:0:0:
312,128,36450,1,2,0:1:0:0:
312,128,36644,2,0,P|362:115|428:132,1,100,2|2,0:0|0:1,0:0:0:0:
508,176,37424,2,0,L|496:244,1,50,2|8,0:0|0:0,0:0:0:0:
400,272,38008,6,0,P|349:274|300:282,1,100,6|8,0:0|0:0,0:0:0:0:
216,352,38787,2,0,L|104:340,1,100
32,276,39567,2,0,P|30:229|63:174,1,100,0|8,0:0|0:0,0:0:0:0:
104,164,40151,2,0,L|220:176,1,100,0|2,0:0|0:0,0:0:0:0:
252,200,40735,1,8,0:0:0:0:
364,184,41125,6,0,P|355:134|346:85,1,100,2|8,0:0|0:0,0:0:0:0:
304,48,41709,2,0,P|249:49|205:27,1,100,0|2,0:0|0:0,0:0:0:0:
124,100,42489,2,0,P|131:150|136:208,1,100,8|2,0:0|0:0,0:0:0:0:
124,252,43073,1,8,0:0:0:0:
16,232,43462,2,0,L|0:180,2,50,0|2|8,0:0|0:0|0:0,0:0:0:0:
60,332,44242,6,0,L|160:344,1,100,2|8,0:0|0:0,0:0:0:0:
204,376,44826,1,0,0:0:0:0:
272,288,45216,2,0,P|277:262|275:234,1,50,2|0,0:0|0:0,0:0:0:0:
232,204,45606,2,0,P|155:209|72:212,1,150,8|8,0:0|0:0,0:0:0:0:
32,188,46384,2,0,P|41:136|95:108,1,100,0|2,0:0|0:0,0:0:0:0:
132,92,46969,1,8,0:0:0:0:
240,64,47359,6,0,P|283:77|344:92,1,100,2|8,0:0|0:0,0:0:0:0:
392,96,47943,1,2,0:1:0:0:
480,164,48333,2,0,P|468:222|460:284,1,100,2|8,0:0|0:0,0:0:0:0:
464,316,48917,1,2,0:1:0:0:
360,360,49307,1,12,0:0:0:0:
340,252,49696,2,0,P|335:221|324:192,2,50,8|12|8,0:0|0:3|0:3,0:0:0:0:
228,264,50476,6,0,P|167:251|111:243,1,100,6|0,0:0|0:0,0:0:0:0:
64,332,51255,2,0,P|125:345|181:353,1,100,8|0,0:0|0:0,0:0:0:0:
216,344,51839,1,2,0:0:0:0:
216,344,52034,2,0,P|277:331|333:323,1,100,0|2,0:0|0:0,0:0:0:0:
408,264,52813,2,0,P|419:215|404:158,1,100,8|0,0:0|0:0,0:0:0:0:
332,88,53593,6,0,L|222:98,1,100,2|0,0:0|0:0,0:0:0:0:
160,180,54372,2,0,P|167:237|172:296,1,100,8|0,0:0|0:0,0:0:0:0:
140,324,54956,2,0,P|76:340|-6:297,1,150,2|2,0:0|0:0,0:0:0:0:
0,196,55930,2,0,P|8:144|20:84,1,100,8|0,0:0|0:0,0:0:0:0:
124,72,56709,6,0,P|173:81|240:88,1,100,2|0,0:0|0:0,0:0:0:0:
328,52,57489,2,0,P|377:43|444:36,1,100,8|0,0:0|0:0,0:0:0:0:
468,76,58073,1,2,0:0:0:0:
468,76,58268,2,0,P|460:149|457:195,1,100,0|2,0:0|0:0,0:0:0:0:
380,256,59047,2,0,P|325:248|264:244,1,100,8|0,0:0|0:0,0:0:0:0:
180,200,59826,6,0,P|186:144|198:84,1,100,2|0,0:0|0:0,0:0:0:0:
288,40,60606,1,8,0:0:0:0:
288,40,60800,2,0,P|343:33|403:21,1,100,2|2,0:1|0:0,0:0:0:0:
432,60,61385,2,0,P|421:88|412:120,1,50,8|8,0:0|0:0,0:0:0:0:
380,148,61774,2,0,P|390:176|400:208,1,50,8|8,0:0|0:0,0:0:0:0:
136,100,62943,6,0,P|141:152|144:200,1,100,6|8,0:0|0:0,0:0:0:0:
84,292,63722,1,2,0:0:0:0:
172,360,64112,1,8,0:0:0:0:
172,360,64307,2,0,P|232:364|276:360,1,100,2|2,0:0|0:0,0:0:0:0:
316,332,64891,2,0,P|313:300|316:267,1,50,8|0,0:0|0:0,0:0:0:0:
356,248,65281,2,0,P|388:256|421:256,2,50,2|2|8,0:0|0:0|0:0,0:0:0:0:
304,152,66060,6,0,P|247:140|201:152,1,100,2|8,0:0|0:0,0:0:0:0:
120,216,66839,1,2,0:0:0:0:
36,144,67229,1,8,0:0:0:0:
36,144,67424,2,0,P|31:97|64:44,1,100,2|2,0:0|0:0,0:0:0:0:
108,32,68008,2,0,L|167:44,1,50,8|0,0:0|0:0,0:0:0:0:
200,76,68398,2,0,L|259:64,2,50,2|2|8,0:0|0:0|0:0,0:0:0:0:
168,180,69177,6,0,L|288:156,1,100,2|8,0:0|0:0,0:0:0:0:
312,188,69761,2,0,P|306:247|304:300,1,100,0|2,0:0|0:0,0:0:0:0:
316,340,70346,1,8,0:0:0:0:
424,332,70735,2,0,P|429:272|432:220,1,100,2|8,0:1|0:0,0:0:0:0:
404,184,71320,2,0,P|398:124|396:72,1,100,2|2,0:1|0:0,0:0:0:0:
416,32,71904,1,8,0:0:0:0:
308,12,72294,6,0,P|250:18|192:32,1,100,2|8,0:0|0:0,0:0:0:0:
120,92,73073,2,0,L|68:84,2,50,2|2|8,0:0|0:0|0:0,0:0:0:0:
156,132,73657,1,2,0:0:0:0:
156,132,73852,2,0,P|142:181|132:232,1,100,2|8,0:1|0:0,0:0:0:0:
148,284,74437,2,0,P|208:293|257:308,1,100
288,336,75020,1,8,0:0:0:0:
348,244,75411,6,0,P|350:192|353:142,1,100,6|8,0:0|0:0,0:0:0:0:
384,40,76190,1,2,0:0:0:0:
484,88,76580,1,8,0:0:0:0:
484,88,76774,2,0,P|492:137|499:186,1,100,2|2,0:0|0:0,0:0:0:0:
472,236,77359,2,0,P|440:231|416:232,1,50,8|0,0:0|0:0,0:0:0:0:
368,248,77749,2,0,L|308:236,2,50,2|2|8,0:0|0:0|0:0,0:0:0:0:
324,348,78528,6,0,P|269:333|217:326,1,100,2|8,0:0|0:0,0:0:0:0:
124,364,79307,1,2,0:0:0:0:
40,296,79696,1,8,0:0:0:0:
40,296,79892,2,0,P|46:250|68:187,1,100,2|2,0:0|0:0,0:0:0:0:
112,172,80476,2,0,P|119:141|120:111,1,50,8|0,0:0|0:0,0:0:0:0:
85,78,80866,2,0,L|28:84,2,50,2|2|8,0:0|0:0|0:0,0:0:0:0:
184,28,81645,6,0,L|301:43,1,100,2|8,0:0|0:0,0:0:0:0:
308,92,82229,2,0,P|287:132|261:195,1,100,0|2,0:0|0:0,0:0:0:0:
268,240,82814,1,8,0:0:0:0:
164,276,83203,2,0,P|109:260|61:251,1,100,2|8,0:1|0:0,0:0:0:0:
26,217,83787,2,0,P|40:168|50:119,1,100,2|2,0:1|0:0,0:0:0:0:
52,64,84372,1,8,0:0:0:0:
148,116,84761,6,0,L|160:168,2,50,6|2|8,0:0|0:0|0:0,0:0:0:0:
168,64,85346,2,0,P|232:76|282:58,1,100,2|2,0:1|0:0,0:0:0:0:
308,32,85930,1,8,0:0:0:0:
400,96,86320,2,0,L|392:200,1,100,2|8,0:1|0:0,0:0:0:0:
356,236,86904,2,0,L|364:340,1,100,2|2,0:1|0:0,0:0:0:0:
320,372,87489,2,0,P|292:363|255:363,1,50,8|8,0:0|0:0,0:0:0:0:
216,368,87878,5,4,0:0:0:0:
256,192,88073,12,0,89437,0:0:0:0:
