osu file format v14

[General]
AudioFilename: audio.mp3
AudioLeadIn: 0
PreviewTime: 59364
Countdown: 0
SampleSet: Soft
StackLeniency: 0.7
Mode: 0
LetterboxInBreaks: 0
WidescreenStoryboard: 0

[Editor]
Bookmarks: 14419,34984,59529,83290,104984,126011
DistanceSpacing: 1.9
BeatDivisor: 4
GridSize: 32
TimelineZoom: 0.9

[Metadata]
Title:Ne tvoya viyna
TitleUnicode:Не твоя війна
Artist:Okean Elzy
ArtistUnicode:Океан Ельзи
Creator:Sieg
Version:Hard
Source:
Tags:not your war ukrainian rock cut short version wajinshu Ne tvoya voyna
BeatmapID:1079972
BeatmapSetID:507774

[Difficulty]
HPDrainRate:6
CircleSize:5
OverallDifficulty:6
ApproachRate:7
SliderMultiplier:1.8
SliderTickRate:1

[Events]
//Background and Video events
0,0,"bg (2).jpg",0,0
//Break Periods
//Storyboard Layer 0 (Background)
//Storyboard Layer 1 (Fail)
//Storyboard Layer 2 (Pass)
//Storyboard Layer 3 (Foreground)
//Storyboard Sound Samples

[TimingPoints]
2058,689.655172413793,4,2,1,20,1,0
4815,682.59385665529,4,2,1,20,1,0
9593,693.64161849711,4,2,1,20,1,0
10286,688.86337543054,4,2,1,20,1,0
17174,-100,4,2,1,15,0,0
17863,-100,4,2,1,10,0,0
18552,701.754385964912,4,2,1,20,1,0
22762,-100,4,2,1,15,0,0
23464,-100,4,2,1,10,0,0
23815,-100,4,2,1,20,0,0
24166,689.655172413793,4,2,1,20,1,0
26234,705.882352941176,4,2,1,20,1,0
26939,660.06600660066,4,2,1,20,1,0
27599,-100,4,2,1,15,0,0
28259,-100,4,2,1,10,0,0
28919,666.666666666667,4,2,1,10,1,0
29252,-100,4,2,1,5,0,0
29585,674.915635545557,4,2,1,20,1,0
32959,-100,4,2,1,15,0,0
34309,-100,4,2,1,20,0,0
34984,694.444444444444,4,2,1,25,1,0
37761,681.818181818182,4,2,1,25,1,0
39124,-100,4,2,1,15,0,0
39295,-100,4,2,1,10,0,0
39636,-100,4,2,1,15,0,0
39806,-100,4,2,1,10,0,0
40147,-100,4,2,1,20,0,0
41170,-100,4,2,1,25,0,0
43215,692.04152249135,4,2,1,25,1,0
44599,-100,4,2,1,20,0,0
45291,-100,4,2,1,15,0,0
45983,683.371298405467,4,2,1,25,1,0
50083,-100,4,2,1,20,0,0
50766,-100,4,2,1,15,0,0
51449,-100,4,2,1,25,0,0
54183,674.915635545557,4,2,1,25,1,0
54183,-166.666666666667,4,2,1,25,0,0
56207,652.173913043478,4,2,1,25,1,0
56859,681.818181818182,4,2,1,35,1,0
57540,705.882352941176,4,2,1,25,1,0
58245,642.398286937902,4,2,1,25,1,0
59529,656.455142231947,4,2,1,60,1,1
59529,-83.3333333333333,4,2,1,60,0,1
79880,714.285714285714,4,2,1,60,1,1
80058,-100,4,2,1,60,0,0
80594,674.157303370787,4,2,1,60,1,0
83290,683.371298405467,4,2,1,45,1,0
98324,666.666666666667,4,2,1,45,1,0
99657,665.926748057714,4,2,1,45,1,0
112309,652.173913043478,4,2,1,45,1,0
112961,680.272108843537,4,2,1,45,1,0
113641,665.926748057714,4,2,1,45,1,0
115639,648.648648648649,4,2,1,45,1,0
116287,638.297872340426,4,2,1,45,1,0
116950,655.737704918033,4,2,1,45,1,0
118261,659.340659340659,4,2,1,45,1,0
121557,664.451827242525,4,2,1,45,1,0
122885,612.244897959184,4,2,1,45,1,0
123497,645.161290322581,4,2,1,45,1,0
124787,612.244897959184,4,2,1,45,1,0
126011,656.455142231947,4,2,1,60,1,1
126011,-83.3333333333333,4,2,1,60,0,1
131262,650.759219088937,4,2,1,60,1,1
131262,-83.3333333333333,4,2,1,60,0,1
136468,652.173913043478,4,2,1,60,1,1
136468,-83.3333333333333,4,2,1,60,0,1
146250,659.340659340659,4,2,1,60,1,1
146250,-83.3333333333333,4,2,1,60,0,1
146744,-83.3333333333333,4,2,1,60,0,0
146909,665.188470066519,4,2,1,60,1,1
146909,-83.3333333333333,4,2,1,60,0,1
151565,659.340659340659,4,2,1,60,1,1
151565,-83.3333333333333,4,2,1,60,0,1
152224,659.340659340659,4,2,1,60,1,1
152224,-83.3333333333333,4,2,1,60,0,1
153542,-125,4,2,1,80,0,1
153707,-125,4,2,1,60,0,0
153872,-125,4,2,1,50,0,0
154037,-125,4,2,1,40,0,0
154202,-125,4,2,1,30,0,0

[Colours]
Combo1 : 193,197,214
Combo2 : 51,54,77
Combo3 : 199,181,18
Combo4 : 45,140,181
SliderBorder : 232,20,20
SliderTrackOverride : 235,236,240

[HitObjects]
65,250,14419,38,0,P|100:313|201:294,1,180,2|0,0:0|0:0,0:0:0:0:
430,167,15796,2,0,P|343:197|237:188,1,180,2|0,0:0|0:0,0:0:0:0:
248,185,17174,1,0,0:0:0:0:
241,177,17863,1,0,0:0:0:0:
234,169,18552,6,0,P|279:180|342:62,1,180,2|0,0:0|0:0,0:0:0:0:
166,120,19604,1,0,0:0:0:0:
283,53,19955,2,0,B|392:32|392:32|430:48,1,135
468,109,20657,2,0,L|463:211,1,90
316,239,21359,2,0,P|224:242|179:335,1,180,2|0,0:0|0:0,0:0:0:0:
185,319,22762,1,0,0:0:0:0:
192,328,23464,1,0,0:0:0:0:
78,254,23815,1,0,0:1:0:0:
243,267,24166,38,0,P|265:263|299:272,2,45,2|0|0,0:0|0:0|0:0,0:0:0:0:
69,319,24855,1,0,0:0:0:0:
75,329,25545,1,0,0:0:0:0:
82,336,26234,2,0,P|27:298|63:174,1,180,2|0,0:0|0:0,0:0:0:0:
43,188,27599,1,0,0:0:0:0:
53,185,28259,1,0,0:0:0:0:
64,188,28919,2,0,L|166:186,1,90
74,59,29585,6,0,P|50:43|28:42,2,45,2|0|0,0:0|0:0|0:0,0:0:0:0:
199,134,30259,1,0,0:0:0:0:
303,364,30934,2,0,P|294:286|316:224,1,135,2|0,0:0|0:0,0:0:0:0:
191,245,31609,2,0,P|257:236|265:121,1,180
269,130,32959,1,0,0:0:0:0:
117,323,33634,2,0,P|105:352|110:376,2,45,2|0|0,0:0|0:0|0:0,0:0:0:0:
168,189,34309,2,0,P|155:162|159:131,2,45,2|0|0,0:0|0:0|0:0,0:0:0:0:
289,296,34984,38,0,B|353:275|353:275|394:277,1,90,2|0,0:0|0:0,0:0:0:0:
221,268,35678,1,0,0:0:0:0:
350,344,36025,1,0,0:0:0:0:
314,213,36372,2,0,P|381:184|452:196,1,135,2|0,0:0|0:0,0:0:0:0:
395,141,37067,1,0,0:0:0:0:
391,291,37414,1,0,0:0:0:0:
315,133,37761,2,0,P|348:76|459:92,1,180,2|0,0:0|0:0,0:0:0:0:
104,40,39124,2,0,L|49:32,1,45,2|0,0:0|0:0,0:0:0:0:
298,25,39806,1,2,0:0:0:0:
164,74,40147,1,0,0:0:0:0:
181,236,40488,6,0,P|181:265|170:286,2,45,2|0|0,0:0|0:0|0:0,0:0:0:0:
228,96,41170,1,0,0:0:0:0:
118,249,41511,1,0,0:0:0:0:
6,94,41851,2,0,P|51:155|34:264,1,180,2|0,0:0|0:0,0:0:0:0:
101,96,42874,1,0,0:0:0:0:
106,268,43215,2,0,P|48:320|-4:304,1,135,2|0,0:0|0:0,0:0:0:0:
40,254,43907,1,0,0:0:0:0:
105,372,44253,1,0,0:0:0:0:
171,220,44599,1,0,0:0:0:0:
189,216,45291,1,0,0:0:0:0:
197,201,45983,38,0,P|192:171|172:154,2,45,2|0|0,0:0|0:0|0:0,0:0:0:0:
159,330,46666,1,0,0:0:0:0:
261,228,47008,1,0,0:0:0:0:
379,327,47349,2,0,P|457:322|481:272,1,135,2|0,0:0|0:0,0:0:0:0:
413,270,48033,1,0,0:0:0:0:
299,161,48374,1,0,0:0:0:0:
454,215,48716,2,0,P|503:138|480:46,1,180,2|0,0:0|0:0,0:0:0:0:
334,16,49741,1,0,0:0:0:0:
399,153,50083,1,0,0:0:0:0:
394,162,50766,1,0,0:0:0:0:
389,172,51449,6,0,P|394:202|414:219,2,45,2|0|0,0:0|0:0|0:0,0:0:0:0:
421,29,52133,1,0,0:0:0:0:
319,148,52475,1,0,0:0:0:0:
200,22,52816,2,0,L|91:12,1,90,2|0,0:0|0:0,0:0:0:0:
55,72,53329,1,0,0:0:0:0:
55,72,53500,2,0,L|164:82,1,90,2|0,0:0|0:0,0:0:0:0:
256,160,54183,38,0,B|297:218|256:260|256:269|214:311|256:369,1,215.999993408203,4|0,0:1|0:0,0:0:0:0:
70,222,56207,1,2,0:0:0:0:
376,77,56859,1,4,0:1:0:0:
256,226,59529,21,4,1:0:0:0:
255,215,60186,1,10,1:0:0:0:
427,195,60514,1,0,0:0:0:0:
305,128,60842,2,0,P|387:177|405:248,1,161.999995056153,2|0,1:0|0:0,0:0:0:0:
409,318,61499,1,10,1:0:0:0:
238,287,61827,1,0,1:0:0:0:
205,293,61990,1,0,1:0:0:0:
173,299,62155,2,0,P|112:286|52:372,1,161.999995056153,2|0,1:0|0:0,0:0:0:0:
0,284,62812,2,0,L|6:170,1,107.999996704102,10|0,1:0|0:0,0:0:0:0:
172,218,63467,1,4,1:0:0:0:
332,262,63795,1,0,0:0:0:0:
204,156,64125,1,14,1:0:0:0:
31,265,64453,1,8,1:3:0:0:
31,265,64617,1,8,1:3:0:0:
31,265,64781,6,0,L|36:212,1,53.9999983520508,4|0,1:0|0:0,0:0:0:0:
81,144,65108,2,0,L|86:91,1,53.9999983520508,0|0,1:0|0:0,0:0:0:0:
37,24,65437,1,10,1:0:0:0:
176,128,65766,1,0,1:0:0:0:
200,106,65930,1,0,1:0:0:0:
224,84,66094,2,0,B|341:59|341:59|401:72,1,161.999995056153,2|0,1:0|0:0,0:0:0:0:
458,96,66750,1,10,1:0:0:0:
300,153,67078,1,0,1:0:0:0:
308,183,67242,1,0,1:0:0:0:
316,214,67406,2,0,L|329:270,1,53.9999983520508,2|0,1:0|0:0,0:0:0:0:
391,230,67735,2,0,L|404:286,1,53.9999983520508,0|0,1:0|0:0,0:0:0:0:
467,306,68063,2,0,P|424:310|418:377,1,107.999996704102,10|0,1:0|0:0,0:0:0:0:
270,286,68720,2,0,P|254:220|160:193,1,161.999995056153,2|0,1:0|0:0,0:0:0:0:
188,273,69376,1,14,1:0:0:0:
50,358,69704,1,0,0:0:0:0:
212,352,70033,38,0,L|378:372,1,161.999995056153,4|0,1:0|0:0,0:0:0:0:
338,270,70689,2,0,L|448:259,1,107.999996704102,10|0,1:0|0:0,0:0:0:0:
214,284,71346,1,2,1:0:0:0:
342,186,71673,1,0,0:0:0:0:
270,334,72002,1,10,1:0:0:0:
152,233,72330,1,0,1:0:0:0:
152,233,72494,1,0,1:0:0:0:
152,233,72659,2,0,L|145:178,1,53.9999983520508,2|0,1:0|0:0,0:0:0:0:
66,140,72986,2,0,L|73:195,1,53.9999983520508,0|0,1:0|0:0,0:0:0:0:
138,107,73314,2,0,P|93:63|50:61,1,107.999996704102,14|0,1:0|0:0,0:0:0:0:
213,115,73972,1,2,1:0:0:0:
343,19,74300,1,0,1:0:0:0:
316,39,74464,1,0,1:0:0:0:
291,62,74628,2,0,L|408:58,1,107.999996704102,14|0,1:0|0:0,0:0:0:0:
229,34,75284,6,0,P|154:15|74:56,1,161.999995056153,4|0,1:0|0:0,0:0:0:0:
25,109,75941,1,10,1:0:0:0:
149,234,76269,1,0,0:0:0:0:
6,243,76596,2,0,P|83:235|155:288,1,161.999995056153,2|0,1:0|0:0,0:0:0:0:
191,352,77254,1,10,1:0:0:0:
259,205,77582,1,0,1:0:0:0:
282,182,77746,1,0,1:0:0:0:
307,166,77910,2,0,B|426:178|426:178|469:219,1,161.999995056153,2|0,1:0|0:0,0:0:0:0:
387,248,78566,1,14,0:1:0:0:
478,113,78895,1,8,1:3:0:0:
309,259,79223,1,8,1:3:0:0:
116,25,79880,1,12,1:0:0:0:
471,281,80594,37,8,1:3:0:0:
276,354,80931,1,8,1:3:0:0:
225,153,81268,1,8,1:3:0:0:
390,360,81605,1,8,1:3:0:0:
206,265,81942,1,8,1:3:0:0:
315,96,83290,38,0,P|312:65|325:39,2,45,4|0|0,1:0|0:0|0:0,0:0:0:0:
366,220,83973,1,10,1:0:0:0:
76,105,84656,2,0,P|156:93|248:139,1,180,2|10,0:0|1:0,0:0:0:0:
447,318,86023,2,0,B|315:331|315:331|257:320,1,180,2|10,1:0|1:0,0:0:0:0:
259,317,87390,1,0,0:0:0:0:
387,251,87731,1,0,0:0:0:0:
250,312,88073,1,10,1:0:0:0:
242,306,88756,38,0,P|199:287|117:392,1,180,2|10,1:0|1:0,0:0:0:0:
181,249,89782,1,0,0:0:0:0:
117,165,90123,2,0,P|125:82|81:32,1,135,2|0,0:0|0:0,0:0:0:0:
27,80,90807,2,0,L|10:182,1,90,10|0,1:0|0:0,0:0:0:0:
160,97,91490,2,0,P|252:94|274:11,1,180,2|10,1:0|1:0,0:0:0:0:
270,10,92857,1,0,0:0:0:0:
260,17,93540,1,10,1:0:0:0:
356,130,93882,1,0,0:1:0:0:
498,102,94223,6,0,P|506:74|498:50,2,45,4|0|0,1:0|0:0|0:0,0:0:0:0:
376,202,94907,1,10,1:0:0:0:
383,209,95590,1,0,0:0:0:0:
394,211,96274,2,0,P|414:277|485:270,1,135,10|0,1:0|0:0,0:0:0:0:
393,313,96957,2,0,P|325:290|271:329,1,135,2|0,1:0|0:0,0:0:0:0:
337,364,97640,1,10,1:0:0:0:
202,350,97982,1,0,0:0:0:0:
64,330,98324,1,0,0:0:0:0:
55,323,98990,2,0,L|157:321,1,90,10|0,1:0|0:0,0:0:0:0:
268,258,99657,38,0,P|295:250|311:234,2,45,2|0|0,1:2|0:0|0:0,0:0:0:0:
118,217,100322,1,10,1:0:0:0:
108,214,100988,2,0,B|99:111|99:111|121:74,1,135,2|0,0:0|0:0,0:0:0:0:
184,137,101654,2,0,L|193:232,1,90,10|0,1:0|0:0,0:0:0:0:
302,299,102320,2,0,P|290:236|336:180,1,135,2|0,1:0|0:0,0:0:0:0:
395,162,102986,1,10,1:0:0:0:
367,324,103319,1,0,0:0:0:0:
451,197,103652,2,0,P|463:168|458:144,2,45,2|0|0,0:0|0:0|0:0,0:0:0:0:
398,52,104318,2,0,P|425:65|456:61,2,45,10|0|0,1:0|0:0|0:0,0:0:0:0:
267,57,104984,6,0,B|174:47,1,90,4|0,1:0|0:0,0:0:0:0:
301,120,105650,1,10,1:0:0:0:
172,161,105983,1,0,0:0:0:0:
308,56,106316,2,0,P|360:93|344:168,1,135,2|0,0:0|0:0,0:0:0:0:
301,120,106982,1,10,1:0:0:0:
177,47,107315,1,0,0:0:0:0:
156,180,107648,2,0,P|171:116|80:50,1,180,2|10,1:0|1:0,0:0:0:0:
19,164,108647,1,0,0:0:0:0:
13,28,108979,1,0,0:0:0:0:
95,130,109312,1,0,0:0:0:0:
24,253,109645,2,0,L|14:343,1,90,10|0,1:0|0:0,0:0:0:0:
126,258,110311,38,0,L|133:203,2,45,2|0|0,1:2|0:0|0:0,0:0:0:0:
214,157,110977,1,10,1:0:0:0:
271,280,111310,1,0,0:0:0:0:
134,283,111643,2,0,P|221:285|250:375,1,180,2|10,0:0|1:0,0:0:0:0:
322,244,112635,1,0,0:0:0:0:
214,157,112961,2,0,B|203:57|203:57|219:4,1,135,2|0,1:0|0:0,0:0:0:0:
276,58,113641,1,10,1:0:0:0:
134,110,113974,2,0,L|146:211,1,90
72,72,114640,1,0,0:0:0:0:
212,24,114973,1,10,1:0:0:0:
263,148,115306,1,0,0:0:0:0:
391,62,115639,6,0,P|412:40|439:31,2,45,2|0|0,1:2|0:0|0:0,0:0:0:0:
316,190,116287,1,2,1:0:0:0:
369,143,116446,2,0,P|358:122|327:107,2,45,2|2|2,0:0|0:0|0:0,0:0:0:0:
435,146,116950,2,0,P|477:188|460:261,1,135,2|0,0:0|0:0,0:0:0:0:
413,211,117606,1,10,1:0:0:0:
343,309,117934,1,0,0:0:0:0:
458,376,118261,2,0,P|417:356|322:379,1,135,2|0,1:0|0:0,0:0:0:0:
343,309,118920,1,10,1:0:0:0:
226,240,119250,1,0,0:0:0:0:
247,382,119579,1,0,0:0:0:0:
156,245,119909,1,0,0:0:0:0:
302,331,120239,1,10,1:0:0:0:
122,306,120568,1,0,0:0:0:0:
22,166,120898,38,0,P|17:139|27:111,2,45,2|0|0,1:2|0:0|0:0,0:0:0:0:
47,300,121557,1,10,1:0:0:0:
80,144,121889,1,0,0:0:0:0:
180,37,122221,2,0,L|289:27,1,90,2|0,0:0|0:0,0:0:0:0:
329,97,122719,1,0,0:0:0:0:
329,97,122885,2,0,L|220:107,1,90,10|0,1:0|0:0,0:0:0:0:
158,212,123497,5,8,1:3:0:0:
310,345,123819,1,8,1:3:0:0:
399,163,124142,1,8,1:3:0:0:
201,316,124464,1,8,1:3:0:0:
399,276,124787,1,8,1:3:0:0:
325,55,126011,5,4,1:0:0:0:
333,64,126668,1,10,1:0:0:0:
489,23,126996,1,0,0:0:0:0:
365,127,127324,2,0,P|329:196|356:282,1,161.999995056153,2|0,1:0|0:0,0:0:0:0:
400,337,127981,1,14,1:0:0:0:
225,282,128309,1,0,1:0:0:0:
208,312,128472,1,0,1:0:0:0:
183,335,128637,2,0,P|122:348|62:262,1,161.999995056153,2|0,1:0|0:0,0:0:0:0:
138,271,129294,2,0,L|128:135,1,107.999996704102,10|0,1:0|0:0,0:0:0:0:
183,335,129949,1,4,1:0:0:0:
264,195,130277,1,0,0:0:0:0:
260,363,130607,1,14,1:0:0:0:
340,222,130935,1,8,1:3:0:0:
340,222,131099,1,8,1:3:0:0:
340,222,131263,6,0,L|345:169,1,53.9999983520508,4|0,1:0|0:0,0:0:0:0:
420,123,131587,2,0,L|415:176,1,53.9999983520508,0|0,1:0|0:0,0:0:0:0:
481,89,131912,1,10,1:0:0:0:
335,18,132238,1,0,1:0:0:0:
306,32,132400,1,0,1:0:0:0:
277,45,132563,2,0,B|100:33,1,161.999995056153,2|0,1:0|0:0,0:0:0:0:
34,32,133214,1,10,1:0:0:0:
52,192,133539,1,0,1:0:0:0:
81,169,133702,1,0,1:0:0:0:
116,154,133865,2,0,L|110:209,1,53.9999983520508,2|0,1:0|0:0,0:0:0:0:
177,214,134190,2,0,L|171:269,1,53.9999983520508,0|0,1:0|0:0,0:0:0:0:
100,307,134515,2,0,P|156:312|197:351,1,107.999996704102,10|0,1:0|0:0,0:0:0:0:
360,355,135166,2,0,P|434:334|456:253,1,161.999995056153,6|0,1:0|0:0,0:0:0:0:
375,274,135817,1,14,1:0:0:0:
237,373,136142,1,0,0:0:0:0:
247,180,136468,38,0,B|366:177|366:177|413:200,1,161.999995056153,4|0,1:0|0:0,0:0:0:0:
457,259,137120,2,0,P|440:210|459:151,1,107.999996704102,10|0,1:0|0:0,0:0:0:0:
512,13,137772,1,2,1:0:0:0:
392,122,138098,1,0,0:0:0:0:
246,21,138424,1,14,1:0:0:0:
85,37,138749,1,0,1:0:0:0:
85,37,138913,1,0,1:0:0:0:
85,37,139076,2,0,L|92:92,1,53.9999983520508,2|0,1:0|0:0,0:0:0:0:
48,158,139402,2,0,L|55:213,1,53.9999983520508,0|0,1:0|0:0,0:0:0:0:
118,261,139728,2,0,L|133:374,1,107.999996704102,14|0,1:0|0:0,0:0:0:0:
170,210,140381,1,2,1:0:0:0:
260,75,140707,1,0,1:0:0:0:
280,48,140870,1,0,1:0:0:0:
301,21,141033,2,0,L|316:134,1,107.999996704102,14|0,1:0|0:0,0:0:0:0:
287,292,141685,6,0,P|344:343|434:345,1,161.999995056153,4|0,1:0|0:0,0:0:0:0:
503,321,142337,1,10,1:0:0:0:
496,159,142663,1,0,0:0:0:0:
487,16,142989,2,0,P|495:93|442:165,1,161.999995056153,2|0,1:0|0:0,0:0:0:0:
378,201,143641,1,10,1:0:0:0:
331,45,143968,1,0,1:0:0:0:
308,68,144131,1,0,1:0:0:0:
283,84,144294,2,0,P|197:60|117:89,1,161.999995056153,2|0,1:0|0:0,0:0:0:0:
62,125,144946,1,14,0:1:0:0:
213,238,145272,1,8,1:3:0:0:
179,34,145598,1,4,1:0:0:0:
168,28,146250,1,12,1:0:0:0:
212,352,146909,38,0,L|378:372,1,161.999995056153,4|0,1:0|0:0,0:0:0:0:
338,270,147574,2,0,L|448:259,1,107.999996704102,10|0,1:0|0:0,0:0:0:0:
214,284,148239,1,6,1:0:0:0:
342,186,148571,1,0,0:0:0:0:
194,117,148904,2,0,P|142:103|86:132,1,107.999996704102,10|0,1:0|0:0,0:0:0:0:
17,266,149569,2,0,P|11:291|24:321,1,53.9999983520508,4|0,1:0|0:0,0:0:0:0:
124,246,149902,2,0,P|140:226|172:219,1,53.9999983520508,0|0,1:0|0:0,0:0:0:0:
232,319,150234,2,0,P|298:328|342:302,1,107.999996704102,14|0,1:0|0:0,0:0:0:0:
199,153,150900,1,2,1:0:0:0:
343,19,151232,1,0,1:0:0:0:
316,39,151399,1,0,1:0:0:0:
291,62,151565,2,0,L|408:58,1,107.999996704102,14|0,1:0|0:0,0:0:0:0:
208,34,152224,6,0,P|133:15|53:56,1,161.999995056153,4|0,1:0|0:0,0:0:0:0:
8,117,152883,1,10,1:0:0:0:
234,188,153213,1,0,0:0:0:0:
374,328,153542,2,0,L|219:347,1,144,4|0,1:0|0:0,0:0:0:0:
