osu file format v14

[General]
AudioFilename: audio.mp3
AudioLeadIn: 0
PreviewTime: 59364
Countdown: 0
SampleSet: Soft
StackLeniency: 0.7
Mode: 0
LetterboxInBreaks: 0
WidescreenStoryboard: 0

[Editor]
Bookmarks: 14419,34984,59529,83290,104984,126011
DistanceSpacing: 0.9
BeatDivisor: 4
GridSize: 32
TimelineZoom: 0.6999999

[Metadata]
Title:Ne tvoya viyna
TitleUnicode:Не твоя війна
Artist:Okean Elzy
ArtistUnicode:Океан Ельзи
Creator:Sieg
Version:Normal
Source:
Tags:not your war ukrainian rock cut short version wajinshu Ne tvoya voyna
BeatmapID:1087891
BeatmapSetID:507774

[Difficulty]
HPDrainRate:4
CircleSize:4
OverallDifficulty:4
ApproachRate:5
SliderMultiplier:1.8
SliderTickRate:1

[Events]
//Background and Video events
0,0,"bg (2).jpg",0,0
//Break Periods
//Storyboard Layer 0 (Background)
//Storyboard Layer 1 (Fail)
//Storyboard Layer 2 (Pass)
//Storyboard Layer 3 (Foreground)
//Storyboard Sound Samples

[TimingPoints]
2058,689.655172413793,4,2,1,20,1,0
4815,682.59385665529,4,2,1,20,1,0
9593,693.64161849711,4,2,1,20,1,0
10286,688.86337543054,4,2,1,20,1,0
17174,-100,4,2,1,15,0,0
17863,-100,4,2,1,10,0,0
18552,701.754385964912,4,2,1,20,1,0
22762,-100,4,2,1,15,0,0
23464,-100,4,2,1,10,0,0
23815,-100,4,2,1,20,0,0
24166,689.655172413793,4,2,1,20,1,0
26234,705.882352941176,4,2,1,20,1,0
26939,660.06600660066,4,2,1,20,1,0
27599,-100,4,2,1,15,0,0
28259,-100,4,2,1,10,0,0
28919,666.666666666667,4,2,1,10,1,0
29252,-100,4,2,1,5,0,0
29585,674.915635545557,4,2,1,20,1,0
32959,-100,4,2,1,15,0,0
34309,-100,4,2,1,20,0,0
34984,694.444444444444,4,2,1,25,1,0
37761,681.818181818182,4,2,1,25,1,0
39124,-100,4,2,1,15,0,0
39295,-100,4,2,1,10,0,0
39636,-100,4,2,1,15,0,0
39806,-100,4,2,1,10,0,0
40147,-100,4,2,1,20,0,0
41170,-100,4,2,1,25,0,0
43215,692.04152249135,4,2,1,25,1,0
44599,-100,4,2,1,20,0,0
45291,-100,4,2,1,15,0,0
45983,683.371298405467,4,2,1,25,1,0
50083,-100,4,2,1,20,0,0
50766,-100,4,2,1,15,0,0
51449,-100,4,2,1,25,0,0
54183,674.915635545557,4,2,1,25,1,0
54183,-166.666666666667,4,2,1,25,0,0
56207,652.173913043478,4,2,1,25,1,0
56859,681.818181818182,4,2,1,35,1,0
57540,705.882352941176,4,2,1,25,1,0
58245,642.398286937902,4,2,1,25,1,0
59529,656.455142231947,4,2,1,60,1,1
59529,-83.3333333333333,4,2,1,60,0,1
79880,714.285714285714,4,2,1,60,1,1
80058,-100,4,2,1,60,0,0
80594,674.157303370787,4,2,1,60,1,0
83290,683.371298405467,4,2,1,45,1,0
98324,666.666666666667,4,2,1,45,1,0
99657,665.926748057714,4,2,1,45,1,0
112309,652.173913043478,4,2,1,45,1,0
112961,680.272108843537,4,2,1,45,1,0
113641,665.926748057714,4,2,1,45,1,0
115639,648.648648648649,4,2,1,45,1,0
116287,638.297872340426,4,2,1,45,1,0
116950,655.737704918033,4,2,1,45,1,0
118261,659.340659340659,4,2,1,45,1,0
121557,664.451827242525,4,2,1,45,1,0
122885,612.244897959184,4,2,1,45,1,0
123497,645.161290322581,4,2,1,45,1,0
124787,612.244897959184,4,2,1,45,1,0
126011,656.455142231947,4,2,1,60,1,1
126011,-83.3333333333333,4,2,1,60,0,1
131262,650.759219088937,4,2,1,60,1,1
131262,-83.3333333333333,4,2,1,60,0,1
136468,652.173913043478,4,2,1,60,1,1
136468,-83.3333333333333,4,2,1,60,0,1
146250,659.340659340659,4,2,1,60,1,1
146250,-83.3333333333333,4,2,1,60,0,1
146744,-83.3333333333333,4,2,1,60,0,0
146909,665.188470066519,4,2,1,60,1,1
146909,-83.3333333333333,4,2,1,60,0,1
151565,659.340659340659,4,2,1,60,1,1
151565,-83.3333333333333,4,2,1,60,0,1
152224,659.340659340659,4,2,1,60,1,1
152224,-83.3333333333333,4,2,1,60,0,1
153542,-83.3333333333333,4,2,1,80,0,1
153707,-83.3333333333333,4,2,1,60,0,0
153872,-83.3333333333333,4,2,1,50,0,0
154037,-83.3333333333333,4,2,1,40,0,0
154202,-83.3333333333333,4,2,1,30,0,0

[Colours]
Combo1 : 193,197,214
Combo2 : 51,54,77
Combo3 : 199,181,18
Combo4 : 45,140,181
SliderBorder : 232,20,20
SliderTrackOverride : 235,236,240

[HitObjects]
65,250,14419,38,0,P|100:313|201:294,1,180,2|0,0:0|0:0,0:0:0:0:
311,186,15796,2,0,P|398:216|498:169,1,180,2|0,0:0|0:0,0:0:0:0:
397,46,17174,1,0,0:0:0:0:
397,46,17863,1,0,0:0:0:0:
237,47,18552,6,0,P|192:36|121:130,1,180,2|0,0:0|0:0,0:0:0:0:
201,119,19604,1,0,0:0:0:0:
257,177,19955,2,0,L|265:382,1,180,0|0,0:0|0:0,0:0:0:0:
102,374,21359,2,0,P|26:321|56:226,1,180,2|0,0:0|0:0,0:0:0:0:
138,116,22762,1,0,0:0:0:0:
157,276,23464,1,0,0:0:0:0:
229,313,23815,1,0,0:1:0:0:
309,296,24166,37,2,0:0:0:0:
383,152,24855,1,0,0:0:0:0:
425,308,25545,1,0,0:0:0:0:
461,154,26234,2,0,P|424:88|328:97,1,180,2|0,0:0|0:0,0:0:0:0:
177,41,27599,1,0,0:0:0:0:
177,41,28259,1,0,0:0:0:0:
49,138,28919,2,0,L|144:129,1,90,0|0,0:0|0:0,0:0:0:0:
214,153,29585,5,2,0:0:0:0:
343,56,30259,1,0,0:0:0:0:
472,153,30934,2,0,P|481:231|388:287,2,180,2|0|0,0:0|0:0|0:0,0:0:0:0:
318,99,32959,1,0,0:0:0:0:
256,248,33634,1,2,0:0:0:0:
194,99,34309,1,2,0:0:0:0:
47,40,34984,38,0,B|26:104|26:104|28:145,1,90,2|0,0:0|0:0,0:0:0:0:
38,206,35678,1,0,0:0:0:0:
55,284,36025,1,0,0:0:0:0:
96,353,36372,2,0,B|186:353|186:265|186:265|156:217,1,180,2|0,0:0|0:0,0:0:0:0:
144,156,37414,1,0,0:0:0:0:
222,179,37761,2,0,B|284:264|284:264|284:344,1,180,2|0,0:0|0:0,0:0:0:0:
329,183,39124,1,2,0:0:0:0:
418,318,39806,1,0,0:0:0:0:
479,264,40147,1,0,0:0:0:0:
472,183,40488,5,2,0:0:0:0:
375,52,41170,1,0,0:0:0:0:
323,114,41511,1,0,0:0:0:0:
265,57,41851,2,0,P|211:44|123:121,1,180,2|0,0:0|0:0,0:0:0:0:
141,198,42874,1,0,0:0:0:0:
220,186,43215,2,0,P|194:261|87:258,1,180,2|0,0:0|0:0,0:0:0:0:
29,237,44253,1,0,0:0:0:0:
5,159,44599,1,0,0:0:0:0:
104,31,45291,1,0,0:0:0:0:
256,91,45983,37,2,0:0:0:0:
175,231,46666,1,0,0:0:0:0:
150,308,47008,1,0,0:0:0:0:
229,294,47349,2,0,P|315:272|421:308,1,180,2|0,0:0|0:0,0:0:0:0:
463,346,48374,1,0,0:0:0:0:
493,271,48716,2,0,B|505:88,1,180,2|0,0:0|0:0,0:0:0:0:
454,27,49741,1,0,0:0:0:0:
384,68,50083,1,0,0:0:0:0:
226,29,50766,1,0,0:0:0:0:
271,184,51449,5,2,0:0:0:0:
384,68,52133,1,0,0:0:0:0:
301,66,52475,1,0,0:0:0:0:
226,29,52816,2,0,L|117:19,1,90,2|0,0:0|0:0,0:0:0:0:
103,95,53500,2,0,L|212:105,1,90,2|0,0:0|0:0,0:0:0:0:
256,155,54183,38,0,B|297:213|256:255|256:264|214:306|256:364,1,215.999993408203,4|0,0:1|0:0,0:0:0:0:
190,205,56207,1,2,0:0:0:0:
319,315,56859,1,4,0:1:0:0:
321,305,59529,21,4,1:0:0:0:
372,117,60186,1,10,1:0:0:0:
430,194,60514,1,0,0:0:0:0:
458,101,60842,2,0,P|391:33|289:89,1,215.999993408203,2|10,1:0|1:0,0:0:0:0:
242,160,61827,1,0,0:0:0:0:
186,80,62155,2,0,L|76:53,1,107.999996704102,2|0,1:0|0:0,0:0:0:0:
74,151,62812,2,0,B|6:213|33:305|33:305|79:315,1,215.999993408203,10|0,1:0|1:0,0:0:0:0:
256,236,64125,1,14,1:0:0:0:
256,236,64781,6,0,L|269:108,1,107.999996704102,4|0,1:0|1:0,0:0:0:0:
313,43,65437,1,10,1:0:0:0:
409,26,65766,1,0,1:0:0:0:
483,88,66094,2,0,B|508:205|508:205|474:307,1,215.999993408203,2|10,1:0|1:0,0:0:0:0:
388,336,67078,1,0,1:0:0:0:
315,270,67406,2,0,L|285:157,1,107.999996704102,2|0,1:0|1:0,0:0:0:0:
240,79,68063,2,0,P|193:96|123:71,1,107.999996704102,10|0,1:0|0:0,0:0:0:0:
68,14,68720,2,0,P|8:66|39:193,1,215.999993408203,2|14,1:0|1:0,0:0:0:0:
187,307,70032,38,0,P|247:255|216:128,1,215.999993408203,4|10,1:0|1:0,0:0:0:0:
90,276,71346,1,2,1:0:0:0:
136,87,72002,1,10,1:0:0:0:
219,37,72330,1,0,1:0:0:0:
311,66,72659,2,0,L|442:52,1,107.999996704102,2|0,1:0|1:0,0:0:0:0:
475,132,73314,2,0,L|344:146,1,107.999996704102,14|0,1:0|0:0,0:0:0:0:
290,202,73972,1,2,1:0:0:0:
145,331,74628,2,0,P|79:327|37:288,1,107.999996704102,14|0,1:0|0:0,0:0:0:0:
80,212,75284,6,0,B|233:181|233:181|293:203,1,215.999993408203,4|10,1:0|1:0,0:0:0:0:
370,255,76269,1,0,0:0:0:0:
430,330,76596,2,0,P|465:260|384:159,1,215.999993408203,2|10,1:0|1:0,0:0:0:0:
341,75,77582,1,0,1:0:0:0:
243,70,77910,2,0,B|192:66|156:93|156:93|126:19|29:29,1,215.999993408203,2|14,1:0|0:1,0:0:0:0:
67,125,78895,1,8,1:3:0:0:
79,221,79223,1,8,1:3:0:0:
170,338,79880,1,12,1:0:0:0:
170,338,80594,37,8,1:3:0:0:
192,260,80931,1,8,1:3:0:0:
267,231,81268,1,8,1:3:0:0:
347,238,81605,1,8,1:3:0:0:
406,293,81942,1,8,1:3:0:0:
406,293,83290,21,4,1:0:0:0:
391,131,83973,1,10,1:0:0:0:
269,23,84656,2,0,P|229:103|245:208,1,180,2|10,0:0|1:0,0:0:0:0:
176,341,86023,2,0,P|165:252|95:172,1,180,2|10,1:0|1:0,0:0:0:0:
17,315,87390,1,0,0:0:0:0:
17,315,88073,1,10,1:0:0:0:
19,153,88756,6,0,B|48:28|48:28|94:5,1,180,2|10,1:0|1:0,0:0:0:0:
171,30,89782,1,0,0:0:0:0:
248,53,90123,2,0,B|219:178|219:178|173:201,1,180,2|10,0:0|1:0,0:0:0:0:
127,356,91490,2,0,P|228:316|301:324,1,180,2|10,1:0|1:0,0:0:0:0:
453,368,92857,1,0,0:0:0:0:
334,257,93540,1,10,1:0:0:0:
317,177,93882,1,0,0:1:0:0:
353,104,94223,37,4,1:0:0:0:
472,213,94907,1,10,1:0:0:0:
421,59,95590,1,0,0:0:0:0:
265,13,96274,2,0,P|222:79|255:188,1,180,10|2,1:0|1:0,0:0:0:0:
353,291,97640,1,10,1:0:0:0:
287,338,97982,1,0,0:0:0:0:
203,337,98324,1,0,0:0:0:0:
45,373,98990,2,0,L|35:265,1,90,10|0,1:0|0:0,0:0:0:0:
88,220,99657,5,2,1:2:0:0:
41,65,100322,1,10,1:0:0:0:
198,27,100988,2,0,P|242:102|221:187,1,180,2|10,0:0|1:0,0:0:0:0:
258,350,102320,2,0,P|278:264|352:218,1,180,2|10,1:0|1:0,0:0:0:0:
433,210,103319,1,0,0:0:0:0:
506,243,103652,1,2,0:0:0:0:
417,378,104318,1,10,1:0:0:0:
258,350,104984,38,0,B|165:340,1,90,4|0,1:0|0:0,0:0:0:0:
87,336,105650,1,10,1:0:0:0:
21,187,106316,2,0,B|140:177|140:177|194:204,1,180,2|10,0:0|1:0,0:0:0:0:
257,254,107315,1,0,0:0:0:0:
289,328,107648,2,0,P|336:270|281:177,1,180,2|10,1:0|1:0,0:0:0:0:
171,79,108979,1,0,0:0:0:0:
242,40,109312,1,0,0:0:0:0:
322,51,109645,2,0,L|412:61,1,90,10|0,1:0|0:0,0:0:0:0:
491,75,110311,5,2,1:2:0:0:
438,228,110977,1,10,1:0:0:0:
414,305,111310,1,0,0:0:0:0:
347,351,111643,2,0,P|260:349|231:259,1,180,2|10,0:0|1:0,0:0:0:0:
252,193,112635,1,0,0:0:0:0:
300,126,112961,2,0,P|265:47|180:47,1,180,2|10,1:0|1:0,0:0:0:0:
116,96,113974,2,0,L|128:197,1,90,0|0,0:0|0:0,0:0:0:0:
154,345,114973,1,10,1:0:0:0:
89,293,115306,1,0,0:0:0:0:
6,300,115639,37,2,1:2:0:0:
17,130,116287,2,0,P|19:83|51:44,1,90,2|2,1:0|0:0,0:0:0:0:
125,74,116950,2,0,L|126:274,1,180,2|10,0:0|1:0,0:0:0:0:
159,327,117934,1,0,0:0:0:0:
216,267,118261,2,0,P|294:249|371:325,1,180,2|10,1:0|1:0,0:0:0:0:
464,180,119579,1,0,0:0:0:0:
390,145,119909,1,0,0:0:0:0:
353,219,120239,2,0,L|366:313,1,90,10|0,1:0|0:0,0:0:0:0:
418,369,120898,5,2,1:2:0:0:
257,364,121557,1,10,1:0:0:0:
275,203,122221,2,0,L|262:109,1,90,2|0,0:0|0:0,0:0:0:0:
178,88,122885,2,0,L|191:182,1,90,10|0,1:0|0:0,0:0:0:0:
177,255,123497,37,8,1:3:0:0:
119,312,123819,1,8,1:3:0:0:
38,304,124142,1,8,1:3:0:0:
0,231,124464,1,8,1:3:0:0:
33,152,124787,1,8,1:3:0:0:
380,47,126011,21,4,1:0:0:0:
443,230,126668,1,10,1:0:0:0:
373,161,126996,1,0,0:0:0:0:
336,251,127324,2,0,P|306:322|165:331,1,215.999993408203,2|14,1:0|1:0,0:0:0:0:
122,263,128309,1,0,0:0:0:0:
37,311,128637,2,0,B|9:269|15:229|15:229|62:160|42:71,1,215.999993408203,2|10,1:0|1:0,0:0:0:0:
6,18,129621,1,0,0:0:0:0:
103,15,129949,1,4,1:0:0:0:
173,196,130607,1,14,1:0:0:0:
279,31,131263,6,0,P|262:87|271:151,1,107.999996704102,4|0,1:0|1:0,0:0:0:0:
298,226,131912,1,10,1:0:0:0:
365,296,132238,1,0,1:0:0:0:
454,333,132563,2,0,B|482:291|476:251|476:251|429:182|449:93,1,215.999993408203,2|10,1:0|1:0,0:0:0:0:
466,34,133539,1,0,1:0:0:0:
368,28,133865,2,0,L|251:43,1,107.999996704102,2|0,1:0|1:0,0:0:0:0:
222,130,134515,2,0,L|339:115,1,107.999996704102,10|0,1:0|0:0,0:0:0:0:
331,213,135166,2,0,P|310:287|178:264,1,215.999993408203,6|14,1:0|1:0,0:0:0:0:
5,219,136468,38,0,P|26:145|158:168,1,215.999993408203,4|10,1:0|1:0,0:0:0:0:
63,325,137772,1,2,1:0:0:0:
63,325,138424,1,14,1:0:0:0:
149,367,138749,1,0,1:0:0:0:
216,296,139076,2,0,P|254:273|337:283,1,107.999996704102,2|0,1:0|1:0,0:0:0:0:
367,355,139728,2,0,L|480:340,1,107.999996704102,14|0,1:0|0:0,0:0:0:0:
505,248,140381,1,2,1:0:0:0:
438,65,141033,2,0,L|325:80,1,107.999996704102,14|0,1:0|0:0,0:0:0:0:
292,168,141685,6,0,P|217:186|140:63,1,215.999993408203,4|10,1:0|1:0,0:0:0:0:
234,89,142663,1,0,0:0:0:0:
330,79,142989,2,0,P|383:134|324:261,1,215.999993408203,2|10,1:0|1:0,0:0:0:0:
254,298,143968,1,0,1:0:0:0:
180,234,144294,2,0,B|148:200|76:201|53:260|53:260|90:331,1,215.999993408203,2|14,1:0|0:1,0:0:0:0:
256,229,145598,1,4,1:0:0:0:
256,229,146250,1,12,1:0:0:0:
431,315,146909,38,0,P|494:218|442:134,1,215.999993408203,4|10,1:0|1:0,0:0:0:0:
295,23,148239,1,6,1:0:0:0:
334,213,148904,2,0,L|321:326,1,107.999996704102,10|0,1:0|0:0,0:0:0:0:
243,262,149569,2,0,L|256:149,1,107.999996704102,4|0,1:0|1:0,0:0:0:0:
177,96,150234,2,0,L|164:209,1,107.999996704102,14|0,1:0|0:0,0:0:0:0:
154,300,150900,1,2,1:0:0:0:
23,153,151565,2,0,L|19:36,1,107.999996704102,14|0,1:0|0:0,0:0:0:0:
116,37,152224,6,0,P|196:14|189:119,1,215.999993408203,4|10,1:0|1:0,0:0:0:0:
256,192,153213,1,0,0:0:0:0:
316,268,153542,2,0,P|303:360|396:347,1,215.999993408203,4|0,1:0|0:0,0:0:0:0:
