osu file format v14

[General]
AudioFilename: sad.mp3
AudioLeadIn: 0
PreviewTime: 56570
Countdown: 1
SampleSet: Soft
StackLeniency: 0.7
Mode: 0
LetterboxInBreaks: 0
WidescreenStoryboard: 1

[Editor]
Bookmarks: 13208
DistanceSpacing: 1.3
BeatDivisor: 4
GridSize: 16
TimelineZoom: 1.6

[Metadata]
Title:Kimi no Bouken
TitleUnicode:キミの冒険
Artist:Okazaki Taiiku
ArtistUnicode:Okazaki Taiiku
Creator:TheBlank
Version:Extra
Source:
Tags:
BeatmapID:1867371
BeatmapSetID:884443

[Difficulty]
HPDrainRate:5
CircleSize:4
OverallDifficulty:9
ApproachRate:9.4
SliderMultiplier:1.7
SliderTickRate:1

[Events]
//Background and Video events
0,0,"60995505_p0.png",0,0
//Break Periods
//Storyboard Layer 0 (Background)
//Storyboard Layer 1 (Fail)
//Storyboard Layer 2 (Pass)
//Storyboard Layer 3 (Foreground)
//Storyboard Sound Samples

[TimingPoints]
458,300,4,2,0,55,1,0
11258,-83.3333333333333,4,2,0,55,0,0
18458,-100,4,2,0,55,0,0
37658,-125,4,2,0,55,0,0
52058,-111.111111111111,4,2,0,55,0,0
52658,-100,4,2,0,55,0,0
57458,-86.9565217391304,4,2,0,55,0,0
76058,-86.9565217391304,4,1,67,55,0,0
76358,-86.9565217391304,4,3,67,55,0,0
80108,-76.9230769230769,4,3,68,55,0,0
80408,-76.9230769230769,4,3,67,55,0,0
84458,-76.9230769230769,4,1,67,55,0,0

[Colours]
Combo1 : 128,255,128
Combo2 : 128,128,255
Combo3 : 128,255,255
Combo4 : 255,255,128

[HitObjects]
512,86,458,6,0,P|472:76|413:97,1,85
431,216,758,2,0,P|471:225|512:215,1,85
318,150,1058,2,0,L|143:149,1,170
52,26,1508,6,0,B|14:61|14:61|14:154,1,127.5
16,175,1808,2,0,L|16:259,2,85
114,238,2258,2,0,L|114:322,1,85
214,299,2558,2,0,L|214:383,1,85
362,237,2858,6,0,L|362:322,1,85
465,204,3158,2,0,L|465:288,1,85
285,104,3458,2,0,L|284:188,1,85
387,70,3758,2,0,L|387:154,1,85
232,46,4058,6,0,B|189:0|189:0|75:0,1,170
7,312,4658,2,0,P|-7:261|11:211,1,85
147,231,4958,2,0,P|161:282|143:332,1,85
77,153,5258,6,0,L|76:59,1,85
156,78,5558,1,0,0:0:0:0:
305,19,5708,2,0,P|352:9|412:37,1,85
387,119,6008,2,0,P|340:129|280:101,1,85
192,42,6308,6,0,B|154:77|154:77|154:170,1,127.5
156,191,6608,2,0,L|156:275,2,85
294,202,7058,2,0,P|357:192|392:216,1,85
377,334,7358,2,0,P|314:344|279:320,1,85
156,276,7658,6,0,L|155:384,1,85
63,240,7958,2,0,L|64:348,1,85
229,133,8258,2,0,L|228:241,1,85
136,97,8558,2,0,L|137:205,1,85
20,23,8858,5,0,0:0:0:0:
256,192,8933,12,0,11183,0:0:0:0:
450,104,11258,6,0,B|448:156|448:156|426:190|426:190|427:252,1,152.999995330811
506,217,11558,2,0,L|511:331,1,101.999996887207
373,128,11858,1,0,0:0:0:0:
336,311,12008,2,0,P|396:339|444:326,1,101.999996887207
200,133,12308,6,0,L|158:226,1,101.999996887207
336,311,12608,2,0,L|276:228,1,101.999996887207
114,339,12908,2,0,L|215:328,1,101.999996887207
276,228,13208,1,0,0:0:0:0:
158,225,13358,1,0,0:0:0:0:
310,231,13508,1,0,0:0:0:0:
163,40,13658,6,0,P|207:21|277:29,1,101.999996887207
281,137,13958,2,0,P|234:156|183:154,1,101.999996887207
144,142,14183,1,0,0:0:0:0:
144,142,14258,1,0,0:0:0:0:
327,69,14408,2,0,L|427:53,1,101.999996887207
343,182,14708,6,0,L|242:198,1,101.999996887207
427,263,15008,2,0,L|463:167,1,101.999996887207
313,295,15309,2,0,L|377:374,1,101.999996887207
241,211,15608,1,0,0:0:0:0:
95,286,15758,1,0,0:0:0:0:
219,376,15908,1,0,0:0:0:0:
27,219,16058,6,0,P|16:160|39:107,1,101.999996887207
165,123,16358,2,0,P|176:172|163:220,1,101.999996887207
168,266,16583,1,0,0:0:0:0:
168,266,16658,1,0,0:0:0:0:
97,69,16808,2,0,L|96:171,1,101.999996887207
185,368,17108,6,0,P|245:381|320:291,1,152.999995330811
330,284,17408,1,0,0:0:0:0:
205,219,17558,1,0,0:0:0:0:
321,154,17708,1,0,0:0:0:0:
235,297,17858,5,0,0:0:0:0:
280,80,18008,1,0,0:0:0:0:
50,113,18158,2,0,L|-17:132,1,50.9999984436036
142,28,18308,2,0,L|191:39,1,50.9999984436036
147,201,18458,6,0,P|100:271|30:281,1,127.5
56,191,18758,1,0,0:0:0:0:
56,191,18908,1,0,0:0:0:0:
205,116,19058,2,0,P|254:105|311:127,1,85
396,188,19358,1,0,0:0:0:0:
209,267,19508,6,0,P|250:274|291:263,1,85
427,189,19808,2,0,L|516:188,2,85
428,16,20258,2,0,L|512:15,1,85
372,113,20558,2,0,L|287:112,1,85
181,62,20858,6,0,P|209:17|272:-7,1,85
108,123,21158,2,0,P|65:125|27:107,1,85
198,155,21459,2,0,P|221:191|225:233,1,85
187,342,21758,2,0,B|162:361|162:361|258:363,1,127.5
297,364,22058,5,0,0:0:0:0:
297,364,22208,1,0,0:0:0:0:
396,287,22358,1,0,0:0:0:0:
396,287,22508,1,0,0:0:0:0:
432,179,22658,2,0,L|432:85,1,85
353,85,22958,2,0,L|353:-9,1,85
268,203,23258,6,0,B|227:235|227:235|114:238,1,127.5
112,237,23558,2,0,L|-12:238,1,85
25,349,23858,2,0,L|109:348,1,85
111,211,24158,2,0,L|-13:212,1,85
335,320,24458,6,0,P|341:278|330:237,1,85
251,127,24758,1,0,0:0:0:0:
184,324,24908,2,0,P|172:283|180:241,1,85
251,127,25208,2,0,P|262:86|254:44,1,85
175,0,25508,1,0,0:0:0:0:
341,87,25658,6,0,L|422:127,1,85
440,233,25958,2,0,L|511:187,1,85
344,199,26258,2,0,L|338:283,1,85
269,368,26558,2,0,B|228:344|228:344|112:346,1,127.5
109,347,26858,6,0,L|17:350,1,85
70,265,27158,1,0,0:0:0:0:
70,265,27308,1,0,0:0:0:0:
201,271,27458,1,0,0:0:0:0:
201,271,27608,1,0,0:0:0:0:
143,158,27758,1,0,0:0:0:0:
143,158,27908,1,0,0:0:0:0:
317,60,28058,6,0,B|359:92|359:92|362:184,1,127.5
286,140,28358,2,0,L|290:254,1,85
368,341,28658,1,0,0:0:0:0:
434,137,28808,2,0,L|436:221,1,85
367,363,29108,6,0,P|325:373|267:353,1,85
183,293,29408,1,0,0:0:0:0:
366,229,29558,2,0,P|324:219|266:239,1,85
198,129,29858,2,0,P|276:144|289:155,1,85
103,196,30158,2,0,P|42:144|37:127,1,85
48,31,30458,5,0,0:0:0:0:
48,31,30608,1,0,0:0:0:0:
125,114,30758,1,0,0:0:0:0:
125,114,30908,1,0,0:0:0:0:
185,21,31058,1,0,0:0:0:0:
185,21,31208,1,0,0:0:0:0:
262,104,31358,1,0,0:0:0:0:
262,104,31508,1,0,0:0:0:0:
372,7,31658,6,0,L|375:104,1,85,0|0,2:0|2:0,2:0:0:0:
379,194,31958,1,0,2:0:0:0:
379,194,32108,1,0,2:0:0:0:
469,142,32258,1,0,2:0:0:0:
469,142,32408,1,0,2:0:0:0:
290,247,32558,2,0,L|172:314,1,127.5
145,327,32858,6,0,P|84:318|44:283,1,85
65,183,33158,2,0,P|113:221|130:271,1,85
12,120,33458,2,0,L|12:7,1,85
123,86,33758,2,0,L|123:-27,1,85
255,34,34058,6,0,P|306:65|321:106,1,85
281,257,34358,2,0,P|276:215|295:177,1,85
462,122,34658,2,0,P|427:147|385:150,1,85
242,111,34958,1,0,0:0:0:0:
356,231,35108,1,0,0:0:0:0:
169,227,35258,6,0,B|108:205|94:296|0:240,1,170
56,177,35708,1,0,0:0:0:0:
154,304,35858,1,0,0:0:0:0:
154,304,36008,1,0,0:0:0:0:
209,384,36158,1,0,0:0:0:0:
209,384,36308,1,0,0:0:0:0:
250,216,36458,5,0,0:0:0:0:
250,216,36608,1,0,0:0:0:0:
413,353,36758,2,0,B|440:377|440:377|440:266,1,127.5
439,246,37058,1,0,0:0:0:0:
271,305,37208,1,0,0:0:0:0:
361,108,37358,1,0,0:0:0:0:
356,275,37508,1,0,0:0:0:0:
205,115,37658,6,0,L|208:23,1,68
111,163,37958,2,0,L|108:71,1,68
186,269,38258,2,0,L|189:177,1,68
93,318,38558,2,0,L|90:226,1,68
111,163,38858,5,0,0:0:0:0:
186,269,39008,1,0,0:0:0:0:
214,107,39158,2,0,P|271:91|321:110,1,102
267,173,39458,2,0,L|271:322,1,136
377,384,39908,1,0,0:0:0:0:
510,280,40058,6,0,L|512:212,1,68
417,231,40358,2,0,L|414:163,1,68
492,125,40659,2,0,L|494:57,1,68
398,77,40959,2,0,L|395:9,1,68
310,103,41258,5,0,0:0:0:0:
395,9,41408,1,0,0:0:0:0:
189,7,41558,2,0,P|135:10|89:48,1,102
164,83,41858,2,0,P|143:137|165:199,1,102
169,202,42158,2,0,P|156:234|131:257,1,68
28,198,42458,6,0,P|73:185|106:192,1,68
112,306,42758,2,0,P|66:318|33:311,1,68
205,237,43058,2,0,B|256:238|256:238|286:259|286:259|354:259,1,136
429,259,43508,1,0,0:0:0:0:
320,175,43658,5,0,0:0:0:0:
225,318,43808,1,0,0:0:0:0:
404,336,43958,2,0,P|461:337|487:323,1,68
461,183,44258,2,0,P|403:181|377:195,2,68
432,259,44708,1,0,0:0:0:0:
357,110,44858,6,0,P|303:54|235:52,1,136
269,131,45308,1,0,0:0:0:0:
161,0,45458,2,0,B|115:38|115:38|115:145,1,136
194,79,45908,1,0,0:0:0:0:
305,209,46058,5,0,0:0:0:0:
124,190,46208,1,0,0:0:0:0:
270,132,46358,2,0,P|328:126|395:201,1,136
386,172,46958,1,0,0:0:0:0:
248,48,47108,1,0,0:0:0:0:
305,209,47258,6,0,L|328:286,1,68
179,246,47558,2,0,L|202:323,1,68
292,384,47858,1,0,0:0:0:0:
228,181,48008,2,0,L|205:104,1,68
176,13,48308,1,0,0:0:0:0:
38,141,48458,6,0,P|29:187|38:232,1,68
78,309,48758,1,0,0:0:0:0:
136,163,48908,1,0,0:0:0:0:
16,249,49058,2,0,P|-7:290|-7:329,1,68
140,367,49358,2,0,P|163:326|163:287,1,68
136,163,49658,6,0,P|142:129|161:101,1,68,0|0,0:0|0:0,0:0:0:0:
280,258,49958,2,0,P|249:269|215:266,1,68,0|0,0:0|0:0,0:0:0:0:
291,84,50258,2,0,P|316:107|331:137,1,68,0|0,0:0|0:0,0:0:0:0:
239,173,50558,1,0,0:0:0:0:
325,324,50708,1,0,0:0:0:0:
407,196,50858,5,0,0:0:0:0:
326,357,51008,1,0,0:0:0:0:
490,245,51158,2,0,P|500:188|483:135,1,102
473,119,51458,2,0,P|472:64|478:34,1,68
374,67,51758,2,0,P|375:12|369:-18,1,68
246,6,52058,6,0,P|193:20|165:58,1,76.4999976654053
241,172,52358,2,0,P|293:157|321:119,1,76.4999976654053
50,104,52658,2,0,P|11:142|7:189,1,85
128,250,52958,2,0,P|166:211|170:164,1,85
0,316,53258,5,0,0:0:0:0:
94,175,53408,1,0,0:0:0:0:
178,363,53558,5,0,0:0:0:0:
172,182,53708,1,0,0:0:0:0:
361,302,53858,5,0,0:0:0:0:
239,143,54008,1,0,0:0:0:0:
498,148,54158,5,0,0:0:0:0:
272,73,54308,1,0,0:0:0:0:
504,23,54458,2,0,L|505:94,1,42.5
386,103,54608,2,0,L|367:155,1,42.5
511,170,54758,2,0,L|512:241,1,42.5
348,228,54908,2,0,L|329:280,1,42.5
511,322,55058,2,0,L|513:386,1,42.5
299,345,55208,2,0,L|280:397,1,42.5
464,159,55358,1,0,0:0:0:0:
426,178,55433,1,0,0:0:0:0:
384,183,55508,1,0,0:0:0:0:
343,175,55583,1,0,0:0:0:0:
307,154,55658,6,0,B|247:116|192:164|192:164|148:141|148:141|72:224|-14:130,1,340
257,227,56558,1,0,0:0:0:0:
247,268,56633,1,0,0:0:0:0:
222,301,56708,1,0,0:0:0:0:
184,320,56783,1,0,0:0:0:0:
142,322,56858,5,0,0:0:0:0:
151,143,57008,1,0,0:0:0:0:
332,293,57158,5,0,0:0:0:0:
148,232,57308,1,0,0:0:0:0:
358,126,57458,2,0,L|475:133,1,97.7500018644333
337,33,57758,1,0,0:0:0:0:
151,143,57908,6,0,L|40:149,1,97.7500018644333
172,50,58209,1,0,0:0:0:0:
4,152,58358,1,0,0:0:0:0:
147,66,58508,1,0,0:0:0:0:
187,231,58658,2,0,P|202:286|186:341,1,97.7500018644333
7,339,58958,2,0,P|-7:284|9:229,1,97.7500018644333
151,143,59258,6,0,L|273:126,1,97.7500018644333
479,50,59558,2,0,L|357:33,1,97.7500018644333
150,106,59858,2,0,L|272:89,1,97.7500018644333
478,13,60158,2,0,L|356:-4,1,97.7500018644333
299,171,60458,6,0,B|300:247|300:247|331:298|331:298|333:395,1,195.500003728867
391,221,60908,1,0,0:0:0:0:
250,329,61058,2,0,B|148:350|164:240|25:285,1,195.500003728867
84,361,61508,1,0,0:0:0:0:
216,240,61658,6,0,L|216:112,1,110.499994941712
217,15,61958,1,0,0:0:0:0:
361,155,62108,2,0,P|425:155|481:189,1,110.499994941712
260,75,62408,2,0,P|324:75|380:41,1,110.499994941712
141,165,62708,6,0,P|71:137|42:75,1,97.7500018644333
12,16,63008,1,0,0:0:0:0:
134,79,63158,1,0,0:0:0:0:
0,177,63308,1,0,0:0:0:0:
198,246,63458,2,0,P|251:256|307:235,1,97.7500018644333
332,338,63758,2,0,P|385:328|441:349,1,97.7500018644333
512,270,64058,6,0,L|509:149,1,110.499994941712
359,0,64358,2,0,L|362:110,1,110.499994941712
483,271,64658,2,0,L|480:150,1,110.499994941712
330,0,64958,2,0,L|332:110,1,110.499994941712
186,50,65258,6,0,B|110:51|110:51|86:85|86:85|-29:87,1,195.500003728867
34,4,65708,1,0,0:0:0:0:
157,134,65858,2,0,P|169:188|157:247,1,97.7500018644333
62,267,66158,2,0,B|159:270|159:270|214:334,1,146.62500279665
211,341,66458,5,0,0:0:0:0:
241,245,66608,1,0,0:0:0:0:
115,345,66758,1,0,0:0:0:0:
288,384,66908,1,0,0:0:0:0:
290,181,67058,2,0,P|313:162|387:155,1,97.7500018644333
488,188,67358,1,0,0:0:0:0:
454,48,67508,6,0,P|431:29|357:22,1,97.7500018644333
257,90,67808,1,0,0:0:0:0:
388,106,67958,1,0,0:0:0:0:
246,0,68108,1,0,0:0:0:0:
124,172,68258,2,0,P|78:187|31:177,1,97.7500018644333
29,54,68558,2,0,P|75:39|123:50,1,97.7500018644333
257,90,68858,6,0,P|260:145|294:203,1,97.7500018644333
474,141,69158,2,0,P|471:86|437:28,1,97.7500018644333
277,183,69458,2,0,P|280:238|314:296,1,97.7500018644333
494,234,69758,2,0,P|491:179|457:121,1,97.7500018644333
421,348,70058,6,0,B|383:382|383:382|242:385,1,146.62500279665
242,353,70358,2,0,L|131:354,1,97.7500018644333
19,300,70658,2,0,P|53:343|63:395,1,97.7500018644333
174,233,70958,2,0,P|140:276|130:328,1,97.7500018644333
94,86,71258,6,0,P|51:70|-22:96,1,97.7500018644333
202,147,71558,1,0,0:0:0:0:
92,206,71708,2,2,P|49:222|-24:196,1,97.7500018644333
230,147,72008,1,0,0:0:0:0:
41,146,72158,1,0,0:0:0:0:
218,67,72308,6,0,P|292:95|311:138,1,97.7500018644333
340,204,72608,1,0,0:0:0:0:
435,100,72758,2,0,B|433:51|433:51|401:-3,1,97.7500018644333
482,205,73058,2,0,B|484:156|484:156|516:102,1,97.7500018644333
376,277,73358,2,0,B|334:252|334:252|283:253,1,97.7500018644333
101,325,73658,6,0,B|103:249|103:249|134:213|134:213|134:131,1,195.500003728867
29,0,74108,2,0,B|31:76|31:76|62:112|62:112|62:194,1,195.500003728867
106,36,74558,2,0,P|167:25|215:59,1,97.7500018644333
211,189,74858,6,0,P|152:168|128:114,1,97.7500018644333
306,74,75158,2,0,P|346:121|340:179,1,97.7500018644333
283,250,75458,1,0,0:0:0:0:
283,250,75533,1,0,0:0:0:0:
283,250,75608,2,0,L|278:317,1,48.8750009322167
188,373,75758,2,0,L|184:324,1,48.8750009322167
99,242,75908,2,0,L|94:309,1,48.8750009322167
9,373,76058,6,0,L|-2:261,1,97.7500018644333,2|0,0:0|0:0,0:0:0:0:
0,124,76358,5,8,0:0:0:0:
168,160,76508,1,2,0:0:0:0:
30,127,76658,5,8,0:0:0:0:
203,62,76808,1,2,0:0:0:0:
60,131,76958,5,8,0:0:0:0:
233,196,77108,1,2,0:0:0:0:
110,55,77258,5,8,0:0:0:0:
99,242,77408,1,2,0:0:0:0:
266,119,77558,2,8,P|310:166|311:238,1,110.499994941712,8|2,0:0|0:0,0:0:0:0:
232,301,77858,2,0,P|288:276|350:305,1,110.499994941712,8|2,0:0|0:0,0:0:0:0:
412,373,78158,1,8,0:0:0:0:
434,185,78308,1,2,0:0:0:0:
287,354,78458,6,0,B|264:382|264:382|158:382,1,110.499994941712,8|2,0:0|0:0,0:0:0:0:
37,216,78758,5,8,0:0:0:0:
97,379,78908,1,2,0:0:0:0:
157,196,79058,5,8,0:0:0:0:
97,359,79208,1,2,0:0:0:0:
94,129,79358,2,0,P|148:104|212:123,1,110.499994941712,8|2,0:0|0:0,0:0:0:0:
392,40,79658,2,0,P|332:45|286:93,1,110.499994941712,8|2,0:0|0:0,0:0:0:0:
289,207,79958,1,8,0:0:0:0:
512,150,80108,2,8,B|511:234|511:234|480:270|480:270|478:369,1,220.999989883423,8|2,0:0|0:0,0:0:0:0:
436,203,80558,2,0,L|437:84,1,110.499994941712,8|2,0:0|0:0,0:0:0:0:
369,321,80858,5,8,0:0:0:0:
359,112,81008,1,2,0:0:0:0:
234,317,81158,5,8,0:0:0:0:
278,112,81308,1,2,0:0:0:0:
107,280,81458,5,8,0:0:0:0:
202,93,81608,1,2,0:0:0:0:
0,207,81758,5,8,0:0:0:0:
140,50,81908,1,2,0:0:0:0:
199,202,82058,5,8,0:0:0:0:
55,48,82208,1,2,0:0:0:0:
23,235,82358,5,8,0:0:0:0:
167,81,82508,1,2,0:0:0:0:
237,276,82658,5,8,0:0:0:0:
93,122,82808,1,2,0:0:0:0:
271,155,82958,5,8,0:0:0:0:
223,360,83108,1,2,0:0:0:0:
360,156,83258,5,8,0:0:0:0:
408,361,83408,1,2,0:0:0:0:
504,149,83558,5,8,0:0:0:0:
404,334,83708,1,2,0:0:0:0:
297,120,83858,5,8,0:0:0:0:
397,305,84008,1,2,0:0:0:0:
488,95,84158,5,8,0:0:0:0:
388,280,84308,1,2,0:0:0:0:
329,43,84458,6,0,B|256:43|256:43|221:93|221:93|116:94,1,220.999989883423,8|0,0:0|0:0,0:0:0:0:
56,43,84908,2,0,P|38:101|77:171,1,110.499994941712
141,226,85208,1,0,0:0:0:0:
141,226,85283,1,0,0:0:0:0:
141,226,85358,2,0,L|142:292,1,55.2499974708558
244,294,85508,2,0,L|243:360,1,55.2499974708558
297,120,85658,5,4,0:0:0:0:
256,192,85733,12,0,86858,0:0:0:0:
