osu file format v14

[General]
AudioFilename: audio.mp3
AudioLeadIn: 0
PreviewTime: 56633
Countdown: 0
SampleSet: Soft
StackLeniency: 0.4
Mode: 0
LetterboxInBreaks: 0
WidescreenStoryboard: 0

[Editor]
Bookmarks: 5313,11313,18513,28113,37713,47313,61713,66513,71313,76113,85713
DistanceSpacing: 1
BeatDivisor: 4
GridSize: 4
TimelineZoom: 2.6

[Metadata]
Title:Kimi no Bouken (TV Size)
TitleUnicode:キミの冒険 (TV Size)
Artist:Okazaki Taiiku
ArtistUnicode:岡崎体育
Creator:leo16834
Version:David-'s Insane
Source:ポケットモンスター サン&ムーン
Tags:pokemon pocket monster sun moon satoshi ash pikachu pokémon -_Matha_- Petal CookieBite David- gary00737 Hey lululu mindmaster107 Anime Japanese
BeatmapID:1862985
BeatmapSetID:860260

[Difficulty]
HPDrainRate:5
CircleSize:4
OverallDifficulty:8
ApproachRate:9
SliderMultiplier:1.4
SliderTickRate:1

[Events]
//Background and Video events
0,0,"eevee and pikachu.jpg",0,0
Video,-103,"op4 no voice.avi"
//Break Periods
//Storyboard Layer 0 (Background)
//Storyboard Layer 1 (Fail)
//Storyboard Layer 2 (Pass)
//Storyboard Layer 3 (Foreground)
//Storyboard Layer 4 (Overlay)
//Storyboard Sound Samples
Sample,56858,0,"Pikachu.wav",85
Sample,76058,0,"eevee.wav",85

[TimingPoints]
458,300,4,2,1,50,1,0
458,-133.333333333333,4,2,1,50,0,0
4358,-133.333333333333,4,2,1,5,0,0
4658,-133.333333333333,4,2,1,50,0,0
5258,-100,4,2,1,50,0,0
5483,-100,4,2,1,5,0,0
5558,-100,4,2,1,50,0,0
6533,-100,4,2,1,5,0,0
6608,-100,4,2,1,50,0,0
7958,-90.9090909090909,4,2,1,50,0,0
8258,-83.3333333333333,4,2,1,50,0,0
8558,-76.9230769230769,4,2,1,50,0,0
10958,-100,4,2,1,5,0,0
11258,-100,4,3,1,60,0,0
18458,-100,4,2,1,70,0,0
32558,-200,4,2,1,50,0,0
32783,-200,4,2,1,5,0,0
32858,-100,4,2,1,50,0,0
37658,-133.333333333333,4,2,1,50,0,0
52058,-133.333333333333,4,2,1,60,0,0
55658,-500,4,2,1,50,0,0
56483,-500,4,2,1,5,0,0
56558,-100,4,2,1,40,0,0
56608,-100,4,2,1,45,0,0
56658,-100,4,2,1,50,0,0
56708,-100,4,2,1,55,0,0
56758,-100,4,2,1,60,0,0
56808,-100,4,2,1,40,0,0
56858,-83.3333333333333,4,2,1,70,0,1
65258,-83.3333333333333,4,2,1,70,0,0
66458,-83.3333333333333,4,2,1,70,0,1
73658,-83.3333333333333,4,2,1,70,0,0
74858,-66.6666666666667,4,2,1,70,0,0
75458,-83.3333333333333,4,2,1,70,0,0
76058,-55.5555555555556,4,2,1,70,0,1
76733,-55.5555555555556,4,2,1,5,0,1
76808,-55.5555555555556,4,2,1,70,0,1
76883,-55.5555555555556,4,2,1,5,0,1
76958,-55.5555555555556,4,2,1,70,0,1
77033,-55.5555555555556,4,2,1,5,0,1
77108,-55.5555555555556,4,2,1,70,0,1
77183,-55.5555555555556,4,2,1,5,0,1
77258,-55.5555555555556,4,2,1,70,0,1
77933,-55.5555555555556,4,2,1,5,0,1
78008,-55.5555555555556,4,2,1,70,0,1
78083,-55.5555555555556,4,2,1,5,0,1
78158,-55.5555555555556,4,2,1,70,0,1
78233,-55.5555555555556,4,2,1,5,0,1
78308,-55.5555555555556,4,2,1,70,0,1
78383,-55.5555555555556,4,2,1,5,0,1
78458,-55.5555555555556,4,2,1,75,0,1
79133,-55.5555555555556,4,2,1,5,0,1
79208,-55.5555555555556,4,2,1,75,0,1
79283,-55.5555555555556,4,2,1,5,0,1
79358,-55.5555555555556,4,2,1,75,0,1
79433,-55.5555555555556,4,2,1,5,0,1
79508,-55.5555555555556,4,2,1,75,0,1
79583,-55.5555555555556,4,2,1,5,0,1
79658,-55.5555555555556,4,2,1,75,0,1
83258,-62.5,4,2,1,75,0,1
84158,-62.5,4,2,1,75,0,1
85658,-100,4,2,1,50,0,0

[Colours]
Combo1 : 162,0,81
Combo2 : 232,232,0
Combo3 : 128,255,128
Combo4 : 0,128,255
Combo5 : 255,128,64
Combo6 : 255,128,192
Combo7 : 210,105,0
Combo8 : 0,196,196

[HitObjects]
21,129,458,6,0,L|15:196,1,52.5000020027161,2|0,0:0|0:0,0:0:0:0:
98,199,758,2,0,L|103:258,1,52.5000020027161,2|0,0:0|0:0,0:0:0:0:
20,305,1058,2,0,P|52:264|101:250,1,105.000004005432,2|0,0:0|0:0,0:0:0:0:
98,334,1508,5,2,0:0:0:0:
98,334,1808,1,0,0:0:0:0:
171,369,1958,1,2,0:0:0:0:
248,345,2108,1,0,0:0:0:0:
299,228,2258,6,0,P|297:254|303:280,1,52.5000020027161,2|0,0:0|0:0,0:0:0:0:
422,209,2558,2,0,P|402:226|388:248,1,52.5000020027161,2|0,0:0|0:0,0:0:0:0:
502,334,2858,6,0,B|521:311|518:282|518:282|494:272|467:287,1,105.000004005432,2|0,0:0|0:0,0:0:0:0:
296,229,3458,2,0,B|276:206|279:177|279:177|303:167|330:182,1,105.000004005432,2|0,0:0|0:0,0:0:0:0:
502,124,4058,2,0,B|521:101|518:72|518:72|494:62|467:77,1,105.000004005432,2|0,0:0|0:0,0:0:0:0:
382,53,4658,6,0,P|378:78|384:105,1,52.5000020027161,2|0,0:0|0:0,0:0:0:0:
485,215,4958,2,0,P|463:200|438:192,1,52.5000020027161,2|0,0:0|0:0,0:0:0:0:
214,215,5258,6,0,B|285:222|285:222|315:207,1,105,2|0,0:0|0:0,0:0:0:0:
345,189,5558,1,10,0:0:0:0:
186,116,5708,2,0,P|148:137|126:167,1,70,2|0,0:0|0:0,0:0:0:0:
222,282,6008,2,0,P|222:238|207:204,1,70,2|8,0:0|0:0,0:0:0:0:
43,356,6308,2,0,P|96:335|127:269,1,105,2|0,0:0|0:0,0:0:0:0:
131,261,6608,1,2,0:0:0:0:
26,190,6758,6,0,L|32:259,1,70,10|0,0:0|0:0,0:0:0:0:
147,111,7058,2,0,L|140:180,1,70,2|0,0:0|0:0,0:0:0:0:
1,38,7358,2,0,L|7:107,1,70,10|0,0:0|0:0,0:0:0:0:
228,62,7658,6,0,P|191:25|163:20,1,70,2|0,0:0|0:0,0:0:0:0:
306,136,7958,2,0,P|348:100|378:97,1,77.0000023498536,10|0,0:0|0:0,0:0:0:0:
195,204,8258,2,0,P|143:168|110:168,1,83.9999974365235,2|0,0:0|0:0,0:0:0:0:
321,283,8558,2,0,P|383:246|422:250,1,90.9999958343508,10|0,0:0|0:0,0:0:0:0:
200,360,8858,1,6,0:0:0:0:
256,192,8958,12,0,10958,0:0:0:0:
197,299,11258,6,0,B|255:293|255:293|278:307|278:307|336:301,1,140,6|0,0:0|0:0,0:0:0:0:
304,221,11708,1,2,0:0:0:0:
397,361,11858,1,10,0:0:0:0:
450,296,12008,2,0,B|466:244|466:244|450:195,1,105,2|0,0:0|0:0,0:0:0:0:
438,163,12308,6,0,L|516:155,1,70,10|0,0:0|0:0,0:0:0:0:
362,65,12608,2,0,L|430:71,1,70,10|0,0:0|0:0,0:0:0:0:
274,163,12908,2,0,L|343:156,1,70,10|0,0:0|0:0,0:0:0:0:
241,57,13208,5,2,0:0:0:0:
167,140,13358,1,8,0:0:0:0:
141,0,13508,1,10,0:0:0:0:
274,163,13658,6,0,B|266:260|266:260|237:299,1,140,6|0,0:0|0:0,0:0:0:0:
185,227,14108,1,2,0:0:0:0:
319,334,14258,1,10,0:0:0:0:
250,383,14408,2,0,B|144:372,1,105,2|0,0:0|0:0,0:0:0:0:
111,367,14708,6,0,L|118:297,1,70,10|0,0:0|0:0,0:0:0:0:
20,221,15008,2,0,L|24:290,1,70,10|0,0:0|0:0,0:0:0:0:
120,132,15308,2,0,L|113:202,1,70,10|0,0:0|0:0,0:0:0:0:
14,96,15608,5,2,0:0:0:0:
139,35,15758,1,8,0:0:0:0:
6,88,15908,1,10,0:0:0:0:
120,132,16058,6,0,B|178:127|178:127|200:141|200:141|258:136,1,140,6|0,0:0|0:0,0:0:0:0:
231,55,16508,1,2,0:0:0:0:
316,200,16658,1,10,0:0:0:0:
376,140,16808,2,0,B|383:33,1,105,2|0,0:0|0:0,0:0:0:0:
385,0,17108,1,10,0:0:0:0:
512,94,17408,5,10,0:0:0:0:
489,175,17558,1,2,0:0:0:0:
466,256,17708,1,0,0:0:0:0:
316,200,17858,5,10,0:0:0:0:
339,281,18008,1,0,0:0:0:0:
362,362,18158,1,10,0:0:0:0:
330,382,18233,1,0,0:0:0:0:
292,384,18308,1,8,0:0:0:0:
255,375,18383,1,0,0:0:0:0:
222,355,18458,6,0,P|209:309|175:279,1,70,6|0,0:0|0:0,0:0:0:0:
136,358,18758,1,10,0:0:0:0:
60,170,18908,1,0,0:0:0:0:
2,231,19058,2,0,L|8:300,1,70,2|0,0:0|0:0,0:0:0:0:
18,384,19358,1,8,0:0:0:0:
142,212,19508,2,0,P|144:133|77:79,1,140,2|0,0:0|0:0,0:0:0:0:
60,170,19958,5,10,0:0:0:0:
237,116,20108,1,0,0:0:0:0:
300,249,20258,5,2,0:0:0:0:
154,217,20408,1,0,0:0:0:0:
99,325,20558,5,10,0:0:0:0:
216,309,20708,1,0,0:0:0:0:
332,286,20858,6,0,L|337:216,2,70,2|0|8,0:0|0:0|0:0,0:0:0:0:
326,370,21308,1,0,0:0:0:0:
470,232,21458,6,0,L|463:162,2,70,2|0|8,0:0|0:0|0:0,0:0:0:0:
481,315,21908,1,0,0:0:0:0:
337,216,22058,6,0,L|332:286,1,70,2|0,0:0|0:0,0:0:0:0:
470,232,22358,2,0,L|463:162,1,70,8|0,0:0|0:0,0:0:0:0:
472,58,22658,5,2,0:0:0:0:
384,101,22808,1,0,0:0:0:0:
294,86,22958,1,8,0:0:0:0:
248,26,23108,1,0,0:0:0:0:
248,26,23258,1,4,0:0:0:0:
191,110,23558,6,0,P|156:115|121:103,1,70,10|0,0:0|0:0,0:0:0:0:
6,51,23858,2,0,P|27:78|35:114,1,70,2|0,0:0|0:0,0:0:0:0:
48,199,24158,1,8,0:0:0:0:
48,199,24308,1,0,0:0:0:0:
191,110,24458,6,0,B|177:263,1,140,2|8,0:0|0:0,0:0:0:0:
65,353,24908,2,0,L|59:283,1,70,2|0,0:0|0:0,0:0:0:0:
192,187,25208,2,0,L|186:257,1,70,2|8,0:0|0:0,0:0:0:0:
179,340,25508,1,0,0:0:0:0:
291,234,25658,6,0,P|324:232|357:245,1,70,2|0,0:0|0:0,0:0:0:0:
444,313,25958,2,0,L|438:382,1,70,8|0,0:0|0:0,0:0:0:0:
291,234,26258,2,0,L|298:304,1,70,2|0,0:0|0:0,0:0:0:0:
440,150,26558,2,0,L|433:219,1,70,8|0,0:0|0:0,0:0:0:0:
213,108,26858,6,0,B|247:136|247:136|341:144,1,140,2|8,0:0|0:0,0:0:0:0:
283,50,27308,1,0,0:0:0:0:
414,212,27458,2,0,P|435:179|440:147,1,70,2|0,0:0|0:0,0:0:0:0:
454,53,27758,2,0,P|414:51|385:63,1,70,8|0,0:0|0:0,0:0:0:0:
219,177,28058,6,0,L|213:108,1,70,6|0,0:0|0:0,0:0:0:0:
206,27,28358,1,10,0:0:0:0:
206,27,28508,1,0,0:0:0:0:
118,137,28658,1,2,0:0:0:0:
118,137,28808,2,0,L|124:206,1,70,0|8,0:0|0:0,0:0:0:0:
30,311,29108,2,0,L|17:172,1,140,2|0,0:0|0:0,0:0:0:0:
7,88,29558,1,10,0:0:0:0:
270,174,29858,5,2,0:0:0:0:
124,206,30008,1,0,0:0:0:0:
30,311,30158,5,10,0:0:0:0:
147,327,30308,1,0,0:0:0:0:
265,339,30458,6,0,L|270:269,1,70,2|0,0:0|0:0,0:0:0:0:
277,180,30758,1,8,0:0:0:0:
277,180,30908,1,0,0:0:0:0:
380,208,31058,6,0,L|385:278,1,70,2|0,0:0|0:0,0:0:0:0:
396,372,31358,1,8,0:0:0:0:
396,372,31508,1,0,0:0:0:0:
497,343,31658,6,0,L|502:273,1,70,2|0,0:0|0:0,0:0:0:0:
374,201,31958,2,0,L|381:271,1,70,8|0,0:0|0:0,0:0:0:0:
512,175,32258,5,2,0:0:0:0:
433,106,32408,1,0,0:0:0:0:
330,119,32558,2,0,P|298:140|286:162,1,52.5,10|0,0:0|0:0,0:0:0:0:
274,183,32858,6,0,P|241:93|203:69,1,140,6|8,0:0|0:0,0:0:0:0:
107,170,33308,1,0,0:0:0:0:
107,170,33458,2,0,L|200:161,1,70,2|0,0:0|0:0,0:0:0:0:
70,264,33758,2,0,L|0:258,1,70,10|0,0:0|0:0,0:0:0:0:
132,345,34058,2,0,L|276:332,2,140,2|10|2,0:0|0:0|0:0,0:0:0:0:
132,345,34958,5,10,0:0:0:0:
194,261,35108,1,0,0:0:0:0:
271,332,35258,2,0,P|341:331|390:287,1,140,2|8,0:0|0:0,0:0:0:0:
511,213,35708,1,0,0:0:0:0:
511,213,35858,2,0,P|431:208|389:166,1,140,2|8,0:0|0:0,0:0:0:0:
372,79,36308,1,0,0:0:0:0:
479,55,36458,6,0,P|484:88|474:125,1,70
328,27,36758,2,0,P|354:46|373:80,1,70,8|0,0:0|0:0,0:0:0:0:
202,95,37058,5,8,0:0:0:0:
314,161,37208,1,0,0:0:0:0:
216,219,37358,1,0,0:0:0:0:
292,276,37508,1,8,0:0:0:0:
255,343,37658,6,0,P|226:358|192:358,1,52.5000020027161,6|0,0:0|0:0,0:0:0:0:
131,384,37958,2,0,P|107:361|97:328,1,52.5000020027161,2|0,0:0|0:0,0:0:0:0:
23,227,38258,6,0,L|27:175,2,52.5000020027161,10|0|0,0:0|0:0|0:0,0:0:0:0:
17,306,38708,1,0,0:0:0:0:
104,250,38858,1,10,0:0:0:0:
13,319,39008,1,0,0:0:0:0:
115,256,39158,1,10,0:0:0:0:
23,227,39458,1,8,0:0:0:0:
257,200,39908,5,0,0:0:0:0:
257,200,40058,2,0,P|286:215|320:215,1,52.5000020027161,6|0,0:0|0:0,0:0:0:0:
381,241,40358,2,0,P|404:218|414:185,1,52.5000020027161,2|0,0:0|0:0,0:0:0:0:
489,84,40658,6,0,L|485:32,2,52.5000020027161,10|0|0,0:0|0:0|0:0,0:0:0:0:
495,163,41108,1,0,0:0:0:0:
408,107,41258,1,10,0:0:0:0:
499,176,41408,1,0,0:0:0:0:
397,113,41558,1,10,0:0:0:0:
489,84,41858,1,8,0:0:0:0:
255,57,42158,6,0,P|226:72|192:72,1,52.5000020027161,2|0,0:0|0:0,0:0:0:0:
57,21,42458,2,0,P|102:61|111:121,1,105.000004005432,6|0,0:0|0:0,0:0:0:0:
24,103,42908,1,0,0:0:0:0:
180,166,43058,2,0,P|155:182|139:199,1,52.5000020027161,10|0,0:0|0:0,0:0:0:0:
26,239,43358,2,0,P|49:253|66:272,1,52.5000020027161,2|0,0:0|0:0,0:0:0:0:
135,352,43658,5,2,0:0:0:0:
216,301,43808,1,0,0:0:0:0:
216,301,43958,2,0,P|198:272|193:253,1,52.5000020027161,2|0,0:0|0:0,0:0:0:0:
301,216,44258,2,0,P|315:195|324:170,1,52.5000020027161,10|0,0:0|0:0,0:0:0:0:
341,77,44558,1,0,0:0:0:0:
415,136,44708,1,8,0:0:0:0:
510,45,44858,6,0,P|471:75|448:136,1,105.000004005432,6|0,0:0|0:0,0:0:0:0:
497,195,45308,1,0,0:0:0:0:
328,174,45458,6,0,P|335:225|369:279,1,105.000004005432,10|0,0:0|0:0,0:0:0:0:
441,298,45908,1,0,0:0:0:0:
354,354,46058,1,10,0:0:0:0:
452,304,46208,1,0,0:0:0:0:
350,367,46358,1,10,0:0:0:0:
361,271,46658,1,8,0:0:0:0:
462,311,46958,5,0,0:0:0:0:
347,379,47108,1,8,0:0:0:0:
346,221,47258,2,0,P|357:245|361:271,1,52.5000020027161,6|0,0:0|0:0,0:0:0:0:
274,308,47558,2,0,P|258:328|237:344,1,52.5000020027161,2|0,0:0|0:0,0:0:0:0:
151,315,47858,1,10,0:0:0:0:
151,315,48008,1,0,0:0:0:0:
51,369,48308,5,8,0:0:0:0:
51,369,48458,2,0,L|45:301,1,52.5000020027161,14|0,0:0|0:0,0:0:0:0:
153,288,48758,2,0,L|158:236,1,52.5000020027161,2|0,0:0|0:0,0:0:0:0:
166,149,49058,1,10,0:0:0:0:
33,180,49358,5,2,0:0:0:0:
158,142,49508,1,8,0:0:0:0:
35,44,49658,2,0,P|47:67|64:86,1,52.5000020027161,6|0,0:0|0:0,0:0:0:0:
162,0,49958,2,0,P|159:25|163:51,1,52.5000020027161,2|0,0:0|0:0,0:0:0:0:
243,183,50258,2,0,P|250:157|251:131,1,52.5000020027161,10|0,0:0|0:0,0:0:0:0:
375,161,50558,2,0,P|367:136|353:113,1,52.5000020027161,2|0,0:0|0:0,0:0:0:0:
280,37,50858,5,14,0:0:0:0:
352,98,51008,1,0,0:0:0:0:
447,98,51158,1,8,0:0:0:0:
456,92,51458,1,2,0:0:0:0:
465,87,51758,1,2,0:0:0:0:
512,181,52058,6,0,L|507:233,1,52.5000020027161,14|0,0:0|0:0,0:0:0:0:
402,235,52358,2,0,L|406:288,1,52.5000020027161,8|0,0:0|0:0,0:0:0:0:
286,362,52658,6,0,L|290:308,1,52.5000020027161,10|0,0:0|0:0,0:0:0:0:
184,307,52958,2,0,L|179:254,1,52.5000020027161,8|0,0:0|0:0,0:0:0:0:
47,159,53258,5,10,2:0:0:0:
132,142,53408,1,0,2:0:0:0:
176,219,53558,1,10,2:0:0:0:
111,281,53708,1,0,2:0:0:0:
31,246,53858,5,10,2:0:0:0:
41,151,54008,1,0,2:0:0:0:
137,133,54158,1,10,0:0:0:0:
186,217,54308,1,0,0:0:0:0:
120,288,54458,6,0,L|116:332,3,26.2500010013581,10|0|0|0,0:0|0:0|0:0|0:0,0:0:0:0:
213,376,54758,2,0,L|210:349,3,26.2500010013581,10|0|0|0,0:0|0:0|0:0|0:0,0:0:0:0:
306,286,55058,2,0,L|303:312,3,26.2500010013581,10|0|0|0,0:0|0:0|0:0|0:0,0:0:0:0:
397,376,55358,2,0,L|394:349,3,26.2500010013581,10|0|0|0,0:0|0:0|0:0|0:0,0:0:0:0:
472,291,55658,6,0,B|475:263|475:263|468:246|468:246|473:212,1,77,6|0,0:0|0:0,0:0:0:0:
478,181,56558,2,0,L|501:183,5,23.3333333333333
448,192,56858,6,0,P|406:198|364:184,1,83.9999974365235,6|0,0:0|0:0,0:0:0:0:
377,18,57158,2,0,P|406:52|414:98,1,83.9999974365235,8|0,0:0|0:0,0:0:0:0:
164,111,57458,2,0,P|222:78|303:95,1,125.999996154785,2|0,0:0|0:0,0:0:0:0:
309,98,57758,1,8,0:0:0:0:
366,186,57908,6,0,L|358:269,1,83.9999974365235,2|0,0:0|0:0,0:0:0:0:
293,347,58208,1,0,0:0:0:0:
455,301,58358,1,10,0:0:0:0:
271,219,58508,1,0,0:0:0:0:
271,219,58658,2,0,P|226:222|190:247,1,83.9999974365235,2|0,0:0|0:0,0:0:0:0:
143,349,58958,2,0,P|111:321|68:310,1,83.9999974365235,10|0,0:0|0:0,0:0:0:0:
41,318,59183,5,0,0:0:0:0:
41,318,59258,2,0,L|32:219,1,83.9999974365235,6|0,0:0|0:0,0:0:0:0:
201,159,59558,2,0,L|193:242,1,83.9999974365235,8|0,0:0|0:0,0:0:0:0:
47,312,59858,2,0,L|38:213,1,83.9999974365235,2|0,0:0|0:0,0:0:0:0:
207,153,60158,2,0,L|199:236,1,83.9999974365235,8|0,0:0|0:0,0:0:0:0:
46,67,60458,2,0,P|96:55|87:128,1,125.999996154785,2|0,0:0|0:0,0:0:0:0:
82,136,60758,5,8,0:0:0:0:
220,38,60908,1,0,0:0:0:0:
220,38,60983,1,0,0:0:0:0:
220,37,61058,2,0,P|261:43|298:62,1,83.9999974365235,2|0,0:0|0:0,0:0:0:0:
452,124,61358,2,0,P|402:131|367:151,1,83.9999974365235,10|0,0:0|0:0,0:0:0:0:
472,379,61658,6,0,B|484:289|484:289|462:242,1,125.999996154785,6|0,0:0|0:0,0:0:0:0:
452,228,61958,1,10,0:0:0:0:
375,341,62108,2,0,L|292:350,1,83.9999974365235,2|0,0:0|0:0,0:0:0:0:
203,236,62408,2,0,L|294:244,1,83.9999974365235,2|8,0:0|0:0,0:0:0:0:
324,248,62633,5,0,0:0:0:0:
324,248,62708,2,0,P|319:202|294:161,1,83.9999974365235,2|0,0:0|0:0,0:0:0:0:
215,117,63008,1,0,0:0:0:0:
163,307,63158,2,0,P|192:273|202:223,1,83.9999974365235,10|0,0:0|0:0,0:0:0:0:
3,235,63458,6,0,L|11:330,1,83.9999974365235,2|0,0:0|0:0,0:0:0:0:
116,147,63758,2,0,L|108:230,1,83.9999974365235,10|0,0:0|0:0,0:0:0:0:
16,111,64058,6,0,P|40:71|72:50,1,83.9999974365235,6|0,0:0|0:0,0:0:0:0:
199,139,64358,2,0,L|104:147,1,83.9999974365235,10|0,0:0|0:0,0:0:0:0:
280,23,64658,2,0,L|196:15,1,83.9999974365235,2|0,0:0|0:0,0:0:0:0:
411,116,64958,2,0,L|327:122,1,83.9999974365235,10|0,0:0|0:0,0:0:0:0:
297,130,65183,5,0,0:0:0:0:
297,130,65258,2,0,P|294:176|306:212,1,83.9999974365235,2|0,0:0|0:0,0:0:0:0:
374,281,65558,1,8,0:0:0:0:
510,151,65708,1,0,0:0:0:0:
510,151,65783,1,0,0:0:0:0:
510,151,65858,2,0,P|512:107|499:64,1,83.9999974365235,2|0,0:0|0:0,0:0:0:0:
434,0,66158,1,8,0:0:0:0:
297,130,66308,5,0,0:0:0:0:
297,130,66383,1,0,0:0:0:0:
297,130,66458,2,0,P|293:173|308:215,1,83.9999974365235,6|0,0:0|0:0,0:0:0:0:
382,290,66758,2,0,P|420:276|463:275,1,83.9999974365235,10|0,0:0|0:0,0:0:0:0:
318,382,67058,2,0,P|260:350|189:347,1,125.999996154785,2|0,0:0|0:0,0:0:0:0:
167,349,67358,1,8,0:0:0:0:
45,267,67508,6,0,L|127:258,1,83.9999974365235,2|0,0:0|0:0,0:0:0:0:
206,193,67808,1,0,0:0:0:0:
161,355,67958,1,10,0:0:0:0:
79,167,68108,1,0,0:0:0:0:
79,167,68258,2,0,P|40:145|0:139,1,83.9999974365235,2|0,0:0|0:0,0:0:0:0:
147,57,68558,2,0,P|185:35|225:29,1,83.9999974365235,10|0,0:0|0:0,0:0:0:0:
262,31,68783,5,0,0:0:0:0:
262,31,68858,2,0,L|271:130,1,83.9999974365235,6|0,0:0|0:0,0:0:0:0:
389,51,69158,2,0,L|472:59,1,83.9999974365235,8|0,0:0|0:0,0:0:0:0:
446,171,69458,2,0,L|437:270,1,83.9999974365235,2|0,0:0|0:0,0:0:0:0:
319,191,69758,2,0,L|236:199,1,83.9999974365235,8|0,0:0|0:0,0:0:0:0:
420,339,70058,2,0,P|476:334|469:278,1,125.999996154785,2|0,0:0|0:0,0:0:0:0:
442,258,70358,5,8,0:0:0:0:
306,382,70508,1,0,0:0:0:0:
306,382,70583,1,0,0:0:0:0:
305,382,70658,2,0,P|265:368|232:343,1,83.9999974365235,2|0,0:0|0:0,0:0:0:0:
115,361,70958,2,0,P|106:319|111:277,1,83.9999974365235,10|0,0:0|0:0,0:0:0:0:
254,70,71258,6,0,B|264:156|264:156|239:206,1,125.999996154785,6|0,0:0|0:0,0:0:0:0:
228,220,71558,1,10,0:0:0:0:
135,101,71708,2,0,L|142:17,1,83.9999974365235,2|0,0:0|0:0,0:0:0:0:
142,17,72008,1,0,0:0:0:0:
24,182,72158,1,10,0:0:0:0:
24,182,72308,2,0,L|16:98,1,83.9999974365235,2|0,0:0|0:0,0:0:0:0:
16,98,72608,5,0,0:0:0:0:
134,220,72758,2,0,P|108:263|72:287,1,83.9999974365235,10|0,0:0|0:0,0:0:0:0:
0,315,73058,2,0,P|42:311|85:327,1,83.9999974365235,2|0,0:0|0:0,0:0:0:0:
142,381,73358,2,0,P|115:340|110:288,1,83.9999974365235,8|0,0:0|0:0,0:0:0:0:
378,330,73658,6,0,B|340:313|296:331|296:331|243:330|220:301,1,167.999994873047,6|8,0:0|0:0,0:0:0:0:
426,193,74108,2,0,B|430:234|467:263|467:263|493:309|480:343,1,167.999994873047,2|0,0:0|0:0,0:0:0:0:
283,219,74558,2,0,P|309:190|323:143,1,83.9999974365235,10|0,0:0|0:0,0:0:0:0:
72,154,74858,6,0,B|115:115|130:68|130:68|159:111|213:133,1,210.000008010865,6|8,0:2|0:0,0:0:0:0:
211,132,75458,1,10,0:0:0:0:
220,91,75533,1,0,0:0:0:0:
247,59,75608,1,0,0:0:0:0:
285,41,75683,1,0,0:0:0:0:
327,41,75758,6,0,P|326:64|333:93,1,41.9999987182618,10|0,0:0|0:0,0:0:0:0:
455,164,75908,2,0,P|460:143|460:123,1,41.9999987182618,8|0,0:0|0:0,0:0:0:0:
308,220,76058,6,0,P|306:283|322:344,1,125.999996154785,14|0,0:0|0:0,0:0:0:0:
470,207,76358,2,0,P|483:145|477:82,1,125.999996154785,8|0,0:0|0:0,0:0:0:0:
299,225,76658,2,0,P|299:288|315:349,2,125.999996154785,8|0|8,0:0|0:0|0:0,0:0:0:0:
322,98,77108,1,0,0:0:0:0:
322,98,77258,6,0,P|253:100|193:63,1,125.999996154785,12|0,0:0|0:0,0:0:0:0:
51,16,77558,2,0,P|84:68|88:130,1,125.999996154785,8|0,0:0|0:0,0:0:0:0:
146,229,77858,2,0,P|114:290|52:324,1,125.999996154785,8|0,0:0|0:0,0:0:0:0:
43,216,78158,1,8,0:0:0:0:
43,216,78308,1,0,0:0:0:0:
203,339,78458,6,0,P|265:346|325:328,1,125.999996154785,12|0,0:0|0:0,0:0:0:0:
477,229,78758,2,0,P|483:292|465:352,1,125.999996154785,8|0,0:0|0:0,0:0:0:0:
308,109,79058,2,0,P|306:168|318:234,2,125.999996154785,8|0|8,0:0|0:0|0:0,0:0:0:0:
469,47,79508,1,0,0:0:0:0:
469,47,79658,6,0,P|454:117|418:103,1,125.999996154785,12|0,0:0|0:0,0:0:0:0:
306,8,79958,2,0,P|247:28|208:76,1,125.999996154785,8|0,0:0|0:0,0:0:0:0:
32,95,80258,2,0,P|91:117|131:165,1,125.999996154785,8|0,0:0|0:0,0:0:0:0:
35,196,80558,1,8,0:0:0:0:
35,196,80708,1,0,0:0:0:0:
68,345,80858,6,0,P|152:351|120:273,1,188.999994232178,12|0,0:0|0:0,0:0:0:0:
109,267,81158,1,8,0:0:0:0:
247,381,81308,1,0,0:0:0:0:
247,381,81458,2,0,L|379:369,1,125.999996154785,8|0,0:0|0:0,0:0:0:0:
375,262,81758,2,0,L|501:274,1,125.999996154785,8|0,0:0|0:0,0:0:0:0:
444,127,82058,6,0,P|360:133|392:55,1,188.999994232178,12|0,0:0|0:0,0:0:0:0:
402,47,82358,1,8,0:0:0:0:
265,163,82508,1,0,0:0:0:0:
265,163,82658,2,0,L|133:151,1,125.999996154785,8|0,0:0|0:0,0:0:0:0:
136,44,82958,2,0,L|10:55,1,125.999996154785,8|0,0:0|0:0,0:0:0:0:
99,262,83258,6,0,L|108:151,1,112,12|0,0:0|0:0,0:0:0:0:
256,329,83558,2,0,L|256:215,1,112,8|0,0:0|0:0,0:0:0:0:
413,262,83858,2,0,L|404:150,1,112,8|0,0:0|0:0,0:0:0:0:
203,166,84158,6,0,P|256:182|309:166,1,112,2|0,0:0|0:0,0:0:0:0:
214,1,84458,6,0,P|173:38|161:92,1,112,2|0,0:0|0:0,0:0:0:0:
256,86,84758,5,0,0:0:0:0:
351,92,84908,6,0,P|338:38|297:0,1,112,2|0,0:0|0:0,0:0:0:0:
256,86,85208,5,0,0:0:0:0:
256,192,85358,1,10,0:0:0:0:
256,227,85433,1,0,0:0:0:0:
256,262,85508,1,0,0:0:0:0:
256,297,85583,1,0,0:0:0:0:
256,332,85658,1,4,0:0:0:0:
256,192,85733,12,0,86858,0:0:0:0:
