osu file format v14

[General]
AudioFilename: audio.mp3
AudioLeadIn: 0
PreviewTime: 56783
Countdown: 0
SampleSet: Soft
StackLeniency: 0.2
Mode: 0
LetterboxInBreaks: 0
WidescreenStoryboard: 0

[Editor]
DistanceSpacing: 1.1
BeatDivisor: 4
GridSize: 8
TimelineZoom: 1.5

[Metadata]
Title:Kimi no Bouken (TV Size)
TitleUnicode:キミの冒険 (TV Size)
Artist:Okazaki Taiiku
ArtistUnicode:岡崎体育
Creator:fieryrage
Version:New Adventure!
Source:ポケットモンスター サン&ムーン
Tags:pokemon pokémon pocket monsters sun and moon opening op your adventure nintendo the company game freak alola shiinoha kotone tomadoi squaretude glaceon squilly seto kousuke eiri- ayyri
BeatmapID:1816243
BeatmapSetID:869019

[Difficulty]
HPDrainRate:5
CircleSize:4
OverallDifficulty:9.6
ApproachRate:9.8
SliderMultiplier:1.8
SliderTickRate:1

[Events]
//Background and Video events
0,0,"eeee.jpg",0,0
Video,-225,"video.avi"
//Break Periods
//Storyboard Layer 0 (Background)
//Storyboard Layer 1 (Fail)
//Storyboard Layer 2 (Pass)
//Storyboard Layer 3 (Foreground)
//Storyboard Sound Samples

[TimingPoints]
458,300,4,2,1,35,1,0
458,-200,4,2,1,35,0,0
5258,-166.666666666667,4,2,1,35,0,0
6458,-142.857142857143,4,2,1,40,0,0
7658,-125,4,2,1,45,0,0
7958,-125,4,2,1,50,0,0
8108,-125,4,2,1,40,0,0
8258,-125,4,2,1,50,0,0
8558,-125,4,2,1,55,0,0
8858,-250,4,2,1,60,0,0
8933,-250,4,2,2,5,0,0
9308,-250,4,2,1,40,0,0
9383,-250,4,2,2,5,0,0
9458,-250,4,2,1,40,0,0
9533,-250,4,2,2,5,0,0
10358,-100,4,2,1,50,0,0
10658,-100,4,2,1,60,0,0
10808,-100,4,2,1,50,0,0
10958,-100,4,2,1,40,0,0
11258,-100,4,2,1,55,0,1
11333,-100,4,2,1,55,0,0
18458,-125,4,2,1,50,0,0
37208,-125,4,2,1,35,0,0
37358,-125,4,2,1,50,0,0
37508,-125,4,2,1,30,0,0
37658,-200,4,2,1,45,0,0
52058,-125,4,2,1,45,0,0
53258,-100,4,2,1,45,0,0
53408,-100,4,2,1,35,0,0
53558,-100,4,2,1,45,0,0
53708,-100,4,2,1,40,0,0
53858,-100,4,2,1,50,0,0
54008,-100,4,2,1,40,0,0
54158,-100,4,2,1,50,0,0
54308,-100,4,2,1,40,0,0
54458,-100,4,2,1,50,0,0
54533,-100,4,2,1,40,0,0
54758,-100,4,2,1,50,0,0
54833,-100,4,2,1,40,0,0
54908,-100,4,2,1,45,0,0
54983,-100,4,2,1,40,0,0
55058,-100,4,2,1,55,0,0
55133,-100,4,2,1,40,0,0
55358,-100,4,2,1,55,0,0
55433,-100,4,2,1,40,0,0
55658,-200,4,2,1,60,0,0
55733,-200,4,2,2,5,0,0
56558,-100,4,2,1,35,0,0
56708,-100,4,2,1,40,0,0
56858,-83.3333333333333,4,2,1,60,0,1
75533,-83.3333333333333,4,2,1,50,0,1
75608,-83.3333333333333,4,2,1,55,0,0
75683,-83.3333333333333,4,2,1,50,0,0
75758,-83.3333333333333,4,2,1,65,0,0
75833,-83.3333333333333,4,2,1,55,0,0
75908,-83.3333333333333,4,2,1,65,0,0
75983,-83.3333333333333,4,2,1,55,0,0
76058,-83.3333333333333,4,2,1,65,0,1
85658,-200,4,2,1,65,0,0
85733,-200,4,2,2,5,0,0
86858,-100,4,2,1,60,0,1
87008,-100,4,2,1,25,0,0

[Colours]
Combo1 : 167,146,175
Combo2 : 102,156,174
Combo3 : 169,149,112
Combo4 : 198,83,83

[HitObjects]
83,112,458,6,0,L|137:110,1,45,2|0,0:0|0:0,0:0:0:0:
231,136,758,1,0,0:0:0:0:
205,53,908,1,2,0:0:0:0:
111,233,1058,2,0,P|148:239|206:221,1,90,0|0,0:0|0:0,0:0:0:0:
318,127,1508,6,0,P|273:122|230:135,1,90,0|0,0:0|0:0,0:0:0:0:
198,225,1958,1,0,0:0:0:0:
127,110,2108,1,2,0:0:0:0:
211,244,2258,2,0,L|214:348,1,90,0|0,0:0|0:0,0:0:0:0:
37,112,2858,6,0,L|141:109,1,90,2|0,0:0|0:0,0:0:0:0:
300,246,3458,2,0,L|196:243,1,90,0|0,0:0|0:0,0:0:0:0:
325,32,4058,5,2,0:0:0:0:
325,32,4358,2,0,P|329:52|328:78,1,45,0|2,0:0|0:3,0:0:0:0:
126,109,4658,2,0,P|171:100|219:108,1,90,0|0,0:0|0:0,0:0:0:0:
443,265,5258,6,0,P|390:277|337:268,1,107.999996704102,2|8,1:2|1:3,0:0:0:0:
256,234,5708,1,2,0:0:0:0:
383,139,5858,2,0,P|388:166|388:193,1,53.9999983520508,0|0,1:0|0:0,0:0:0:0:
178,268,6158,2,0,P|172:241|173:214,1,53.9999983520508,8|0,1:3|0:0,0:0:0:0:
227,54,6458,5,2,1:2:0:0:
383,139,6608,1,0,0:0:0:0:
152,122,6758,1,8,1:3:0:0:
335,68,6908,1,2,0:0:0:0:
139,140,7058,2,0,L|138:208,1,62.9999980773926,0|0,1:0|0:0,0:0:0:0:
383,139,7358,2,0,L|383:77,1,62.9999980773926,8|0,1:3|0:0,0:0:0:0:
100,279,7658,6,0,P|130:287|175:281,1,72,2|0,1:2|0:0,0:0:0:0:
287,111,7958,1,10,1:3:0:0:
304,311,8108,1,2,0:0:0:0:
202,72,8258,1,2,1:3:0:0:
170,282,8408,1,0,0:0:0:0:
358,108,8558,2,0,L|257:112,1,72,10|0,1:3|0:0,0:0:0:0:
0,221,8858,6,0,B|57:205|108:240|108:240|148:213|148:213|236:263|325:215,1,342,6|0,1:2|0:0,0:0:0:0:
396,182,10358,6,0,P|401:205|400:236,3,45,2|0|0|0,0:0|0:0|0:0|0:0,0:0:0:0:
321,122,10658,6,0,P|406:99|497:153,1,180,2|0,0:0|0:0,0:0:0:0:
174,215,11258,6,0,B|166:170|166:170|173:123,1,90,6|0,1:2|1:0,0:0:0:0:
396,182,11558,2,0,B|402:225|402:225|394:270,1,90,2|0,1:2|1:0,0:0:0:0:
256,34,11858,1,10,0:0:0:0:
174,215,12008,2,0,P|220:222|275:206,1,90,2|0,1:2|0:0,0:0:0:0:
445,58,12308,6,0,B|400:49|400:49|354:54,1,90,10|0,0:0|1:0,0:0:0:0:
338,283,12608,2,0,B|381:287|381:287|426:278,1,90,10|0,0:0|1:0,0:0:0:0:
256,34,12908,1,2,1:2:0:0:
465,120,13058,1,8,0:0:0:0:
174,215,13208,1,2,1:2:0:0:
474,132,13358,1,2,0:0:0:0:
146,93,13508,1,10,0:0:0:0:
483,143,13658,6,0,L|488:235,1,90,2|0,1:2|1:0,0:0:0:0:
251,123,13958,2,0,L|255:33,1,90,2|0,0:0|1:0,0:0:0:0:
255,33,14183,1,0,1:0:0:0:
255,33,14258,1,10,0:0:0:0:
400,262,14408,2,0,B|355:272|355:272|300:254,1,90,2|0,1:2|0:0,0:0:0:0:
406,38,14708,6,0,B|451:28|451:28|506:46,1,90,10|0,0:0|1:0,0:0:0:0:
226,262,15008,2,0,B|271:272|271:272|326:254,1,90,10|0,0:0|1:0,0:0:0:0:
168,9,15308,1,2,1:2:0:0:
391,122,15458,1,8,0:0:0:0:
132,145,15608,1,2,1:2:0:0:
304,0,15758,1,2,0:0:0:0:
122,162,15908,1,10,0:0:0:0:
409,128,16058,6,0,B|420:173|420:173|413:219,1,90,2|0,1:2|1:0,0:0:0:0:
122,162,16358,2,0,B|111:207|111:207|118:253,1,90,2|0,0:0|1:0,0:0:0:0:
117,250,16583,1,0,1:0:0:0:
117,250,16658,1,10,0:0:0:0:
266,63,16808,2,0,L|144:65,1,90,2|0,1:2|0:0,0:0:0:0:
283,279,17108,6,0,L|405:281,1,90,10|0,0:0|1:0,0:0:0:0:
122,162,17408,1,10,0:0:0:0:
366,97,17558,1,2,1:2:0:0:
94,170,17708,1,2,1:2:0:0:
431,203,17858,1,10,0:2:0:0:
70,177,18008,1,2,0:2:0:0:
385,30,18158,5,10,1:2:0:0:
394,55,18233,1,8,0:0:0:0:
399,82,18308,1,10,1:2:0:0:
399,109,18383,1,8,0:0:0:0:
395,135,18458,6,0,P|356:141|318:135,1,72,6|0,1:2|0:0,0:0:0:0:
213,43,18758,1,8,0:0:0:0:
247,225,18908,1,0,0:0:0:0:
141,45,19058,2,0,L|227:42,1,72,0|0,1:0|0:0,0:0:0:0:
70,177,19358,1,8,0:0:0:0:
323,136,19508,1,0,0:0:0:0:
323,136,19658,6,0,P|332:171|329:217,1,72,0|0,1:0|0:0,0:0:0:0:
204,113,19958,2,0,P|203:77|212:42,1,72,8|0,0:0|0:0,0:0:0:0:
247,225,20258,1,0,1:0:0:0:
291,32,20408,1,0,0:0:0:0:
176,224,20558,2,0,P|211:231|248:224,1,72,8|0,0:0|0:0,0:0:0:0:
138,21,20858,5,0,1:0:0:0:
127,154,21008,1,0,0:0:0:0:
225,0,21158,1,8,0:0:0:0:
246,224,21308,1,0,0:0:0:0:
131,6,21458,1,0,1:0:0:0:
331,96,21608,1,0,0:0:0:0:
94,235,21758,2,0,P|130:240|172:232,1,72,8|0,0:0|0:0,0:0:0:0:
331,96,22058,6,0,L|335:177,1,72,0|0,1:0|0:0,0:0:0:0:
225,0,22358,2,0,L|221:71,1,72,8|0,0:0|0:0,0:0:0:0:
94,235,22658,1,0,1:0:0:0:
241,166,22808,1,0,0:0:0:0:
45,124,22958,2,0,P|90:112|120:115,1,72,8|0,0:0|0:0,0:0:0:0:
290,252,23258,6,0,P|255:262|220:262,1,72,6|0,1:2|0:0,0:0:0:0:
114,113,23558,1,8,0:0:0:0:
266,102,23708,1,0,0:0:0:0:
89,228,23858,1,0,1:0:0:0:
290,252,24008,1,0,0:0:0:0:
111,41,24158,2,0,L|114:124,1,72,8|0,0:0|0:0,0:0:0:0:
290,252,24458,6,0,L|292:180,1,72,0|0,1:0|0:0,0:0:0:0:
227,42,24758,1,8,0:0:0:0:
367,83,24908,1,0,0:0:0:0:
222,178,25058,2,0,P|260:186|301:175,1,72,0|0,1:0|0:0,0:0:0:0:
227,42,25358,2,0,P|191:35|157:43,1,72,8|0,0:0|0:0,0:0:0:0:
366,154,25658,6,0,L|367:75,1,72,0|0,1:0|0:0,0:0:0:0:
222,178,25958,2,0,L|225:251,1,72,8|0,0:0|0:0,0:0:0:0:
258,97,26258,2,0,P|223:89|188:95,1,72,0|0,1:0|0:0,0:0:0:0:
332,238,26558,2,0,P|368:244|403:236,1,72,8|0,0:0|0:0,0:0:0:0:
165,333,26858,5,0,1:0:0:0:
222,178,27008,1,0,0:0:0:0:
302,368,27158,2,0,L|392:371,1,72,8|0,0:0|0:0,0:0:0:0:
222,178,27458,2,0,L|132:181,1,72,0|0,1:0|0:0,0:0:0:0:
402,236,27758,1,8,0:0:0:0:
165,333,27908,1,0,0:0:0:0:
388,166,28058,6,0,P|402:209|399:250,1,72,6|0,1:2|0:0,0:0:0:0:
222,178,28358,1,8,0:0:0:0:
312,365,28508,1,0,0:0:0:0:
388,166,28658,1,0,1:0:0:0:
201,305,28808,1,0,0:0:0:0:
300,103,28958,1,8,0:0:0:0:
413,288,29108,1,0,0:0:0:0:
413,288,29258,6,0,L|414:209,1,72,0|0,1:0|0:0,0:0:0:0:
222,178,29558,2,0,L|222:249,1,72,8|0,0:0|0:0,0:0:0:0:
416,106,29858,1,0,1:0:0:0:
413,288,30008,1,0,0:0:0:0:
300,103,30158,1,8,0:0:0:0:
297,285,30308,1,0,0:0:0:0:
359,30,30458,5,0,1:0:0:0:
413,288,30608,1,0,0:0:0:0:
289,33,30758,2,0,P|334:24|366:32,1,72,8|0,0:0|0:0,0:0:0:0:
308,186,31058,2,0,P|272:191|237:182,1,72,0|0,1:0|0:0,0:0:0:0:
134,48,31358,1,8,0:0:0:0:
117,231,31508,1,0,0:0:0:0:
256,19,31658,5,0,1:0:0:0:
293,285,31808,1,0,0:0:0:0:
184,22,31958,2,0,L|259:18,1,72,8|0,0:0|0:0,0:0:0:0:
188,234,32258,2,0,L|113:230,1,72,0|0,1:0|0:0,0:0:0:0:
346,101,32558,1,8,0:0:0:0:
165,112,32708,1,0,0:0:0:0:
389,177,32858,6,0,P|354:186|319:183,1,72,0|0,1:0|0:0,0:0:0:0:
122,38,33158,2,0,P|156:28|192:32,1,72,8|0,0:0|0:0,0:0:0:0:
346,101,33458,1,0,1:0:0:0:
165,112,33608,1,0,0:0:0:0:
328,19,33758,1,8,0:0:0:0:
154,127,33908,1,0,0:0:0:0:
417,102,34058,6,0,L|331:100,1,72,0|0,1:0|0:0,0:0:0:0:
200,239,34358,2,0,L|271:237,1,72,8|0,0:0|0:0,0:0:0:0:
191,31,34658,2,0,L|120:29,1,72,0|0,1:0|0:0,0:0:0:0:
335,181,34958,1,8,0:0:0:0:
328,19,35108,1,0,0:0:0:0:
200,239,35258,6,0,P|193:202|198:162,1,72,0|0,1:0|0:0,0:0:0:0:
328,19,35558,1,8,0:0:0:0:
335,181,35708,1,0,0:0:0:0:
192,14,35858,2,0,L|190:101,1,72,0|0,1:0|0:0,0:0:0:0:
431,187,36158,2,0,L|429:115,1,72,8|0,0:0|0:0,0:0:0:0:
190,85,36458,5,0,1:0:0:0:
414,30,36608,1,0,0:0:0:0:
162,92,36758,1,12,0:0:0:0:
429,115,36908,1,0,0:0:0:0:
193,14,37058,6,0,L|190:94,1,72,8|8,1:2|1:3,0:0:0:0:
431,187,37358,2,0,L|428:115,1,72,8|8,1:3|1:3,0:0:0:0:
190,85,37658,5,6,1:2:0:0:
315,51,37808,1,0,0:0:0:0:
162,92,37958,2,0,L|105:91,1,45,0|0,0:0|0:0,0:0:0:0:
257,207,38258,2,0,L|314:206,1,45,10|0,0:0|0:0,0:0:0:0:
186,12,38558,1,0,0:0:0:0:
370,55,38708,1,8,0:0:0:0:
162,92,38858,5,2,1:2:0:0:
392,50,39008,1,8,0:0:0:0:
127,173,39158,2,0,P|159:178|223:159,1,90,2|10,1:2|0:0,0:0:0:0:
26,21,39758,2,0,L|24:81,1,45,0|8,0:0|0:0,0:0:0:0:
18,264,40058,5,2,1:2:0:0:
24,65,40208,1,0,0:0:0:0:
105,240,40358,1,0,0:0:0:0:
110,99,40508,1,0,0:0:0:0:
18,264,40658,2,0,P|16:291|19:321,1,45,10|0,0:0|0:0,0:0:0:0:
192,164,40958,1,0,0:0:0:0:
24,65,41108,1,8,0:0:0:0:
113,262,41258,5,2,1:2:0:0:
169,24,41408,1,8,0:0:0:0:
252,289,41558,2,0,P|291:303|348:296,1,90,2|10,1:2|0:0,0:0:0:0:
476,188,42158,1,0,1:0:0:0:
267,96,42458,6,0,P|222:91|180:106,1,90,6|0,1:2|0:0,0:0:0:0:
78,285,43058,1,10,0:0:0:0:
24,65,43358,1,0,0:0:0:0:
180,105,43508,1,8,0:0:0:0:
0,146,43658,5,2,1:2:0:0:
267,96,43808,1,8,0:0:0:0:
25,288,43958,2,0,L|118:286,1,90,2|10,1:2|0:0,0:0:0:0:
267,96,44558,2,0,L|207:95,1,45,0|8,0:0|0:0,0:0:0:0:
344,255,44858,6,0,P|352:211|338:149,1,90,2|0,1:2|0:0,0:0:0:0:
267,96,45308,1,0,0:0:0:0:
433,170,45458,2,0,P|396:176|337:163,1,90,10|2,0:0|0:0,0:0:0:0:
212,38,45908,1,8,0:0:0:0:
413,55,46058,5,2,1:2:0:0:
159,121,46208,1,8,0:0:0:0:
433,170,46358,2,0,P|442:205|435:262,1,90,2|10,1:2|0:0,0:0:0:0:
294,19,46958,1,2,1:2:0:0:
285,226,47108,1,8,0:0:0:0:
399,13,47258,6,0,L|397:66,1,45,6|0,1:2|0:0,0:0:0:0:
285,226,47558,2,0,L|287:173,1,45,0|0,0:0|0:0,0:0:0:0:
200,0,47858,1,10,0:0:0:0:
374,179,48008,2,0,P|325:188|283:180,1,90,0|8,0:0|0:0,0:0:0:0:
200,0,48458,5,2,1:2:0:0:
164,226,48608,1,8,0:0:0:0:
329,65,48758,1,2,1:2:0:0:
98,93,48908,1,0,0:0:0:0:
328,154,49058,2,0,L|329:57,1,90,10|2,0:0|0:0,0:0:0:0:
164,226,49508,1,8,0:0:0:0:
377,275,49658,6,0,P|342:288|283:281,1,90,2|0,1:2|0:0,0:0:0:0:
98,93,50258,2,0,P|142:87|184:101,1,90,10|0,0:0|0:0,0:0:0:0:
290,283,50708,1,8,0:0:0:0:
97,186,50858,5,2,1:2:0:0:
371,122,51008,1,8,0:0:0:0:
76,192,51158,1,2,1:2:0:0:
481,138,51458,5,10,0:0:0:0:
98,93,51758,1,2,1:2:0:0:
459,294,52058,5,6,1:2:0:0:
278,16,52358,1,8,1:2:0:0:
261,348,52658,1,8,1:2:0:0:
469,89,52958,1,8,1:2:0:0:
149,175,53258,5,8,1:2:0:0:
453,187,53408,1,8,0:0:0:0:
197,68,53558,1,8,1:2:0:0:
406,293,53708,1,8,0:0:0:0:
306,27,53858,5,8,1:2:0:0:
295,333,54008,1,8,0:0:0:0:
412,76,54158,1,8,1:2:0:0:
188,285,54308,1,8,0:0:0:0:
429,60,54458,5,8,1:2:0:0:
444,87,54533,1,8,0:0:0:0:
451,117,54608,1,8,0:0:0:0:
453,148,54683,1,8,0:0:0:0:
452,179,54758,1,8,1:2:0:0:
445,209,54833,1,8,0:0:0:0:
435,238,54908,1,8,0:0:0:0:
418,264,54983,1,8,0:0:0:0:
395,286,55058,5,8,1:2:0:0:
343,303,55133,1,8,0:0:0:0:
289,301,55208,1,8,0:0:0:0:
237,284,55283,1,8,0:0:0:0:
196,248,55358,1,8,1:2:0:0:
175,198,55433,1,8,0:0:0:0:
171,144,55508,1,8,0:0:0:0:
182,91,55583,1,8,0:0:0:0:
210,45,55658,6,0,B|259:33|299:47|299:47|340:61|390:47,1,180,6|0,1:2|0:0,0:0:0:0:
452,179,56558,6,0,L|454:140,5,30,0|0|0|0|0|0,0:0|0:0|0:0|0:0|0:0|0:0,0:0:0:0:
450,207,56858,5,6,1:2:0:0:
221,167,57008,1,0,0:0:0:0:
477,71,57158,1,8,0:0:0:0:
338,304,57308,1,0,0:0:0:0:
220,60,57458,2,0,P|213:93|222:172,1,107.999996704102,0|0,1:0|0:0,0:0:0:0:
468,217,57758,1,8,0:0:0:0:
189,299,57908,1,0,0:0:0:0:
379,60,58058,6,0,L|383:188,1,107.999996704102,2|0,1:2|0:0,0:0:0:0:
108,233,58358,1,8,0:0:0:0:
220,60,58508,1,0,0:0:0:0:
293,301,58658,2,0,P|226:311|172:288,1,107.999996704102,0|0,1:0|0:0,0:0:0:0:
321,58,58958,2,0,P|372:44|425:55,1,107.999996704102,8|0,0:0|0:0,0:0:0:0:
132,206,59258,6,0,L|127:84,1,107.999996704102,2|0,1:2|0:0,0:0:0:0:
371,237,59558,2,0,L|376:115,1,107.999996704102,8|0,0:0|0:0,0:0:0:0:
137,322,59858,1,0,1:0:0:0:
220,60,60008,1,0,0:0:0:0:
285,363,60158,1,8,0:0:0:0:
223,39,60308,1,0,0:0:0:0:
122,337,60458,6,0,P|67:351|3:335,1,107.999996704102,2|0,1:2|0:0,0:0:0:0:
136,77,60758,1,8,0:0:0:0:
194,276,60908,1,0,0:0:0:0:
28,79,61058,2,0,L|138:76,1,107.999996704102,0|0,1:0|0:0,0:0:0:0:
301,278,61358,2,0,L|191:275,1,107.999996704102,8|0,0:0|0:0,0:0:0:0:
334,36,61658,6,0,P|389:23|445:31,1,107.999996704102,6|0,1:2|0:0,0:0:0:0:
193,275,61958,1,8,0:0:0:0:
455,122,62108,1,0,0:0:0:0:
135,76,62258,2,0,P|122:120|136:192,1,107.999996704102,0|0,1:0|0:0,0:0:0:0:
407,303,62558,1,8,0:0:0:0:
334,36,62708,1,0,0:0:0:0:
193,275,62858,5,2,1:2:0:0:
456,170,63008,1,0,0:0:0:0:
170,99,63158,1,8,0:0:0:0:
342,318,63308,1,0,0:0:0:0:
451,62,63458,2,0,L|456:180,1,107.999996704102,0|0,1:0|0:0,0:0:0:0:
193,275,63758,2,0,L|188:167,1,107.999996704102,8|0,0:0|0:0,0:0:0:0:
446,311,64058,6,0,P|386:326|335:315,1,107.999996704102,6|0,1:2|0:0,0:0:0:0:
130,87,64358,2,0,P|181:71|234:80,1,107.999996704102,8|0,0:0|0:0,0:0:0:0:
476,202,64658,1,0,1:0:0:0:
193,275,64808,1,0,0:0:0:0:
372,32,64958,2,0,L|377:150,1,107.999996704102,8|0,0:0|0:0,0:0:0:0:
134,194,65258,6,0,L|129:76,1,107.999996704102,2|0,1:2|0:0,0:0:0:0:
376,139,65558,1,8,0:0:0:0:
94,288,65708,1,0,0:0:0:0:
440,227,65858,2,0,L|309:230,1,107.999996704102,0|0,1:0|0:0,0:0:0:0:
129,86,66158,2,0,L|260:83,1,107.999996704102,8|0,0:0|0:0,0:0:0:0:
94,288,66458,5,6,1:2:0:0:
236,83,66608,1,0,0:0:0:0:
264,332,66758,1,8,0:0:0:0:
241,57,66908,1,0,0:0:0:0:
79,305,67058,2,0,P|72:252|86:189,1,107.999996704102,0|0,1:0|0:0,0:0:0:0:
365,104,67358,1,8,0:0:0:0:
118,53,67508,1,0,0:0:0:0:
390,113,67658,6,0,L|396:226,1,107.999996704102,2|0,1:2|0:0,0:0:0:0:
139,136,67958,1,8,0:0:0:0:
311,67,68108,1,0,0:0:0:0:
113,146,68258,2,0,L|107:259,1,107.999996704102,0|0,1:0|0:0,0:0:0:0:
390,113,68558,2,0,L|396:226,1,107.999996704102,8|0,0:0|0:0,0:0:0:0:
118,38,68858,6,0,L|112:151,1,107.999996704102,2|0,1:2|0:0,0:0:0:0:
361,302,69158,1,8,0:0:0:0:
311,67,69308,1,0,0:0:0:0:
182,276,69458,1,0,1:0:0:0:
395,156,69608,1,0,0:0:0:0:
95,94,69758,2,0,L|219:90,1,107.999996704102,8|0,0:0|0:0,0:0:0:0:
382,303,70058,6,0,L|258:299,1,107.999996704102,2|0,1:2|0:0,0:0:0:0:
434,43,70358,2,0,P|449:86|442:155,1,107.999996704102,8|0,0:0|0:0,0:0:0:0:
137,238,70658,1,0,1:0:0:0:
347,103,70808,1,0,0:0:0:0:
117,252,70958,1,8,0:0:0:0:
225,30,71108,1,0,0:0:0:0:
341,307,71258,6,0,P|348:249|336:195,1,107.999996704102,6|0,1:2|0:0,0:0:0:0:
209,15,71558,1,8,0:0:0:0:
412,101,71708,1,0,0:0:0:0:
137,238,71858,2,0,L|250:231,1,107.999996704102,0|0,1:0|0:0,0:0:0:0:
443,107,72158,1,8,0:0:0:0:
92,88,72308,2,0,L|151:85,1,53.9999983520508,0|0,0:0|0:0,0:0:0:0:
352,226,72458,6,0,L|240:231,1,107.999996704102,2|0,1:2|0:0,0:0:0:0:
325,18,72758,2,0,L|432:13,1,107.999996704102,8|0,0:0|0:0,0:0:0:0:
166,283,73058,2,0,P|154:232|165:176,1,107.999996704102,0|0,1:0|0:0,0:0:0:0:
416,89,73358,1,8,0:0:0:0:
170,48,73508,1,0,0:0:0:0:
444,96,73658,6,0,L|448:216,1,107.999996704102,2|0,1:2|0:0,0:0:0:0:
172,137,73958,1,8,0:0:0:0:
367,94,74108,1,0,0:0:0:0:
144,144,74258,2,0,L|140:264,1,107.999996704102,0|0,1:0|0:0,0:0:0:0:
444,96,74558,2,0,L|447:203,1,107.999996704102,8|0,0:0|0:0,0:0:0:0:
147,36,74858,6,0,L|143:156,1,107.999996704102,2|0,1:2|0:0,0:0:0:0:
450,311,75158,2,0,L|446:203,1,107.999996704102,8|0,1:2|0:0,0:0:0:0:
143,143,75458,5,8,1:2:0:0:
87,174,75533,1,8,0:0:0:0:
56,230,75608,1,8,0:0:0:0:
58,294,75683,1,8,0:0:0:0:
92,348,75758,1,8,1:2:0:0:
149,377,75833,1,8,0:0:0:0:
213,372,75908,1,8,0:0:0:0:
266,336,75983,1,8,0:0:0:0:
292,277,76058,6,0,L|288:160,1,107.999996704102,6|0,1:2|0:0,0:0:0:0:
128,351,76358,5,10,0:0:0:0:
147,70,76508,1,0,0:0:0:0:
248,369,76658,5,10,0:0:0:0:
261,54,76808,1,0,1:0:0:0:
128,351,76958,5,10,0:0:0:0:
262,30,77108,1,0,1:0:0:0:
353,363,77258,5,10,1:2:0:0:
64,140,77408,1,0,0:0:0:0:
456,163,77558,5,10,0:0:0:0:
128,351,77708,1,0,0:0:0:0:
262,30,77858,5,10,0:0:0:0:
353,363,78008,1,0,1:0:0:0:
155,31,78158,2,0,P|213:22|263:30,1,107.999996704102,10|0,0:0|1:0,0:0:0:0:
353,363,78458,6,0,P|299:370|246:361,1,107.999996704102,10|0,1:2|0:0,0:0:0:0:
102,76,78758,5,10,0:0:0:0:
87,336,78908,1,0,0:0:0:0:
212,51,79058,5,10,0:0:0:0:
209,346,79208,1,0,1:0:0:0:
92,50,79358,5,10,0:0:0:0:
324,272,79508,1,0,1:0:0:0:
0,205,79658,5,10,1:2:0:0:
354,102,79808,1,0,0:0:0:0:
47,318,79958,5,10,0:0:0:0:
285,30,80108,1,0,0:0:0:0:
188,377,80258,5,10,0:0:0:0:
160,11,80408,1,0,1:0:0:0:
327,378,80558,2,0,P|332:314|321:264,1,107.999996704102,10|0,0:0|1:0,0:0:0:0:
165,0,80858,5,10,1:2:0:0:
106,368,81008,1,0,0:0:0:0:
272,0,81158,5,10,0:0:0:0:
327,378,81308,1,0,0:0:0:0:
152,0,81458,5,10,0:0:0:0:
98,384,81608,1,0,1:0:0:0:
289,0,81758,5,10,0:0:0:0:
347,384,81908,1,0,1:0:0:0:
112,0,82058,6,0,L|106:119,1,107.999996704102,10|0,1:2|0:0,0:0:0:0:
366,384,82358,2,0,L|360:276,1,107.999996704102,10|0,0:0|0:0,0:0:0:0:
2,121,82658,6,0,P|58:102|110:109,1,107.999996704102,10|0,0:0|1:0,0:0:0:0:
463,289,82958,2,0,P|409:293|359:275,1,107.999996704102,10|0,0:0|1:0,0:0:0:0:
98,0,83258,5,10,1:2:0:0:
220,384,83408,1,0,0:0:0:0:
332,0,83558,5,10,0:0:0:0:
0,245,83708,1,0,0:0:0:0:
415,205,83858,5,10,0:0:0:0:
45,9,84008,1,0,1:0:0:0:
220,384,84158,5,10,0:0:0:0:
374,0,84308,1,0,1:0:0:0:
0,219,84458,5,10,1:2:0:0:
474,100,84608,1,0,0:0:0:0:
0,307,84758,5,10,0:0:0:0:
512,182,84908,1,0,0:0:0:0:
0,133,85058,5,10,1:2:0:0:
512,15,85208,2,0,L|450:17,1,53.9999983520508,0|8,0:0|0:3,0:0:0:0:
0,307,85358,5,8,1:2:0:0:
55,329,85433,1,8,0:0:0:0:
114,332,85508,1,8,0:0:0:0:
172,319,85583,1,8,0:0:0:0:
223,288,85658,6,0,B|244:234|221:174|221:174|199:112|232:56|232:56|260:115|243:160,1,337.5,6|0,1:2|0:0,0:0:0:0:
312,201,86858,6,0,B|331:201|341:194|341:194|350:198|350:198|362:196|362:196|383:201|406:195,1,90,10|0,1:3|0:0,0:0:0:0:
