osu file format v14

[General]
AudioFilename: audio.mp3
AudioLeadIn: 0
PreviewTime: 56783
Countdown: 0
SampleSet: Soft
StackLeniency: 0.7
Mode: 0
LetterboxInBreaks: 0
WidescreenStoryboard: 1

[Editor]
DistanceSpacing: 0.9
BeatDivisor: 4
GridSize: 32
TimelineZoom: 1.5

[Metadata]
Title:Kimi no Bouken (TV Size)
TitleUnicode:キミの冒険 (TV Size)
Artist:Okazaki Taiiku
ArtistUnicode:岡崎体育
Creator:fieryrage
Version:Glaceon's Normal
Source:ポケットモンスター サン&ムーン
Tags:pokemon pokémon pocket monsters sun and moon opening op your adventure nintendo the company game freak alola shiinoha kotone tomadoi squaretude glaceon squilly seto kousuke eiri- ayyri
BeatmapID:1818429
BeatmapSetID:869019

[Difficulty]
HPDrainRate:3
CircleSize:3
OverallDifficulty:4
ApproachRate:5.5
SliderMultiplier:1
SliderTickRate:1

[Events]
//Background and Video events
0,0,"eeee.jpg",0,0
Video,-225,"video.avi"
//Break Periods
//Storyboard Layer 0 (Background)
//Storyboard Layer 1 (Fail)
//Storyboard Layer 2 (Pass)
//Storyboard Layer 3 (Foreground)
//Storyboard Sound Samples

[TimingPoints]
458,300,4,2,1,35,1,0
458,-105.263157894737,4,2,1,35,0,0
6458,-105.263157894737,4,2,1,40,0,0
7658,-105.263157894737,4,2,1,45,0,0
7958,-105.263157894737,4,2,1,50,0,0
8108,-105.263157894737,4,2,1,40,0,0
8258,-105.263157894737,4,2,1,50,0,0
8558,-105.263157894737,4,2,1,55,0,0
8858,-105.263157894737,4,2,1,60,0,0
8933,-105.263157894737,4,2,2,5,0,0
9308,-105.263157894737,4,2,1,40,0,0
9383,-105.263157894737,4,2,2,5,0,0
9458,-105.263157894737,4,2,1,40,0,0
9533,-105.263157894737,4,2,2,5,0,0
10358,-105.263157894737,4,2,1,50,0,0
10658,-105.263157894737,4,2,1,60,0,0
10808,-105.263157894737,4,2,1,50,0,0
10958,-105.263157894737,4,2,1,40,0,0
11258,-100,4,2,1,55,0,0
18458,-100,4,2,1,50,0,0
37208,-100,4,2,1,35,0,0
37358,-100,4,2,1,50,0,0
37508,-100,4,2,1,30,0,0
37658,-105.263157894737,4,2,1,45,0,0
53408,-105.263157894737,4,2,1,35,0,0
53558,-105.263157894737,4,2,1,45,0,0
53708,-105.263157894737,4,2,1,40,0,0
53858,-105.263157894737,4,2,1,50,0,0
54008,-105.263157894737,4,2,1,40,0,0
54158,-105.263157894737,4,2,1,50,0,0
54308,-105.263157894737,4,2,1,40,0,0
54458,-105.263157894737,4,2,1,50,0,0
54533,-105.263157894737,4,2,1,40,0,0
54758,-105.263157894737,4,2,1,50,0,0
54833,-105.263157894737,4,2,1,40,0,0
54908,-105.263157894737,4,2,1,45,0,0
54983,-105.263157894737,4,2,1,40,0,0
55058,-105.263157894737,4,2,1,55,0,0
55133,-105.263157894737,4,2,1,40,0,0
55358,-105.263157894737,4,2,1,55,0,0
55433,-105.263157894737,4,2,1,40,0,0
55658,-105.263157894737,4,2,1,60,0,0
55733,-105.263157894737,4,2,2,5,0,0
56558,-105.263157894737,4,2,1,35,0,0
56708,-105.263157894737,4,2,1,40,0,0
56858,-100,4,2,1,60,0,1
75458,-100,4,2,1,60,0,0
75533,-100,4,2,1,50,0,0
75608,-100,4,2,1,55,0,0
75683,-100,4,2,1,50,0,0
75758,-100,4,2,1,65,0,0
75833,-100,4,2,1,55,0,0
75908,-100,4,2,1,65,0,0
75983,-100,4,2,1,55,0,0
76058,-100,4,2,1,65,0,1
78458,-100,4,2,1,65,0,1
80858,-100,4,2,1,65,0,1
85733,-100,4,2,2,5,0,1
86858,-100,4,2,1,60,0,0
87008,-100,4,2,1,25,0,0

[Colours]
Combo1 : 167,146,175
Combo2 : 102,156,174
Combo3 : 169,149,112
Combo4 : 198,83,83

[HitObjects]
65,99,458,6,0,L|68:160,1,47.4999987316132,2|0,0:0|0:0,0:0:0:0:
103,169,758,2,0,L|106:230,1,47.4999987316132,0|2,0:0|0:0,0:0:0:0:
136,245,1058,1,0,0:0:0:0:
254,196,1508,2,0,P|299:181|345:200,1,94.9999974632264,0|0,0:0|0:0,0:0:0:0:
372,226,1958,2,0,L|432:226,1,47.4999987316132,0|2,0:0|0:0,0:0:0:0:
459,207,2258,2,0,L|466:105,1,94.9999974632264,0|0,0:0|0:0,0:0:0:0:
425,36,2858,6,0,P|381:19|337:34,1,94.9999974632264,2|0,0:0|0:0,0:0:0:0:
293,108,3458,2,0,P|337:123|380:106,2,94.9999974632264,0|0|2,0:0|0:0|0:0,0:0:0:0:
141,28,4658,2,0,L|131:131,1,94.9999974632264,0|0,0:0|0:0,0:0:0:0:
120,207,5258,6,0,P|164:222|207:205,1,94.9999974632264,2|8,1:2|1:3,0:0:0:0:
242,180,5708,2,0,L|252:283,1,94.9999974632264,2|0,0:0|0:0,0:0:0:0:
255,317,6158,1,8,1:3:0:0:
332,352,6458,2,0,L|341:257,1,94.9999974632264,2|8,1:2|1:3,0:0:0:0:
349,215,6908,1,2,0:0:0:0:
349,215,7058,2,0,P|392:231|437:217,1,94.9999974632264,0|8,1:0|1:3,0:0:0:0:
391,144,7658,6,0,P|346:130|302:145,1,94.9999974632264,2|10,1:2|1:3,0:0:0:0:
224,182,8258,1,2,1:3:0:0:
212,97,8558,1,10,1:3:0:0:
256,192,8858,12,2,10658,0:0:0:0:
105,81,11258,6,0,L|116:191,1,100,6|2,1:2|1:2,0:0:0:0:
129,269,11858,1,10,0:0:0:0:
129,269,12008,2,0,P|177:252|226:267,1,100,2|10,1:2|0:0,0:0:0:0:
288,327,12608,1,10,0:0:0:0:
330,247,12908,2,0,L|339:147,1,100,2|2,1:2|1:2,0:0:0:0:
345,102,13358,2,0,L|278:107,1,50,2|10,0:0|0:0,0:0:0:0:
250,108,13658,6,0,P|202:120|155:104,1,100,2|2,1:2|0:0,0:0:0:0:
69,79,14258,1,10,0:0:0:0:
69,79,14408,2,0,L|78:178,1,100,2|10,1:2|0:0,0:0:0:0:
88,267,15008,1,10,0:0:0:0:
166,223,15308,2,0,P|213:210|260:226,1,100,2|2,1:2|1:2,0:0:0:0:
299,247,15758,2,0,L|366:252,1,50,2|10,0:0|0:0,0:0:0:0:
394,249,16058,6,0,L|384:149,1,100,2|2,1:2|0:0,0:0:0:0:
369,60,16658,1,10,0:0:0:0:
369,60,16808,2,0,P|321:72|274:56,1,100,2|10,1:2|0:0,0:0:0:0:
193,18,17408,1,10,0:0:0:0:
193,18,17558,2,0,L|188:85,1,50,2|2,1:2|1:2,0:0:0:0:
149,89,17858,2,0,L|144:156,1,50,10|2,0:2|0:2,0:0:0:0:
107,163,18158,2,0,L|102:230,1,50,10|10,1:2|1:2,0:0:0:0:
79,251,18458,6,0,P|125:235|173:247,1,100,6|8,1:2|0:0,0:0:0:0:
238,310,19058,2,0,L|338:300,1,100,0|8,1:0|0:0,0:0:0:0:
382,294,19508,1,0,0:0:0:0:
443,228,19808,1,0,0:0:0:0:
443,228,19958,2,0,P|427:181|439:133,1,100,8|0,0:0|1:0,0:0:0:0:
459,93,20408,1,0,0:0:0:0:
459,93,20558,2,0,L|392:88,1,50,8|0,0:0|0:0,0:0:0:0:
373,79,20858,6,0,L|273:89,1,100,0|8,1:0|0:0,0:0:0:0:
184,100,21458,1,0,1:0:0:0:
184,100,21608,2,0,P|196:147|180:194,1,100,0|0,0:0|0:0,0:0:0:0:
155,232,22058,1,0,1:0:0:0:
197,311,22358,1,8,0:0:0:0:
268,255,22658,2,0,L|317:258,1,50,0|0,1:0|0:0,0:0:0:0:
348,291,22958,2,0,L|397:294,1,50,8|0,0:0|0:0,0:0:0:0:
432,323,23258,6,0,P|447:276|435:228,1,100,6|8,1:2|0:0,0:0:0:0:
354,188,23858,2,0,L|357:138,1,50,0|0,1:0|0:0,0:0:0:0:
397,116,24158,2,0,L|400:66,1,50,8|0,0:0|0:0,0:0:0:0:
427,29,24458,2,0,P|380:13|332:25,1,100,0|8,1:0|0:0,0:0:0:0:
275,94,25058,1,0,1:0:0:0:
275,94,25208,2,0,L|175:84,1,100,0|0,0:0|0:0,0:0:0:0:
130,78,25658,6,0,P|114:124|126:172,1,100,0|8,1:0|0:0,0:0:0:0:
170,250,26258,1,0,1:0:0:0:
244,199,26558,1,8,0:0:0:0:
255,288,26858,2,0,L|355:278,1,100,0|8,1:0|0:0,0:0:0:0:
415,212,27458,2,0,P|427:164|411:117,1,100,0|8,1:0|0:0,0:0:0:0:
340,62,28058,6,0,L|240:52,1,100,6|8,1:2|0:0,0:0:0:0:
195,51,28508,1,0,0:0:0:0:
195,51,28658,2,0,P|178:97|191:145,1,100,0|8,1:0|0:0,0:0:0:0:
222,178,29108,1,0,0:0:0:0:
297,227,29408,1,0,0:0:0:0:
297,227,29558,2,0,L|397:217,1,100,8|0,0:0|1:0,0:0:0:0:
485,206,30158,1,8,0:0:0:0:
453,121,30458,5,0,1:0:0:0:
453,121,30608,2,0,B|405:108|405:108|304:139,1,150,0|0,0:0|1:0,0:0:0:0:
224,170,31358,1,8,0:0:0:0:
237,81,31658,1,0,1:0:0:0:
237,81,31808,2,0,B|189:68|189:68|88:99,1,150,0|0,0:0|1:0,0:0:0:0:
10,132,32558,1,8,0:0:0:0:
76,192,32858,6,0,L|66:292,1,100,0|8,1:0|0:0,0:0:0:0:
140,341,33458,2,0,L|206:337,1,50,0|0,1:0|0:0,0:0:0:0:
209,297,33758,2,0,L|275:293,1,50,8|0,0:0|0:0,0:0:0:0:
283,255,34058,2,0,P|329:271|377:258,2,100,0|8|0,1:0|0:0|1:0,0:0:0:0:
221,188,34958,2,0,L|224:138,1,50,8|0,0:0|0:0,0:0:0:0:
229,93,35258,6,0,L|329:83,1,100,0|8,1:0|0:0,0:0:0:0:
372,75,35708,1,0,0:0:0:0:
372,75,35858,2,0,P|449:39|455:124,1,200,0|0,1:0|1:0,0:0:0:0:
375,165,36758,1,12,0:0:0:0:
398,251,37058,2,0,L|348:254,1,50,8|8,1:2|1:3,0:0:0:0:
321,290,37358,2,0,L|271:293,1,50,8|8,1:3|1:3,0:0:0:0:
242,328,37658,6,0,P|198:311|154:326,1,94.9999974632264,6|0,1:2|0:0,0:0:0:0:
79,367,38258,2,0,L|69:272,1,94.9999974632264,10|0,0:0|0:0,0:0:0:0:
60,187,38858,1,2,1:2:0:0:
144,200,39158,2,0,B|203:215|203:215|329:177,1,189.999994926453,2|0,1:2|0:0,0:0:0:0:
406,145,40058,6,0,P|420:189|403:232,1,94.9999974632264,2|0,1:2|0:0,0:0:0:0:
353,302,40658,2,0,L|259:292,1,94.9999974632264,10|0,0:0|0:0,0:0:0:0:
173,288,41258,1,2,1:2:0:0:
87,280,41558,2,0,P|69:237|82:192,1,94.9999974632264,2|10,1:2|0:0,0:0:0:0:
136,125,42158,1,0,1:0:0:0:
215,157,42458,6,0,L|310:147,1,94.9999974632264,6|0,1:2|0:0,0:0:0:0:
394,137,43058,2,0,P|408:181|391:224,2,94.9999974632264,10|0|2,0:0|0:0|1:2,0:0:0:0:
329,80,43958,1,2,1:2:0:0:
272,143,44258,2,0,L|178:152,1,94.9999974632264,10|0,0:0|0:0,0:0:0:0:
92,161,44858,6,0,P|74:204|88:248,1,94.9999974632264,2|0,1:2|0:0,0:0:0:0:
161,293,45458,2,0,L|255:302,1,94.9999974632264,10|2,0:0|0:0,0:0:0:0:
340,308,46058,2,0,P|353:263|336:220,1,94.9999974632264,2|2,1:2|1:2,0:0:0:0:
269,165,46658,1,10,0:0:0:0:
347,131,46958,1,2,1:2:0:0:
294,63,47258,6,0,P|249:49|206:66,1,94.9999974632264,6|0,1:2|0:0,0:0:0:0:
185,103,47708,1,0,0:0:0:0:
185,103,47858,2,0,L|176:197,1,94.9999974632264,10|0,0:0|0:0,0:0:0:0:
166,282,48458,2,0,P|210:296|253:279,1,94.9999974632264,2|2,1:2|1:2,0:0:0:0:
285,249,48908,1,0,0:0:0:0:
285,249,49058,2,0,L|379:240,1,94.9999974632264,10|2,0:0|0:0,0:0:0:0:
445,185,49658,6,0,P|462:141|449:97,2,94.9999974632264,2|0|10,1:2|0:0|0:0,0:0:0:0:
379,240,50558,2,0,L|285:249,1,94.9999974632264,0|2,0:0|1:2,0:0:0:0:
113,258,51458,1,10,0:0:0:0:
55,194,51758,1,2,1:2:0:0:
103,123,52058,6,0,P|147:110|190:127,1,94.9999974632264,6|8,1:2|1:2,0:0:0:0:
247,191,52658,2,0,P|290:208|334:195,1,94.9999974632264,8|8,1:2|1:2,0:0:0:0:
390,130,53258,1,8,1:2:0:0:
460,178,53558,1,8,1:2:0:0:
412,248,53858,1,8,1:2:0:0:
476,304,54158,1,8,1:2:0:0:
256,192,54458,12,6,55658,1:2:0:0:
398,85,56858,6,0,L|395:135,1,50,6|0,1:2|0:0,0:0:0:0:
356,158,57158,2,0,L|353:208,1,50,8|0,0:0|0:0,0:0:0:0:
319,237,57458,2,0,P|271:224|225:241,1,100,0|8,1:0|0:0,0:0:0:0:
147,286,58058,2,0,L|137:186,1,100,2|8,1:2|0:0,0:0:0:0:
130,141,58508,1,0,0:0:0:0:
130,141,58658,2,0,P|177:153|223:136,1,100,0|8,1:0|0:0,0:0:0:0:
310,109,59258,6,0,L|300:209,2,100,2|8|0,1:2|0:0|1:0,0:0:0:0:
320,19,60158,1,8,0:0:0:0:
394,69,60458,2,0,P|441:56|487:73,1,100,2|8,1:2|0:0,0:0:0:0:
435,147,61058,1,0,1:0:0:0:
495,213,61358,1,8,0:0:0:0:
419,262,61658,6,0,L|319:252,1,100,6|8,1:2|0:0,0:0:0:0:
274,246,62108,2,0,P|227:262|180:250,1,100,0|0,0:0|0:0,0:0:0:0:
147,218,62558,1,8,0:0:0:0:
106,137,62858,2,0,P|153:124|199:141,1,100,2|8,1:2|0:0,0:0:0:0:
229,174,63308,1,0,0:0:0:0:
229,174,63458,1,0,1:0:0:0:
290,108,63758,1,8,0:0:0:0:
339,183,64058,6,0,L|439:173,1,100,6|8,1:2|0:0,0:0:0:0:
483,253,64658,2,0,L|383:263,1,100,0|8,1:0|0:0,0:0:0:0:
307,310,65258,2,0,P|260:326|213:314,1,100,2|8,1:2|0:0,0:0:0:0:
163,238,65858,1,0,1:0:0:0:
88,288,66158,1,8,0:0:0:0:
69,199,66458,6,0,L|79:99,1,100,6|8,1:2|0:0,0:0:0:0:
88,55,66908,1,0,0:0:0:0:
88,55,67058,2,0,P|135:67|181:50,1,100,0|8,1:0|0:0,0:0:0:0:
263,13,67658,2,0,L|363:23,1,100,2|8,1:2|0:0,0:0:0:0:
409,34,68108,1,0,0:0:0:0:
409,34,68258,2,0,P|397:81|414:127,1,100,0|8,1:0|0:0,0:0:0:0:
415,218,68858,6,0,L|315:208,2,100,2|8|0,1:2|0:0|1:0,0:0:0:0:
504,230,69758,1,8,0:0:0:0:
446,299,70058,2,0,P|399:316|352:304,1,100,2|8,1:2|0:0,0:0:0:0:
265,276,70658,1,0,1:0:0:0:
209,347,70958,1,8,0:0:0:0:
146,283,71258,6,0,P|128:236|140:189,1,100,6|8,1:2|0:0,0:0:0:0:
184,178,71708,2,0,L|284:168,1,100,0|0,0:0|0:0,0:0:0:0:
327,160,72158,1,8,0:0:0:0:
416,147,72458,2,0,L|406:247,1,100,2|8,1:2|0:0,0:0:0:0:
405,294,72908,1,0,0:0:0:0:
405,294,73058,1,0,1:0:0:0:
332,348,73358,1,8,0:0:0:0:
287,269,73658,6,0,P|239:257|193:274,1,100,2|8,1:2|0:0,0:0:0:0:
159,304,74108,2,0,L|149:204,1,100,0|0,0:0|0:0,0:0:0:0:
143,159,74558,1,8,0:0:0:0:
134,70,74858,2,0,P|180:52|227:64,1,100,2|8,1:2|1:2,0:0:0:0:
286,133,75458,1,8,1:2:0:0:
353,73,75758,1,8,1:2:0:0:
384,157,76058,6,0,L|374:257,1,100,6|10,1:2|0:0,0:0:0:0:
290,288,76658,2,0,L|300:188,1,100,10|10,0:0|0:0,0:0:0:0:
215,219,77258,2,0,L|205:319,1,100,10|10,1:2|0:0,0:0:0:0:
125,361,77858,1,10,0:0:0:0:
85,280,78158,1,10,0:0:0:0:
44,199,78458,6,0,P|34:150|54:105,1,100,10|10,1:2|0:0,0:0:0:0:
126,51,79058,1,10,0:0:0:0:
186,117,79358,1,10,0:0:0:0:
230,39,79658,2,0,P|278:29|323:49,1,100,10|10,1:2|0:0,0:0:0:0:
369,127,80258,1,10,0:0:0:0:
448,83,80558,1,10,0:0:0:0:
449,172,80858,6,0,P|469:216|459:265,1,100,10|10,1:2|0:0,0:0:0:0:
380,309,81458,2,0,L|280:299,1,100,10|10,0:0|0:0,0:0:0:0:
225,227,82058,2,0,P|176:217|131:237,1,100,10|10,1:2|0:0,0:0:0:0:
75,308,82658,1,10,0:0:0:0:
38,225,82958,1,10,0:0:0:0:
7,140,83258,6,0,L|107:130,1,100,10|10,1:2|0:0,0:0:0:0:
156,55,83858,2,0,L|256:65,1,100,10|10,0:0|0:0,0:0:0:0:
345,72,84458,2,0,P|364:117|354:165,1,100,10|10,1:2|0:0,0:0:0:0:
289,228,85058,1,10,1:2:0:0:
346,297,85358,1,8,1:2:0:0:
257,311,85658,6,0,P|195:327|259:156,1,400,6|10,1:2|1:3,0:0:0:0:
