osu file format v14

[General]
AudioFilename: audio.mp3
AudioLeadIn: 0
PreviewTime: 56858
Countdown: 0
SampleSet: Soft
StackLeniency: 0.2
Mode: 0
LetterboxInBreaks: 0
WidescreenStoryboard: 0

[Editor]
Bookmarks: 458,18458,28058,37658,47258,56858,71258,86858
DistanceSpacing: 1.3
BeatDivisor: 8
GridSize: 32
TimelineZoom: 2.7

[Metadata]
Title:Kimi no Bouken (TV Size)
TitleUnicode:キミの冒険 (TV Size)
Artist:Okazaki Taiiku
ArtistUnicode:岡崎体育
Creator:bite you death
Version:pre nerf our adventure
Source:ポケットモンスター サン&ムーン
Tags:byd Alola Pokemon Sun & Moon Ultra Adventures Opening Theme Song Male Vocal
BeatmapID:1871951
BeatmapSetID:895904

[Difficulty]
HPDrainRate:5
CircleSize:4.2
OverallDifficulty:9.4
ApproachRate:9.6
SliderMultiplier:1.8
SliderTickRate:1

[Events]
//Background and Video events
0,0,"our2.png",0,0
Video,0,"video.avi"
//Break Periods
//Storyboard Layer 0 (Background)
//Storyboard Layer 1 (Fail)
//Storyboard Layer 2 (Pass)
//Storyboard Layer 3 (Foreground)
//Storyboard Sound Samples

[TimingPoints]
458,300,4,2,2,40,1,0
458,-133.333333333333,4,2,2,40,0,0
5258,-111.111111111111,4,2,2,50,0,0
10358,-111.111111111111,4,2,2,40,0,0
10958,-166.666666666666,4,2,2,40,0,0
11258,-111.111111111111,4,2,2,60,0,0
18458,-99.9999999999999,4,2,2,55,0,0
37658,-133.333333333333,4,2,2,45,0,0
52058,-99.9999999999999,4,2,2,60,0,0
55658,-125,4,2,2,60,0,0
56858,-90.9090909090909,4,2,2,70,0,1
80858,-83.3333333333333,4,2,2,80,0,1
85658,-100,4,2,2,70,0,0

[Colours]
Combo1 : 0,155,0
Combo2 : 132,103,253
Combo3 : 254,116,116
SliderBorder : 255,255,255
SliderTrackOverride : 15,90,100

[HitObjects]
290,177,458,5,2,0:0:0:0:
256,272,608,1,2,0:0:0:0:
224,100,758,1,2,0:0:0:0:
322,349,908,1,2,0:0:0:0:
389,158,1058,6,0,B|474:155|431:213|537:200,1,135.000005149842,2|0,0:0|0:0,0:0:0:0:
219,89,1508,6,0,P|156:109|128:159,1,101.250003862381,2|0,0:0|0:0,0:0:0:0:
106,214,1808,1,2,0:0:0:0:
83,70,1958,1,2,0:0:0:0:
270,188,2108,1,2,0:0:0:0:
75,290,2258,2,0,P|41:278|-4:261,1,67.5000025749208,2|0,0:0|0:0,0:0:0:0:
281,178,2558,2,0,P|315:190|360:207,1,67.5000025749208,2|0,0:0|0:0,0:0:0:0:
482,80,2858,6,0,P|450:87|425:109,1,67.5000025749208,2|0,0:0|0:0,0:0:0:0:
362,52,3158,2,0,P|343:79|341:112,1,67.5000025749208,2|0,0:0|0:0,0:0:0:0:
249,320,3458,6,0,P|255:287|277:262,1,67.5000025749208,2|0,0:0|0:0,0:0:0:0:
220,199,3758,2,0,P|247:180|280:178,1,67.5000025749208,2|0,0:0|0:0,0:0:0:0:
452,346,4058,6,0,B|400:338|400:338|387:327|387:327|370:333|370:333|314:324,1,135.000005149842,2|0,0:0|0:0,0:0:0:0:
220,199,4658,2,0,P|281:188|327:255,1,135.000005149842,2|0,0:0|0:0,0:0:0:0:
148,366,5258,6,0,P|139:302|124:221,1,121.499996292114,2|0,3:2|0:0,0:0:0:0:
120,216,5558,1,10,0:0:0:0:
225,308,5708,2,0,L|304:325,1,80.9999975280763,2|0,0:0|3:0,0:0:0:0:
110,185,6008,2,0,L|30:202,1,80.9999975280763,2|8,0:0|0:0,0:0:0:0:
253,85,6308,6,0,P|303:92|341:171,1,121.499996292114,2|0,0:0|0:0,0:0:0:0:
343,177,6608,1,2,0:0:0:0:
429,103,6758,2,0,L|413:19,1,80.9999975280763,10|0,0:0|0:0,0:0:0:0:
264,163,7058,2,0,L|248:247,1,80.9999975280763,2|0,3:2|0:0,0:0:0:0:
99,103,7358,2,0,L|83:19,1,80.9999975280763,10|0,0:0|0:0,0:0:0:0:
34,220,7658,5,2,3:2:0:0:
182,133,7808,1,0,0:0:0:0:
282,361,7958,5,10,0:0:0:0:
117,267,8108,1,0,0:0:0:0:
280,46,8258,5,2,3:2:0:0:
281,255,8408,1,0,0:0:0:0:
156,5,8558,5,10,0:0:0:0:
467,108,8708,1,0,0:0:0:0:
34,315,8858,5,6,3:2:0:0:
38,296,10358,5,0,0:0:0:0:
56,276,10433,1,0,0:0:0:0:
80,265,10508,1,0,0:0:0:0:
133,270,10583,1,0,0:0:0:0:
170,308,10658,5,0,0:0:0:0:
232,337,10733,1,0,0:0:0:0:
298,317,10808,1,0,0:0:0:0:
333,257,10883,1,0,0:0:0:0:
318,189,10958,6,0,P|321:146|347:110,1,80.9999975280763
464,52,11258,6,0,B|410:59|410:59|368:30|368:30|299:40,1,161.999995056153,6|0,3:2|0:0,0:0:0:0:
151,58,11708,1,0,0:0:0:0:
341,114,11858,1,10,0:0:0:0:
241,128,12008,2,0,L|230:44,1,80.9999975280763
404,194,12308,6,0,P|393:235|390:276,1,80.9999975280763,2|0,3:2|0:0,0:0:0:0:
165,156,12608,2,0,P|206:144|243:126,1,80.9999975280763,2|0,3:2|0:0,0:0:0:0:
252,381,12908,1,2,3:2:0:0:
168,318,13058,1,8,0:0:0:0:
341,114,13208,5,2,3:2:0:0:
264,276,13358,1,2,0:0:0:0:
278,34,13508,1,2,3:2:0:0:
404,194,13658,5,2,3:2:0:0:
240,127,13808,2,0,B|149:115|188:190|67:168,1,161.999995056153,0|0,3:0|3:0,0:0:0:0:
22,119,14183,1,0,3:0:0:0:
22,119,14258,1,10,0:0:0:0:
0,287,14408,2,0,P|33:260|90:248,1,80.9999975280763,0|0,3:0|0:0,0:0:0:0:
309,351,14708,6,0,B|271:366|271:366|233:351,1,80.9999975280763,2|0,3:2|0:0,0:0:0:0:
365,129,15008,2,0,B|396:154|396:154|403:193,1,80.9999975280763,2|0,3:2|0:0,0:0:0:0:
145,192,15308,1,2,3:2:0:0:
203,107,15458,1,8,0:0:0:0:
268,283,15608,1,2,3:2:0:0:
101,100,15758,1,2,0:0:0:0:
81,356,15908,1,2,3:2:0:0:
145,192,16058,5,2,3:2:0:0:
268,283,16208,2,0,P|347:263|434:243,1,161.999995056153,0|0,3:0|3:0,0:0:0:0:
512,268,16583,1,0,3:0:0:0:
512,268,16658,1,10,0:0:0:0:
433,156,16808,2,0,L|349:135,1,80.9999975280763
107,42,17108,6,0,P|158:72|175:128,1,121.499996292114,2|0,3:2|0:0,0:0:0:0:
134,221,17408,1,2,3:2:0:0:
275,118,17558,5,10,0:0:0:0:
33,231,17708,1,2,0:0:0:0:
230,354,17858,5,10,0:0:0:0:
75,139,18008,1,2,0:0:0:0:
380,246,18158,5,8,0:0:0:0:
426,209,18233,1,8,0:0:0:0:
444,153,18308,1,8,0:0:0:0:
429,94,18383,1,8,0:0:0:0:
353,44,18458,6,0,B|280:58|280:58|258:90|258:90|174:103,1,180,6|8,3:2|0:0,0:0:0:0:
191,100,18908,1,2,0:0:0:0:
93,229,19058,2,0,P|166:248|240:157,1,180,2|10,3:2|0:0,0:0:0:0:
67,4,19508,6,0,P|88:43|93:95,1,90,2|0,0:0|3:0,0:0:0:0:
256,70,19808,1,2,0:0:0:0:
256,70,19958,2,0,P|214:86|177:122,1,90,10|2,0:0|0:0,0:0:0:0:
64,271,20258,2,0,B|101:298|101:298|171:275,1,90,2|0,3:2|0:0,0:0:0:0:
181,117,20558,2,0,L|198:217,1,90,10|2,0:0|0:0,0:0:0:0:
62,173,20858,5,2,3:2:0:0:
282,245,21008,1,2,0:0:0:0:
62,173,21158,1,10,0:0:0:0:
282,245,21308,1,2,0:0:0:0:
127,372,21458,2,0,L|142:283,1,90,2|2,3:2|0:0,0:0:0:0:
273,169,21758,2,0,L|288:258,1,90,8|0,0:0|0:0,0:0:0:0:
341,65,22058,5,0,3:2:0:0:
147,130,22208,1,0,0:0:0:0:
341,65,22358,1,8,0:0:0:0:
147,130,22508,1,0,0:0:0:0:
288,258,22658,2,0,L|273:169,1,90,2|2,3:2|0:0,0:0:0:0:
240,57,22958,1,10,0:0:0:0:
273,277,23108,1,2,0:0:0:0:
500,38,23258,6,0,B|461:12|461:12|400:21,1,90,6|0,3:2|0:0,0:0:0:0:
411,264,23558,1,10,0:0:0:0:
322,102,23708,1,2,0:0:0:0:
256,288,23858,1,2,3:2:0:0:
328,91,24008,1,2,0:0:0:0:
99,239,24158,2,0,P|159:217|189:217,1,90,10|2,0:0|0:0,0:0:0:0:
436,342,24458,6,0,B|393:348|393:348|354:322,1,90,2|0,3:2|0:0,0:0:0:0:
372,169,24758,1,10,0:0:0:0:
372,169,24908,2,0,P|404:224|409:253,1,90,2|0,0:0|3:0,0:0:0:0:
180,133,25208,2,0,P|191:89|216:52,1,90,2|8,0:0|0:0,0:0:0:0:
111,56,25508,1,2,0:0:0:0:
266,124,25658,6,0,P|293:143|278:114,1,90,2|0,3:2|0:0,0:0:0:0:
229,217,25958,6,0,P|241:247|242:215,1,90,10|0,0:0|0:0,0:0:0:0:
141,264,26258,6,0,P|144:295|151:271,1,90,2|0,3:2|0:0,0:0:0:0:
42,242,26558,6,0,P|24:268|45:254,1,90,10|0,0:0|0:0,0:0:0:0:
198,39,26858,6,0,L|229:216,2,180,2|8|2,3:2|0:0|3:2,0:0:0:0:
110,186,27608,1,0,0:0:0:0:
52,125,27758,2,0,B|25:100|25:100|84:117,1,90,8|0,0:0|0:0,0:0:0:0:
229,216,28058,6,0,B|328:230|290:146|431:168,1,180,6|10,3:2|0:0,0:0:0:0:
395,164,28508,1,0,0:0:0:0:
239,115,28658,1,2,3:2:0:0:
381,269,28808,2,0,P|428:258|480:235,1,90,2|8,0:0|0:0,0:0:0:0:
254,26,29108,6,0,L|234:139,1,90,2|0,0:0|3:0,0:0:0:0:
395,164,29408,1,2,0:0:0:0:
395,164,29558,2,0,L|375:51,1,90,10|0,0:0|0:0,0:0:0:0:
149,98,29858,1,2,3:2:0:0:
307,169,30008,1,2,0:0:0:0:
164,9,30158,1,10,0:0:0:0:
379,75,30308,1,0,0:0:0:0:
131,199,30458,6,0,L|26:182,1,90,2|2,3:2|0:0,0:0:0:0:
127,341,30758,2,0,L|232:324,1,90,8|0,0:0|0:0,0:0:0:0:
307,169,31058,2,0,L|202:152,1,90,0|0,3:2|0:0,0:0:0:0:
303,311,31358,2,0,L|408:294,1,90,8|0,0:0|0:0,0:0:0:0:
500,148,31658,5,2,3:2:0:0:
447,353,31808,1,2,0:0:0:0:
390,209,31958,2,0,L|495:226,1,90,8|0,0:0|0:0,0:0:0:0:
369,59,32258,2,0,L|264:76,1,90,0|0,3:0|0:0,0:0:0:0:
144,196,32558,2,0,P|199:177|221:145,1,90,10|0,0:0|0:0,0:0:0:0:
160,33,32858,6,0,B|131:71|131:71|144:114,1,90,2|0,3:2|0:0,0:0:0:0:
273,274,33158,2,0,B|302:236|302:236|289:193,1,90,10|0,0:0|0:0,0:0:0:0:
158,331,33458,1,2,3:2:0:0:
217,154,33608,1,2,0:0:0:0:
244,360,33758,1,10,0:0:0:0:
144,196,33908,1,2,0:0:0:0:
333,343,34058,6,0,L|436:320,1,90,2|0,3:2|0:0,0:0:0:0:
304,173,34358,2,0,L|201:150,1,90,10|0,0:0|0:0,0:0:0:0:
336,351,34658,2,0,L|439:328,1,90,2|0,3:2|0:0,0:0:0:0:
307,165,34958,1,10,0:0:0:0:
273,274,35108,1,2,0:0:0:0:
416,140,35258,6,0,P|368:71|263:61,1,180,2|8,3:2|0:0,0:0:0:0:
206,110,35708,1,2,0:0:0:0:
105,2,35858,2,0,L|215:24,1,90,2|0,3:2|0:0,0:0:0:0:
218,200,36158,2,0,L|108:222,1,90,8|0,0:0|0:0,0:0:0:0:
278,56,36458,5,0,3:0:0:0:
362,260,36608,1,0,0:0:0:0:
422,116,36758,5,12,0:0:0:0:
218,200,36908,1,0,0:0:0:0:
404,362,37058,5,8,0:0:0:0:
320,158,37208,1,8,0:0:0:0:
200,327,37358,5,8,0:3:0:0:
362,260,37508,1,8,0:3:0:0:
486,374,37658,6,0,L|472:295,1,67.5000025749208,6|2,3:2|0:0,0:0:0:0:
274,176,37958,2,0,L|263:243,1,67.5000025749208,2|2,0:0|0:0,0:0:0:0:
476,371,38258,2,0,L|462:292,1,67.5000025749208,10|2,0:0|0:0,0:0:0:0:
464,304,38558,1,2,0:2:0:0:
298,341,38708,1,10,0:0:0:0:
278,162,38858,5,2,3:2:0:0:
379,299,39008,1,8,0:0:0:0:
132,220,39158,1,2,3:2:0:0:
132,220,39458,2,0,L|161:82,1,135.000005149842,8|0,0:0|0:0,0:0:0:0:
88,30,39908,1,8,0:0:0:0:
192,281,40058,6,0,P|228:265|260:263,1,67.5000025749208,2|2,3:2|0:0,0:0:0:0:
444,228,40358,2,0,P|411:224|381:210,1,67.5000025749208,2|2,0:0|0:0,0:0:0:0:
196,271,40658,2,0,P|232:255|264:253,1,67.5000025749208,10|2,0:0|0:0,0:0:0:0:
259,252,40958,1,2,0:0:0:0:
199,169,41108,1,10,0:0:0:0:
387,75,41258,5,2,3:2:0:0:
399,325,41408,1,10,0:0:0:0:
287,104,41558,1,2,3:2:0:0:
287,104,41858,2,0,P|208:86|134:86,1,135.000005149842,8|2,0:0|3:2,0:0:0:0:
84,256,42458,6,0,L|167:235,1,67.5000025749208,6|0,3:2|0:0,0:0:0:0:
153,84,42758,2,0,L|181:146,1,67.5000025749208
162,247,43058,2,0,L|245:226,1,67.5000025749208,10|0,0:0|0:0,0:0:0:0:
224,52,43358,2,0,L|252:114,1,67.5000025749208,2|8,0:0|0:0,0:0:0:0:
364,350,43658,6,0,L|430:367,1,67.5000025749208,2|8,3:2|0:0,0:0:0:0:
360,195,43958,2,0,L|333:257,1,67.5000025749208,2|0,3:2|0:0,0:0:0:0:
286,341,44258,2,0,L|352:358,1,67.5000025749208,10|0,0:0|0:0,0:0:0:0:
289,163,44558,2,0,L|262:225,1,67.5000025749208,2|8,0:0|0:0,0:0:0:0:
475,58,44858,6,0,P|421:37|362:111,1,135.000005149842,2|0,3:2|0:0,0:0:0:0:
365,82,45308,1,2,0:0:0:0:
484,279,45458,2,0,P|454:262|421:254,1,67.5000025749208,8|0,0:0|0:0,0:0:0:0:
490,184,45758,1,2,0:0:0:0:
430,347,45908,1,10,0:0:0:0:
313,137,46058,5,0,3:0:0:0:
421,254,46208,1,8,0:0:0:0:
439,44,46358,2,0,P|405:50|376:65,1,67.5000025749208,0|0,3:0|0:0,0:0:0:0:
168,155,46658,2,0,P|201:161|230:176,1,67.5000025749208,8|0,0:0|0:0,0:0:0:0:
110,71,46958,1,0,3:0:0:0:
171,265,47108,1,8,0:0:0:0:
267,21,47258,6,0,L|278:87,1,67.5000025749208,6|2,3:2|0:0,0:0:0:0:
72,229,47558,2,0,L|83:163,1,67.5000025749208,2|2,0:0|0:0,0:0:0:0:
276,20,47858,1,10,0:0:0:0:
297,187,48008,2,0,L|231:175,1,67.5000025749208,2|0,0:0|0:0,0:0:0:0:
374,120,48308,1,8,0:0:0:0:
282,268,48458,5,2,3:2:0:0:
278,87,48608,1,8,0:0:0:0:
378,301,48758,2,0,L|356:383,1,67.5000025749208,2|2,3:2|0:0,0:0:0:0:
186,235,49058,2,0,L|164:153,1,67.5000025749208,10|0,0:0|0:0,0:0:0:0:
377,37,49358,2,0,L|359:102,1,67.5000025749208,2|8,0:0|0:0,0:0:0:0:
194,37,49658,6,0,P|153:47|121:78,1,67.5000025749208,2|0,3:2|0:0,0:0:0:0:
75,2,49958,2,0,P|53:38|52:82,1,67.5000025749208,2|0,0:0|0:0,0:0:0:0:
219,265,50258,2,0,P|209:224|178:192,1,67.5000025749208,10|0,0:0|0:0,0:0:0:0:
254,146,50558,1,2,0:0:0:0:
254,146,50708,6,0,P|217:124|173:123,1,67.5000025749208,8|2,0:0|3:2,0:0:0:0:
74,292,51008,2,0,P|106:285|134:266,1,67.5000025749208,8|0,0:0|3:0,0:0:0:0:
134,266,51458,5,10,0:0:0:0:
194,37,51758,1,2,3:2:0:0:
325,361,52058,6,0,B|443:333,1,90,6|0,3:2|0:0,0:0:0:0:
193,178,52358,2,0,B|75:150,1,90,8|0,0:0|0:0,0:0:0:0:
409,106,52658,6,0,B|426:65|426:65|412:20,1,90,10|0,0:0|0:0,0:0:0:0:
71,188,52958,2,0,B|49:229|49:229|59:272,1,90,8|0,0:0|0:0,0:0:0:0:
381,190,53258,5,10,0:2:0:0:
139,240,53408,1,8,0:0:0:0:
440,256,53558,5,10,0:0:0:0:
80,173,53708,1,8,0:0:0:0:
468,172,53858,5,10,0:0:0:0:
52,258,54008,1,8,0:0:0:0:
409,106,54158,5,10,0:0:0:0:
111,324,54308,1,8,0:0:0:0:
153,8,54458,5,14,3:2:0:0:
190,6,54533,1,8,0:0:0:0:
225,19,54608,1,8,0:0:0:0:
252,44,54683,1,8,0:0:0:0:
269,77,54758,1,8,0:0:0:0:
271,114,54833,1,8,0:0:0:0:
225,198,54908,5,14,3:2:0:0:
260,150,54983,1,8,0:0:0:0:
316,129,55058,1,8,0:0:0:0:
374,141,55133,1,8,0:0:0:0:
417,182,55208,1,8,0:0:0:0:
432,239,55283,1,8,0:0:0:0:
386,333,55358,5,14,3:2:0:0:
305,316,55433,1,8,0:0:0:0:
225,300,55508,1,8,0:0:0:0:
146,284,55583,1,8,0:0:0:0:
67,268,55658,6,0,P|171:358|135:205,1,396,6|0,3:2|0:0,0:0:0:0:
63,160,56558,5,2,0:0:0:0:
55,143,56608,1,2,0:0:0:0:
53,125,56658,1,2,0:0:0:0:
56,108,56708,1,2,0:0:0:0:
65,92,56758,1,2,0:0:0:0:
78,80,56808,1,2,0:0:0:0:
94,72,56858,6,0,L|223:84,1,99.0000030212403,6|2,3:2|0:0,0:0:0:0:
365,37,57158,1,10,0:0:0:0:
158,188,57308,1,2,0:0:0:0:
464,13,57458,2,0,P|450:88|446:127,1,99.0000030212403,2|0,3:2|0:0,0:0:0:0:
272,6,57758,1,8,0:0:0:0:
395,222,57908,6,0,B|458:236|491:184,1,99.0000030212403,2|0,0:0|3:0,0:0:0:0:
297,93,58208,1,2,0:0:0:0:
370,332,58358,1,10,0:0:0:0:
421,144,58508,1,2,0:0:0:0:
169,332,58658,2,0,B|208:383|266:364,1,99.0000030212403,2|0,3:2|0:0,0:0:0:0:
157,335,58958,1,10,0:0:0:0:
376,347,59108,1,0,0:0:0:0:
45,384,59258,6,0,L|66:259,1,99.0000030212403,2|0,3:2|0:0,0:0:0:0:
278,187,59558,2,0,L|296:285,1,99.0000030212403,10|0,0:0|0:0,0:0:0:0:
1,221,59858,1,2,3:2:0:0:
321,111,60008,1,0,0:0:0:0:
150,366,60158,1,10,0:0:0:0:
39,14,60308,1,0,0:0:0:0:
397,165,60458,6,0,L|415:59,1,99.0000030212403,2|0,3:2|0:0,0:0:0:0:
297,10,60758,1,8,0:0:0:0:
418,155,60908,1,0,0:0:0:0:
183,211,61058,2,0,P|138:193|89:186,1,99.0000030212403,2|0,3:2|0:0,0:0:0:0:
359,335,61358,2,0,L|342:237,1,99.0000030212403,10|0,0:0|0:0,0:0:0:0:
64,364,61658,6,0,P|112:367|161:358,1,99.0000030212403,6|0,3:2|0:0,0:0:0:0:
177,192,61958,1,10,0:0:0:0:
290,375,62108,1,2,0:0:0:0:
187,108,62258,2,0,P|132:116|102:158,1,99.0000030212403,0|2,3:0|0:0,0:0:0:0:
306,244,62558,1,8,0:0:0:0:
350,34,62708,1,2,0:0:0:0:
508,291,62858,5,0,3:0:0:0:
449,13,63008,1,2,0:0:0:0:
418,341,63158,1,10,0:0:0:0:
150,151,63308,1,2,0:0:0:0:
461,211,63458,2,0,P|445:164|443:114,1,99.0000030212403,2|0,3:2|0:0,0:0:0:0:
275,7,63758,2,0,P|338:23|370:77,1,99.0000030212403,10|0,0:0|0:0,0:0:0:0:
128,228,64058,6,0,L|30:245,1,99.0000030212403,2|0,3:2|0:0,0:0:0:0:
352,278,64358,2,0,L|449:295,1,99.0000030212403,10|0,0:0|0:0,0:0:0:0:
116,144,64658,6,0,L|18:161,1,99.0000030212403,2|0,3:2|0:0,0:0:0:0:
363,193,64958,2,0,L|461:211,1,99.0000030212403,10|0,0:0|0:0,0:0:0:0:
231,67,65258,5,2,3:2:0:0:
324,267,65408,1,0,0:0:0:0:
145,259,65558,1,8,0:0:0:0:
367,183,65708,1,2,0:0:0:0:
231,67,65858,5,2,3:2:0:0:
214,317,66008,1,0,0:0:0:0:
464,291,66158,1,8,0:0:0:0:
139,36,66308,1,0,0:0:0:0:
106,367,66458,6,0,L|121:242,1,99.0000030212403,6|2,3:2|0:0,0:0:0:0:
303,352,66758,1,10,0:0:0:0:
15,303,66908,1,2,0:0:0:0:
173,192,67058,2,0,P|119:171|73:168,1,99.0000030212403,2|0,3:2|0:0,0:0:0:0:
153,84,67358,1,8,0:0:0:0:
318,249,67508,6,0,P|372:270|418:273,1,99.0000030212403,2|0,0:0|3:0,0:0:0:0:
216,339,67808,1,2,0:0:0:0:
412,273,67958,1,10,0:0:0:0:
160,205,68108,1,2,0:0:0:0:
385,74,68258,6,0,L|370:199,1,99.0000030212403,2|0,3:2|0:0,0:0:0:0:
380,59,68558,1,10,0:0:0:0:
504,286,68708,1,0,0:0:0:0:
290,91,68858,6,0,P|232:91|179:69,1,99.0000030212403,2|0,3:2|0:0,0:0:0:0:
57,263,69158,2,0,P|107:234|164:226,1,99.0000030212403,10|0,0:0|0:0,0:0:0:0:
78,0,69458,1,2,3:2:0:0:
229,190,69608,1,0,0:0:0:0:
392,15,69758,1,10,0:0:0:0:
220,279,69908,1,0,0:0:0:0:
399,135,70058,6,0,P|355:112|306:105,1,99.0000030212403,2|0,3:2|0:0,0:0:0:0:
323,339,70358,2,0,L|304:236,1,99.0000030212403,8|0,0:0|0:0,0:0:0:0:
202,372,70658,1,2,3:2:0:0:
9,315,70808,1,0,0:0:0:0:
242,170,70958,1,10,0:0:0:0:
126,296,71108,1,0,0:0:0:0:
224,62,71258,6,0,P|282:78|317:98,1,99.0000030212403,6|0,3:2|0:0,0:0:0:0:
38,161,71558,1,10,0:0:0:0:
151,206,71708,2,0,P|198:193|242:170,1,99.0000030212403,2|0,0:0|3:0,0:0:0:0:
39,51,72008,1,2,0:0:0:0:
126,296,72158,1,10,0:0:0:0:
315,97,72308,6,0,P|373:113|408:133,1,99.0000030212403,2|0,0:0|3:0,0:0:0:0:
151,206,72608,1,2,0:0:0:0:
300,0,72758,1,10,0:0:0:0:
216,272,72908,1,2,0:0:0:0:
39,51,73058,2,0,P|86:23|157:21,1,99.0000030212403,2|0,3:2|0:0,0:0:0:0:
126,296,73358,2,0,P|77:287|35:261,1,99.0000030212403,10|0,0:0|0:0,0:0:0:0:
261,151,73658,6,0,B|373:158|324:230|443:228,1,198.000006042481,6|8,3:2|0:0,0:0:0:0:
230,0,74108,2,0,B|220:72|220:72|182:100|182:100|171:185,1,198.000006042481,2|0,0:0|0:0,0:0:0:0:
290,340,74558,2,0,L|274:230,1,99.0000030212403,10|0,0:0|0:0,0:0:0:0:
384,82,74858,5,6,3:2:0:0:
172,177,75008,1,0,0:0:0:0:
446,190,75158,1,8,0:0:0:0:
110,69,75308,1,0,0:0:0:0:
369,360,75458,5,8,0:0:0:0:
383,323,75533,1,8,0:0:0:0:
382,284,75608,1,10,0:0:0:0:
363,249,75683,1,8,0:0:0:0:
330,225,75758,1,10,0:0:0:0:
261,191,75833,1,8,0:0:0:0:
238,117,75908,1,10,0:0:0:0:
273,48,75983,1,8,0:0:0:0:
348,27,76058,5,6,3:2:0:0:
78,74,76208,1,0,0:0:0:0:
404,177,76358,5,8,0:0:0:0:
103,150,76508,1,0,0:0:0:0:
420,352,76658,5,8,0:0:0:0:
108,237,76808,1,0,0:0:0:0:
506,54,76958,5,10,0:0:0:0:
258,356,77108,1,2,0:0:0:0:
169,0,77258,5,10,0:0:0:0:
402,328,77408,1,2,0:0:0:0:
497,25,77558,6,0,L|384:48,1,99.0000030212403,10|0,0:0|0:0,0:0:0:0:
35,321,77858,2,0,L|148:344,1,99.0000030212403,8|0,0:0|0:0,0:0:0:0:
332,4,78158,5,10,0:0:0:0:
200,300,78308,1,2,0:0:0:0:
92,14,78458,5,6,3:2:0:0:
406,164,78608,1,0,0:0:0:0:
113,384,78758,5,8,0:0:0:0:
85,37,78908,1,0,0:0:0:0:
422,180,79058,5,8,0:0:0:0:
137,378,79208,1,0,0:0:0:0:
310,29,79358,5,10,0:0:0:0:
426,364,79508,1,0,0:0:0:0:
408,14,79658,5,10,0:0:0:0:
336,378,79808,1,0,0:0:0:0:
98,72,79958,5,10,0:0:0:0:
449,191,80108,1,2,0:0:0:0:
96,202,80258,5,8,0:0:0:0:
482,71,80408,1,0,0:0:0:0:
159,358,80558,6,0,L|41:338,1,99.0000030212403,10|0,0:0|0:0,0:0:0:0:
284,10,80858,5,4,3:2:0:0:
431,373,81008,1,0,0:0:0:0:
446,0,81158,5,8,0:0:0:0:
279,373,81308,1,0,0:0:0:0:
204,16,81458,5,8,0:0:0:0:
355,335,81608,1,0,0:0:0:0:
364,4,81758,5,8,0:0:0:0:
203,335,81908,1,0,0:0:0:0:
124,22,82058,5,4,3:2:0:0:
279,373,82208,1,0,0:0:0:0:
364,4,82358,5,8,0:0:0:0:
127,373,82508,1,0,0:0:0:0:
44,28,82658,5,8,0:0:0:0:
425,288,82808,1,0,0:0:0:0:
20,252,82958,5,8,0:0:0:0:
435,52,83108,1,0,0:0:0:0:
0,384,83258,5,12,3:2:0:0:
124,22,83408,1,0,0:0:0:0:
455,298,83558,5,8,3:2:0:0:
55,161,83708,1,0,0:0:0:0:
512,112,83858,5,8,3:2:0:0:
6,257,84008,1,0,0:0:0:0:
512,362,84158,5,10,3:2:0:0:
6,65,84308,1,0,0:0:0:0:
249,375,84458,6,0,P|335:311|468:260,1,215.999993408203,14|8,3:2|3:2,0:0:0:0:
173,75,84908,2,0,P|128:40|77:18,1,107.999996704102,2|8,0:0|3:2,0:0:0:0:
126,242,85208,1,8,0:0:0:0:
178,251,85283,1,8,0:0:0:0:
227,230,85358,1,8,0:0:0:0:
256,185,85433,1,8,0:0:0:0:
334,147,85508,1,8,0:0:0:0:
413,183,85583,1,8,0:0:0:0:
434,268,85658,5,6,3:2:0:0:
38,82,86808,1,0,0:0:0:0:
42,73,86858,5,4,3:0:0:0:
