osu file format v14

[General]
AudioFilename: audio.mp3
AudioLeadIn: 0
PreviewTime: 56858
Countdown: 0
SampleSet: Soft
StackLeniency: 0.7
Mode: 0
LetterboxInBreaks: 0
WidescreenStoryboard: 0

[Editor]
Bookmarks: 458,18458,28058,37658,47258,56858,71258,86858
DistanceSpacing: 1.1
BeatDivisor: 4
GridSize: 32
TimelineZoom: 2.7

[Metadata]
Title:Kimi no Bouken (TV Size)
TitleUnicode:キミの冒険 (TV Size)
Artist:Okazaki Taiiku
ArtistUnicode:岡崎体育
Creator:bite you death
Version:Insane
Source:ポケットモンスター サン&ムーン
Tags:byd Alola Pokemon Sun & Moon Ultra Adventures Opening Theme Song Male Vocal
BeatmapID:1871948
BeatmapSetID:895904

[Difficulty]
HPDrainRate:5
CircleSize:3.6
OverallDifficulty:7
ApproachRate:8.7
SliderMultiplier:1.6
SliderTickRate:1

[Events]
//Background and Video events
Video,0,"video.avi"
0,0,"rowlet.jpg",0,0
//Break Periods
//Storyboard Layer 0 (Background)
//Storyboard Layer 1 (Fail)
//Storyboard Layer 2 (Pass)
//Storyboard Layer 3 (Foreground)
//Storyboard Sound Samples

[TimingPoints]
458,300,4,2,2,40,1,0
458,-133.333333333333,4,2,2,40,0,0
5258,-111.111111111111,4,2,2,50,0,0
8858,-142.857142857143,4,2,2,50,0,0
10358,-111.111111111111,4,2,2,40,0,0
10658,-142.857142857142,4,2,2,40,0,0
11258,-111.111111111111,4,2,2,60,0,0
18458,-99.9999999999999,4,2,2,60,0,0
37658,-142.857142857143,4,2,2,45,0,0
52058,-99.9999999999999,4,2,2,55,0,0
56558,-133.333333333333,4,2,2,40,0,0
56858,-90.9090909090909,4,2,2,70,0,1
80858,-90.9090909090909,4,2,2,80,0,1
85658,-133.333333333333,4,2,2,50,0,0

[Colours]
Combo1 : 0,155,0
Combo2 : 132,103,253
Combo3 : 254,116,116
SliderBorder : 255,255,255
SliderTrackOverride : 15,90,100

[HitObjects]
241,129,458,6,0,L|326:116,1,60.0000022888184,2|2,0:0|0:0,0:0:0:0:
173,214,758,2,0,L|88:201,1,60.0000022888184,2|2,0:0|0:0,0:0:0:0:
281,231,1058,2,0,P|328:273|316:343,1,120.000004577637,2|0,0:0|0:0,0:0:0:0:
326,326,1508,6,0,P|368:279|438:290,1,120.000004577637,2|2,0:0|0:0,0:0:0:0:
494,332,1958,1,2,0:0:0:0:
494,332,2108,1,2,0:0:0:0:
420,251,2258,2,0,P|426:199|449:115,1,120.000004577637,2|2,0:0|0:0,0:0:0:0:
354,22,2858,6,0,B|281:18|310:66|226:57,3,120.000004577637,2|2|2|2,0:0|0:0|0:0|0:0,0:0:0:0:
131,10,4058,6,0,L|169:140,1,120.000004577637,2|0,0:0|0:0,0:0:0:0:
29,226,4658,2,0,L|67:96,1,120.000004577637,2|0,0:0|0:0,0:0:0:0:
135,232,5108,1,0,0:0:0:0:
135,232,5258,6,0,B|209:243|194:188|277:203,1,143.999995605469,2|10,3:2|0:0,0:0:0:0:
324,306,5708,2,0,P|289:305|244:282,1,71.9999978027344,2|0,0:0|3:0,0:0:0:0:
342,141,6008,2,0,P|358:171|361:221,1,71.9999978027344,2|8,0:0|0:0,0:0:0:0:
437,328,6308,6,0,P|454:255|487:159,1,143.999995605469,2|2,0:0|0:0,0:0:0:0:
428,106,6758,2,0,P|419:69|402:21,1,71.9999978027344,10|0,0:0|0:0,0:0:0:0:
265,81,7058,2,0,P|253:115|245:150,1,71.9999978027344,2|0,3:2|0:0,0:0:0:0:
427,194,7358,2,0,P|418:157|401:109,1,71.9999978027344,10|0,0:0|0:0,0:0:0:0:
266,237,7658,6,0,P|228:239|155:162,1,143.999995605469,2|10,3:2|0:0,0:0:0:0:
183,73,8108,1,0,0:0:0:0:
125,165,8258,2,0,P|87:160|50:148,1,71.9999978027344,2|0,3:2|0:0,0:0:0:0:
201,61,8558,2,0,P|235:50|271:46,1,71.9999978027344,10|0,0:0|0:0,0:0:0:0:
419,173,8858,6,0,B|361:159|361:159|342:142|342:142|313:149|313:149|252:136,1,167.999994873047,6|2,3:2|0:0,0:0:0:0:
261,137,9458,2,0,P|296:216|174:168,1,307.999990600586,2|0,0:0|0:0,0:0:0:0:
183,77,10358,6,0,P|203:56|220:45,3,35.9999989013672
261,137,10658,6,0,B|350:141|321:73|440:102,1,167.999994873047
476,166,11258,6,0,L|440:329,1,143.999995605469,6|0,3:2|0:0,0:0:0:0:
368,221,11708,1,0,0:0:0:0:
285,353,11858,1,8,0:0:0:0:
285,353,12008,2,0,L|371:334,1,71.9999978027344
238,209,12308,6,0,P|177:212|140:298,2,143.999995605469,2|2|2,3:2|3:2|3:2,0:0:0:0:
325,157,13058,2,0,L|410:179,1,71.9999978027344,8|2,0:0|0:0,0:0:0:0:
457,55,13358,2,0,L|388:74,1,71.9999978027344,2|2,0:0|0:0,0:0:0:0:
289,17,13658,6,0,P|249:27|218:120,1,143.999995605469,2|0,3:2|0:0,0:0:0:0:
284,253,14108,1,0,3:0:0:0:
284,253,14183,1,0,3:0:0:0:
284,253,14258,2,0,L|199:239,1,71.9999978027344,10|0,0:0|3:0,0:0:0:0:
325,157,14558,1,0,0:0:0:0:
357,317,14708,6,0,P|400:324|470:243,2,143.999995605469,2|2|2,3:2|3:2|3:2,0:0:0:0:
284,253,15458,2,0,P|261:298|261:331,1,71.9999978027344,8|2,0:0|0:0,0:0:0:0:
414,193,15758,2,0,P|408:157|389:127,1,71.9999978027344,2|2,0:0|0:0,0:0:0:0:
217,22,16058,6,0,B|230:75|230:75|226:91|226:91|237:103|237:103|254:167,1,143.999995605469,2|0,3:2|0:0,0:0:0:0:
132,221,16508,1,0,3:0:0:0:
132,221,16583,1,0,3:0:0:0:
132,221,16658,2,0,L|149:150,1,71.9999978027344,10|0,0:0|0:0,0:0:0:0:
284,253,16958,1,0,0:0:0:0:
134,328,17108,6,0,B|50:337|82:283|-11:290,1,143.999995605469,2|2,3:2|0:0,0:0:0:0:
132,221,17558,2,0,P|169:209|221:209,1,71.9999978027344,10|2,0:0|0:0,0:0:0:0:
302,347,17858,2,0,P|266:344|231:333,1,71.9999978027344,10|2,0:0|0:0,0:0:0:0:
350,192,18158,1,8,0:0:0:0:
376,195,18233,1,8,0:0:0:0:
400,207,18308,1,8,0:0:0:0:
417,228,18383,1,8,0:0:0:0:
426,253,18458,6,0,P|445:171|471:81,1,160,2|10,3:2|0:0,0:0:0:0:
342,14,18908,1,0,0:0:0:0:
342,14,19058,2,0,P|351:55|364:100,1,80,2|0,3:2|0:0,0:0:0:0:
276,175,19358,1,8,0:0:0:0:
276,175,19508,6,0,B|181:189|221:124|102:141,1,160,2|0,0:0|0:0,0:0:0:0:
70,241,19958,2,0,P|116:242|156:215,1,80,10|0,0:0|0:0,0:0:0:0:
254,88,20258,2,0,B|306:71|306:71|418:129,1,160,2|10,3:2|0:0,0:0:0:0:
328,185,20708,1,0,0:0:0:0:
494,132,20858,6,0,P|484:87|465:40,1,80,2|2,3:2|0:0,0:0:0:0:
317,193,21158,2,0,P|303:230|295:269,1,80,10|2,0:0|0:0,0:0:0:0:
442,314,21458,1,2,3:2:0:0:
442,314,21608,2,0,B|343:303|388:371|280:360,1,160,2|0,0:0|0:0,0:0:0:0:
176,291,22058,6,0,P|190:328|198:367,1,80,0|0,3:2|0:0,0:0:0:0:
317,193,22358,2,0,P|303:230|295:269,1,80,8|0,0:0|0:0,0:0:0:0:
183,142,22658,1,2,3:2:0:0:
183,142,22808,1,2,0:0:0:0:
118,212,22958,2,0,P|76:219|25:198,1,80,10|2,0:0|0:0,0:0:0:0:
156,60,23258,6,0,B|252:42|222:112|331:84,1,160,6|8,3:2|0:0,0:0:0:0:
381,17,23708,1,2,0:0:0:0:
381,17,23858,2,0,P|399:52|408:91,1,80,2|2,3:2|0:0,0:0:0:0:
280,163,24158,2,0,P|289:124|307:88,1,80,10|2,0:0|0:0,0:0:0:0:
410,223,24458,6,0,B|313:210|356:285|235:258,1,160,2|10,3:2|0:0,0:0:0:0:
143,206,24908,2,0,P|161:241|170:280,1,80,2|0,0:0|3:0,0:0:0:0:
280,163,25208,2,0,P|289:124|307:88,1,80,2|8,0:0|0:0,0:0:0:0:
261,262,25508,1,0,0:0:0:0:
142,122,25658,6,0,B|104:122|81:146|81:146|46:141|46:141|22:177|-33:181,3,160,2|10|2|10,3:2|0:0|3:2|0:0,0:0:0:0:
208,38,26858,6,0,L|379:73,1,160,2|8,3:2|0:0,0:0:0:0:
443,21,27308,1,0,0:0:0:0:
367,164,27458,2,0,L|281:181,1,80,2|0,3:2|0:0,0:0:0:0:
208,38,27758,2,0,L|293:55,1,80,8|0,0:0|0:0,0:0:0:0:
116,195,28058,6,0,P|87:147|126:48,1,160,6|10,3:2|0:0,0:0:0:0:
177,126,28508,1,2,0:0:0:0:
286,22,28658,1,2,3:2:0:0:
286,22,28808,2,0,L|201:39,1,80,2|8,0:0|0:0,0:0:0:0:
321,154,29108,6,0,P|424:162|467:106,1,160,2|2,0:0|0:0,0:0:0:0:
397,7,29558,2,0,P|382:48|375:104,1,80,10|0,0:0|0:0,0:0:0:0:
458,127,29858,1,2,3:2:0:0:
365,79,30008,1,2,0:0:0:0:
469,123,30158,2,0,P|482:160|489:199,1,80,10|0,0:0|0:0,0:0:0:0:
432,312,30458,5,2,3:2:0:0:
366,251,30608,2,0,B|283:248|311:305|213:293,1,160,2|0,0:0|0:0,0:0:0:0:
133,227,31058,2,0,P|116:268|117:320,1,80,0|0,3:0|0:0,0:0:0:0:
219,134,31358,2,0,P|235:175|235:227,1,80,8|0,0:0|0:0,0:0:0:0:
114,64,31658,5,2,3:2:0:0:
186,11,31808,2,0,L|352:40,1,160,2|0,0:0|0:0,0:0:0:0:
406,142,32258,2,0,L|323:156,1,80,0|0,3:0|0:0,0:0:0:0:
375,26,32558,2,0,L|457:40,1,80,10|0,0:0|0:0,0:0:0:0:
449,160,32858,6,0,L|291:187,2,160,2|10|2,3:2|0:0|3:2,0:0:0:0:
468,53,33608,1,2,0:0:0:0:
463,173,33758,2,0,L|440:279,1,80,10|0,0:0|0:0,0:0:0:0:
311,106,34058,6,0,P|270:104|209:195,3,160,2|10|2|10,3:2|0:0|3:2|0:0,0:0:0:0:
133,103,35108,1,0,0:0:0:0:
291,187,35258,6,0,B|380:208|349:127|474:165,1,160,2|8,3:2|0:0,0:0:0:0:
419,249,35708,1,2,0:0:0:0:
311,106,35858,2,0,B|254:82|254:82|142:129,1,160,2|8,3:2|0:0,0:0:0:0:
71,158,36308,1,0,0:0:0:0:
124,289,36458,6,0,P|146:257|150:217,1,80,0|0,3:0|0:0,0:0:0:0:
126,377,36758,2,0,P|164:368|195:343,1,80,8|0,0:0|0:0,0:0:0:0:
244,262,37058,1,8,0:0:0:0:
302,372,37208,1,8,0:0:0:0:
366,263,37358,2,0,P|387:303|395:341,1,80,8|8,0:3|0:3,0:0:0:0:
445,205,37658,6,0,P|461:176|484:159,1,55.9999982910157,6|2,3:2|0:0,0:0:0:0:
443,85,37958,2,0,P|409:84|383:74,1,55.9999982910157,2|2,0:0|0:0,0:0:0:0:
341,147,38258,2,0,P|357:175|361:203,1,55.9999982910157,10|2,0:0|0:0,0:0:0:0:
253,257,38558,2,0,P|258:229|273:205,1,55.9999982910157,2|10,0:0|0:0,0:0:0:0:
173,112,38858,6,0,L|193:163,1,55.9999982910157,2|8,3:2|0:0,0:0:0:0:
257,32,39158,2,0,B|325:28|299:66|378:61,2,111.999996582031,2|8|0,3:2|0:0|0:0,0:0:0:0:
173,112,39908,1,8,0:0:0:0:
119,47,40058,6,0,P|91:51|59:72,1,55.9999982910157,2|2,3:2|0:0,0:0:0:0:
38,143,40358,2,0,P|55:165|89:182,1,55.9999982910157,2|2,0:0|0:0,0:0:0:0:
162,165,40658,2,0,P|172:138|170:100,1,55.9999982910157,10|2,0:0|0:0,0:0:0:0:
253,30,40958,2,0,P|253:57|263:83,1,55.9999982910157,2|8,0:0|0:0,0:0:0:0:
344,146,41258,6,0,L|417:127,1,55.9999982910157,2|8,3:2|0:0,0:0:0:0:
365,257,41558,2,0,L|244:225,2,111.999996582031,2|8|2,3:2|0:0|0:0,0:0:0:0:
196,342,42458,6,0,P|151:324|118:267,1,111.999996582031,6|2,3:2|0:0,0:0:0:0:
139,168,43058,2,0,P|112:216|118:271,1,111.999996582031,10|2,0:0|0:0,0:0:0:0:
218,114,43508,1,8,0:0:0:0:
120,165,43658,6,0,L|42:150,1,55.9999982910157,2|8,3:2|0:0,0:0:0:0:
238,111,43958,2,0,L|316:96,1,55.9999982910157,2|0,3:2|0:0,0:0:0:0:
398,174,44258,2,0,P|441:146|453:74,1,111.999996582031,10|0,0:0|0:0,0:0:0:0:
375,96,44708,1,0,0:0:0:0:
309,203,44858,6,0,L|329:327,1,111.999996582031,2|0,3:2|0:0,0:0:0:0:
265,379,45308,1,2,0:0:0:0:
265,379,45458,2,0,P|235:355|156:349,1,111.999996582031,8|2,0:0|0:0,0:0:0:0:
80,384,45908,1,8,0:0:0:0:
74,241,46058,5,0,3:0:0:0:
74,241,46208,2,0,P|88:268|90:294,1,55.9999982910157,8|0,0:0|3:0,0:0:0:0:
177,152,46658,2,0,P|206:123|291:132,1,111.999996582031,8|0,0:0|3:0,0:0:0:0:
353,171,47108,1,8,0:0:0:0:
410,64,47258,6,0,L|334:81,1,55.9999982910157,6|2,3:2|0:0,0:0:0:0:
449,176,47558,2,0,L|525:193,1,55.9999982910157,2|2,0:0|0:2,0:0:0:0:
410,288,47858,1,10,0:0:0:0:
410,288,48008,2,0,L|283:316,1,111.999996582031,2|8,0:0|0:0,0:0:0:0:
196,267,48458,6,0,P|207:292|213:319,1,55.9999982910157,2|8,3:2|0:0,0:0:0:0:
287,199,48758,2,0,P|298:173|304:146,1,55.9999982910157,2|2,3:2|0:0,0:0:0:0:
186,34,49058,2,0,P|194:89|215:149,1,111.999996582031,8|2,0:0|0:0,0:0:0:0:
309,53,49508,1,8,0:0:0:0:
370,109,49658,6,0,P|410:112|463:45,3,111.999996582031,2|2|10|2,3:2|0:0|0:0|0:0,0:0:0:0:
309,53,50708,1,8,0:0:0:0:
292,134,50858,6,0,P|296:167|308:203,1,55.9999982910157,2|8,3:2|0:0,0:0:0:0:
216,59,51158,2,0,P|220:25|232:-10,1,55.9999982910157,0|0,3:0|0:0,0:0:0:0:
190,163,51458,2,0,P|132:164|81:121,1,111.999996582031,10|2,0:0|3:2,0:0:0:0:
89,133,52058,6,0,B|82:197|82:197|57:218|57:218|50:296,1,160,6|8,3:2|0:0,0:0:0:0:
276,367,52658,2,0,B|283:303|283:303|308:282|308:282|315:204,1,160,10|8,0:0|0:0,0:0:0:0:
386,16,53258,6,0,P|351:42|310:47,1,80,10|8,0:2|0:0,0:0:0:0:
323,135,53558,2,0,P|279:128|247:103,1,80,10|8,0:0|0:0,0:0:0:0:
194,174,53858,2,0,P|168:138|163:97,1,80,10|8,0:0|0:0,0:0:0:0:
75,110,54158,2,0,P|81:66|106:34,1,80,10|8,0:0|0:0,0:0:0:0:
98,208,54458,6,0,L|47:199,5,40,14|8|8|8|8|8,3:2|0:0|0:0|0:0|0:0|0:0,0:0:0:0:
10,305,54908,2,0,L|61:296,5,40,14|8|8|8|8|8,3:2|0:0|0:0|0:0|0:0|0:0,0:0:0:0:
115,355,55358,5,14,3:2:0:0:
144,359,55433,1,8,0:0:0:0:
173,351,55508,1,8,0:0:0:0:
197,334,55583,1,8,0:0:0:0:
213,309,55658,5,6,3:2:0:0:
213,309,56558,6,0,P|251:280|313:288,1,90.0000034332277
375,319,56858,6,0,L|475:301,1,88.000002685547,6|2,3:2|0:0,0:0:0:0:
368,227,57158,1,10,0:0:0:0:
277,361,57308,1,2,0:0:0:0:
378,212,57458,2,0,L|360:112,1,88.000002685547,2|0,3:2|0:0,0:0:0:0:
411,37,57758,1,10,0:0:0:0:
335,137,57908,6,0,P|291:139|251:122,1,88.000002685547,2|0,0:0|3:0,0:0:0:0:
210,32,58208,1,2,0:0:0:0:
309,41,58358,1,10,0:0:0:0:
152,113,58508,1,2,0:0:0:0:
152,113,58658,2,0,P|126:150|124:208,1,88.000002685547,2|0,3:2|0:0,0:0:0:0:
257,287,58958,2,0,P|237:245|188:215,1,88.000002685547,10|0,0:0|0:0,0:0:0:0:
8,286,59258,6,0,B|63:324|63:324|203:301,3,176.000005371094,2|10|2|10,3:2|0:0|3:2|0:0,0:0:0:0:
320,360,60308,1,0,0:0:0:0:
260,288,60458,6,0,P|234:214|215:114,1,176.000005371094,2|8,3:2|0:0,0:0:0:0:
189,25,60908,1,0,0:0:0:0:
189,25,61058,2,0,P|232:25|272:43,1,88.000002685547,2|0,3:2|0:0,0:0:0:0:
135,174,61358,2,0,P|95:192|51:192,1,88.000002685547,10|0,0:0|0:0,0:0:0:0:
215,118,61658,6,0,B|277:135|277:135|326:113|326:113|406:132,1,176.000005371094,6|10,3:2|0:0,0:0:0:0:
449,219,62108,2,0,L|344:243,1,88.000002685547,2|0,0:0|3:2,0:0:0:0:
388,46,62408,2,0,L|493:70,1,88.000002685547,2|8,0:0|0:0,0:0:0:0:
498,236,62708,6,0,L|319:276,1,176.000005371094,2|2,0:0|0:0,0:0:0:0:
218,299,63158,1,10,0:0:0:0:
292,380,63308,1,2,0:0:0:0:
251,193,63458,2,0,P|196:191|134:223,1,88.000002685547,2|0,3:2|0:0,0:0:0:0:
24,313,63758,2,0,P|66:324|109:321,1,88.000002685547,10|0,0:0|0:0,0:0:0:0:
251,193,64058,6,0,B|351:201|297:259|413:251,3,176.000005371094,2|10|2|10,3:2|0:0|3:2|0:0,0:0:0:0:
250,291,65108,1,0,0:0:0:0:
391,157,65258,6,0,P|446:155|506:260,1,176.000005371094,2|10,3:2|0:0,0:0:0:0:
409,251,65708,1,2,0:0:0:0:
318,70,65858,2,0,B|250:63|250:63|214:92|214:92|135:83,1,176.000005371094,2|8,3:2|0:0,0:0:0:0:
42,72,66308,1,0,0:0:0:0:
57,254,66458,6,0,P|82:218|85:175,1,88.000002685547,6|2,3:2|0:0,0:0:0:0:
35,59,66758,1,10,0:0:0:0:
0,191,66908,1,2,0:0:0:0:
151,115,67058,2,0,P|194:117|230:142,1,88.000002685547,2|0,3:2|0:0,0:0:0:0:
285,276,67358,1,8,0:0:0:0:
301,182,67508,6,0,B|192:180|242:245|121:237,1,176.000005371094,2|2,0:0|0:0,0:0:0:0:
48,204,67958,1,10,0:0:0:0:
156,333,68108,1,2,0:0:0:0:
55,184,68258,2,0,L|74:97,1,88.000002685547,2|0,3:2|0:0,0:0:0:0:
230,269,68558,2,0,L|249:356,1,88.000002685547,10|0,0:0|0:0,0:0:0:0:
306,135,68858,6,0,P|351:112|442:197,3,176.000005371094,2|10|2|10,3:2|0:0|3:2|0:0,0:0:0:0:
297,232,69908,1,0,0:0:0:0:
216,175,70058,6,0,P|134:193|46:224,1,176.000005371094,2|8,3:2|0:0,0:0:0:0:
64,118,70508,1,0,0:0:0:0:
178,298,70658,2,0,B|281:300|221:371|380:355,1,176.000005371094,2|8,3:2|0:0,0:0:0:0:
449,321,71108,1,0,0:0:0:0:
351,181,71258,6,0,B|327:157|305:146|305:146|317:280,1,176.000005371094,6|8,3:2|0:0,0:0:0:0:
169,384,71708,2,0,L|179:283,1,88.000002685547,2|0,0:0|3:2,0:0:0:0:
123,188,72008,1,2,0:0:0:0:
262,342,72158,1,10,0:0:0:0:
305,147,72308,6,0,L|209:169,1,88.000002685547,2|2,0:0|3:2,0:0:0:0:
371,278,72608,1,2,0:0:0:0:
371,278,72758,2,0,L|467:300,1,88.000002685547,10|2,0:0|0:0,0:0:0:0:
358,82,73058,2,0,P|313:122|303:161,1,88.000002685547,2|0,3:2|0:0,0:0:0:0:
501,184,73358,2,0,P|488:125|460:96,1,88.000002685547,10|0,0:0|0:0,0:0:0:0:
285,258,73658,6,0,L|95:213,1,176.000005371094,6|8,3:2|0:0,0:0:0:0:
21,77,74108,2,0,P|68:58|132:156,1,176.000005371094,2|0,0:0|0:0,0:0:0:0:
44,267,74558,2,0,B|22:225|22:225|34:186,1,88.000002685547,10|0,0:0|0:0,0:0:0:0:
145,335,74858,6,0,B|247:350|211:273|328:291,1,176.000005371094,6|8,3:2|0:0,0:0:0:0:
423,348,75308,1,0,0:0:0:0:
322,268,75458,1,8,0:0:0:0:
301,229,75533,1,8,0:0:0:0:
307,187,75608,1,8,0:0:0:0:
338,156,75683,1,8,0:0:0:0:
380,150,75758,2,0,L|431:162,3,44.0000013427735,8|8|8|8,0:0|0:0|0:0|0:0,0:0:0:0:
487,211,76058,6,0,P|505:160|495:117,1,88.000002685547,6|0,3:2|0:0,0:0:0:0:
322,268,76358,2,0,P|317:311|334:351,1,88.000002685547,8|0,0:0|0:0,0:0:0:0:
493,213,76658,2,0,P|511:162|501:119,1,88.000002685547,0|0,3:2|0:0,0:0:0:0:
316,270,76958,1,10,0:0:0:0:
452,317,77108,1,2,0:0:0:0:
298,189,77258,5,2,3:2:0:0:
334,351,77408,1,2,0:0:0:0:
237,246,77558,2,0,B|138:232|171:307|50:288,2,176.000005371094,10|0|10,0:0|3:0|0:0,0:0:0:0:
334,351,78308,1,2,0:0:0:0:
380,265,78458,6,0,L|490:287,1,88.000002685547,6|0,3:2|0:0,0:0:0:0:
257,137,78758,2,0,L|147:159,1,88.000002685547,8|0,0:0|0:0,0:0:0:0:
376,275,79058,2,0,L|486:297,1,88.000002685547,0|0,3:0|0:0,0:0:0:0:
273,114,79358,2,0,L|131:142,1,132.00000402832,10|0,0:0|0:0,0:0:0:0:
30,129,79658,6,0,P|89:144|130:254,1,176.000005371094,2|10,3:2|0:0,0:0:0:0:
56,370,80108,2,0,P|126:346|237:328,1,176.000005371094,2|0,0:0|0:0,0:0:0:0:
333,236,80558,2,0,P|298:224|242:215,1,88.000002685547,10|0,0:0|0:0,0:0:0:0:
417,367,80858,6,0,B|440:325|440:325|431:286,1,88.000002685547,6|0,3:2|0:0,0:0:0:0:
178,157,81158,2,0,B|154:198|154:198|163:237,1,88.000002685547,8|0,0:0|0:0,0:0:0:0:
413,141,81458,1,0,3:0:0:0:
281,302,81608,1,0,0:0:0:0:
254,84,81758,2,0,B|300:71|300:71|335:90,1,88.000002685547,8|0,0:0|0:0,0:0:0:0:
163,237,82058,6,0,P|115:240|54:213,1,88.000002685547,6|0,3:2|0:0,0:0:0:0:
206,23,82358,2,0,P|232:63|239:129,1,88.000002685547,8|0,0:0|0:0,0:0:0:0:
25,154,82658,1,0,3:0:0:0:
94,42,82808,1,0,0:0:0:0:
163,237,82958,2,0,P|166:284|139:346,1,88.000002685547,8|0,0:0|0:0,0:0:0:0:
264,170,83258,6,0,L|370:151,1,88.000002685547,6|0,3:2|0:0,0:0:0:0:
420,335,83558,2,0,L|314:316,1,88.000002685547,10|0,0:0|0:0,0:0:0:0:
261,161,83858,2,0,L|367:142,1,88.000002685547,2|0,3:2|0:0,0:0:0:0:
417,344,84158,2,0,L|311:325,1,88.000002685547,10|0,0:0|0:0,0:0:0:0:
92,237,84458,6,0,P|160:245|176:367,1,176.000005371094,6|8,3:2|0:0,0:0:0:0:
34,312,84908,2,0,P|57:237|81:127,1,176.000005371094,2|8,0:0|0:0,0:0:0:0:
65,108,85283,1,8,0:0:0:0:
65,108,85358,5,10,0:0:0:0:
104,90,85433,1,8,0:0:0:0:
147,98,85508,1,8,0:0:0:0:
178,128,85583,1,8,0:0:0:0:
187,170,85658,6,0,P|219:243|267:75,1,480.000018310548,6|4,3:2|3:0,0:0:0:0:
