osu file format v14

[General]
AudioFilename: audio.mp3
AudioLeadIn: 0
PreviewTime: 56783
Countdown: 0
SampleSet: Normal
StackLeniency: 1
Mode: 1
LetterboxInBreaks: 0
WidescreenStoryboard: 1

[Editor]
DistanceSpacing: 0.4
BeatDivisor: 2
GridSize: 32
TimelineZoom: 1.7

[Metadata]
Title:Kimi no Bouken (TV Size)
TitleUnicode:キミの冒険 (TV Size)
Artist:Okazaki Taiiku
ArtistUnicode:岡崎体育
Creator:Vulkin
Version:Kantan
Source:ポケットモンスター サン&ムーン
Tags:Alola Pokemon Pokémon Sun & Moon Ultra Adventures Opening OP Theme Song Male Vocal J-Pop Anime guitarlol Xandit Error- -Harpuia- Astronic Ragnarok VII Alphabet
BeatmapID:1896691
BeatmapSetID:908876

[Difficulty]
HPDrainRate:8
CircleSize:5
OverallDifficulty:3
ApproachRate:10
SliderMultiplier:1.4
SliderTickRate:1

[Events]
//Background and Video events
0,0,"pokemon-sun-and-moon-background-hd-1080p-123227.jpg",0,0
Video,-250,"video.avi"
//Break Periods
//Storyboard Layer 0 (Background)
//Storyboard Layer 1 (Fail)
//Storyboard Layer 2 (Pass)
//Storyboard Layer 3 (Foreground)
//Storyboard Sound Samples

[TimingPoints]
458,300,4,1,0,60,1,0
56858,-100,4,1,0,80,0,1
75458,-100,4,1,0,90,0,0
76058,-100,4,1,0,100,0,1
85658,-100,4,1,0,80,0,0

[HitObjects]
256,192,458,5,8,0:0:0:0:
256,192,1508,1,0,0:0:0:0:
256,192,2258,1,8,0:0:0:0:
256,192,2858,1,0,0:0:0:0:
256,192,3458,1,0,0:0:0:0:
256,192,4058,1,8,0:0:0:0:
256,192,5258,1,0,0:0:0:0:
256,192,6308,1,8,0:0:0:0:
256,192,7058,1,0,0:0:0:0:
256,192,7658,1,8,0:0:0:0:
256,192,8258,1,0,0:0:0:0:
256,192,8558,1,0,0:0:0:0:
256,192,8858,1,12,0:0:0:0:
256,192,10358,1,0,0:0:0:0:
256,192,10958,1,0,0:0:0:0:
256,192,11258,1,12,0:0:0:0:
256,192,11858,1,8,0:0:0:0:
256,192,12308,1,8,0:0:0:0:
256,192,13058,1,8,0:0:0:0:
256,192,13658,1,0,0:0:0:0:
256,192,14258,1,8,0:0:0:0:
256,192,14708,1,8,0:0:0:0:
256,192,16058,1,0,0:0:0:0:
256,192,16658,1,8,0:0:0:0:
256,192,17108,1,8,0:0:0:0:
256,192,17858,1,0,0:0:0:0:
256,192,18158,1,8,0:0:0:0:
256,192,18458,1,4,0:0:0:0:
256,192,19658,1,0,0:0:0:0:
256,192,20258,1,8,0:0:0:0:
256,192,20858,1,0,0:0:0:0:
256,192,22058,1,8,0:0:0:0:
256,192,22658,1,8,0:0:0:0:
256,192,23258,1,0,0:0:0:0:
256,192,24458,1,8,0:0:0:0:
256,192,25658,1,0,0:0:0:0:
256,192,26258,1,0,0:0:0:0:
256,192,26858,1,8,0:0:0:0:
256,192,27158,1,8,0:0:0:0:
256,192,27458,1,0,0:0:0:0:
256,192,28058,1,8,0:0:0:0:
256,192,29258,1,8,0:0:0:0:
256,192,29858,1,0,0:0:0:0:
256,192,30458,1,8,0:0:0:0:
256,192,31658,1,8,0:0:0:0:
256,192,32558,1,8,0:0:0:0:
256,192,32858,1,0,0:0:0:0:
256,192,33458,1,0,0:0:0:0:
256,192,34058,1,8,0:0:0:0:
256,192,34358,1,8,0:0:0:0:
256,192,34658,1,8,0:0:0:0:
256,192,35258,1,0,0:0:0:0:
256,192,35858,1,0,0:0:0:0:
256,192,36458,1,8,0:0:0:0:
256,192,37658,1,4,0:0:0:0:
256,192,38858,1,8,0:0:0:0:
256,192,40058,1,0,0:0:0:0:
256,192,40658,1,0,0:0:0:0:
256,192,41258,1,8,0:0:0:0:
256,192,42458,1,4,0:0:0:0:
256,192,43058,1,0,0:0:0:0:
256,192,43658,1,8,0:0:0:0:
256,192,44558,1,8,0:0:0:0:
256,192,44858,1,0,0:0:0:0:
256,192,45308,1,0,0:0:0:0:
256,192,46058,1,8,0:0:0:0:
256,192,46658,1,8,0:0:0:0:
256,192,47258,1,4,0:0:0:0:
256,192,48458,1,8,0:0:0:0:
256,192,49058,1,8,0:0:0:0:
256,192,49658,1,0,0:0:0:0:
256,192,49958,1,0,0:0:0:0:
256,192,50258,1,0,0:0:0:0:
256,192,50858,1,8,0:0:0:0:
256,192,51758,1,8,0:0:0:0:
256,192,52058,1,0,0:0:0:0:
256,192,52658,1,0,0:0:0:0:
256,192,53258,1,8,0:0:0:0:
256,192,53558,1,8,0:0:0:0:
256,192,53858,1,8,0:0:0:0:
256,192,54458,12,0,55658,0:0:0:0:
256,192,56858,5,12,0:0:0:0:
256,192,57458,1,8,0:0:0:0:
256,192,57908,1,0,0:0:0:0:
256,192,58658,1,8,0:0:0:0:
256,192,59258,1,0,0:0:0:0:
256,192,59558,1,0,0:0:0:0:
256,192,59858,1,8,0:0:0:0:
256,192,60458,1,0,0:0:0:0:
256,192,61658,1,4,0:0:0:0:
256,192,62108,1,8,0:0:0:0:
256,192,62708,1,0,0:0:0:0:
256,192,63158,1,0,0:0:0:0:
256,192,63458,1,8,0:0:0:0:
256,192,64058,1,8,0:0:0:0:
256,192,64658,1,0,0:0:0:0:
256,192,64958,1,0,0:0:0:0:
256,192,65258,1,0,0:0:0:0:
256,192,65858,1,8,0:0:0:0:
256,192,66458,1,4,0:0:0:0:
256,192,67508,1,0,0:0:0:0:
256,192,67958,1,0,0:0:0:0:
256,192,68258,1,8,0:0:0:0:
256,192,68858,1,0,0:0:0:0:
256,192,69158,1,0,0:0:0:0:
256,192,69458,1,8,0:0:0:0:
256,192,70058,1,0,0:0:0:0:
256,192,71258,1,4,0:0:0:0:
256,192,71708,1,0,0:0:0:0:
256,192,72158,1,0,0:0:0:0:
256,192,72458,1,8,0:0:0:0:
256,192,73058,1,0,0:0:0:0:
256,192,73658,1,8,0:0:0:0:
256,192,74108,1,8,0:0:0:0:
256,192,74558,1,0,0:0:0:0:
256,192,74858,1,8,0:0:0:0:
256,192,75608,1,0,0:0:0:0:
256,192,76058,1,12,0:0:0:0:
256,192,76958,1,8,0:0:0:0:
256,192,77258,1,0,0:0:0:0:
256,192,77558,1,8,0:0:0:0:
256,192,78158,1,0,0:0:0:0:
256,192,78458,1,8,0:0:0:0:
256,192,79358,1,8,0:0:0:0:
256,192,79658,1,0,0:0:0:0:
256,192,80108,1,8,0:0:0:0:
256,192,80558,1,0,0:0:0:0:
256,192,80858,1,12,0:0:0:0:
256,192,81458,1,8,0:0:0:0:
256,192,82058,1,8,0:0:0:0:
256,192,82358,1,8,0:0:0:0:
256,192,82658,1,8,0:0:0:0:
256,192,83258,1,0,0:0:0:0:
256,192,83858,1,0,0:0:0:0:
256,192,84158,1,0,0:0:0:0:
256,192,84458,1,8,0:0:0:0:
256,192,84908,1,8,0:0:0:0:
256,192,85358,1,8,0:0:0:0:
256,192,85658,1,4,0:0:0:0:
256,192,86858,1,0,0:0:0:0:
