osu file format v14

[General]
AudioFilename: audio.mp3
AudioLeadIn: 0
PreviewTime: 56783
Countdown: 0
SampleSet: Normal
StackLeniency: 1
Mode: 1
LetterboxInBreaks: 0
WidescreenStoryboard: 1

[Editor]
DistanceSpacing: 0.4
BeatDivisor: 4
GridSize: 32
TimelineZoom: 2.5

[Metadata]
Title:Kimi no Bouken (TV Size)
TitleUnicode:キミの冒険 (TV Size)
Artist:Okazaki Taiiku
ArtistUnicode:岡崎体育
Creator:Vulkin
Version:Catch Them All!
Source:ポケットモンスター サン&ムーン
Tags:Alola Pokemon Pokémon Sun & Moon Ultra Adventures Opening OP Theme Song Male Vocal J-Pop Anime guitarlol Xandit Error- -Harpuia- Astronic Ragnarok VII Alphabet
BeatmapID:1896689
BeatmapSetID:908876

[Difficulty]
HPDrainRate:6
CircleSize:5
OverallDifficulty:6
ApproachRate:10
SliderMultiplier:1.4
SliderTickRate:1

[Events]
//Background and Video events
0,0,"pokemon-sun-and-moon-background-hd-1080p-123227.jpg",0,0
Video,-250,"video.avi"
//Break Periods
//Storyboard Layer 0 (Background)
//Storyboard Layer 1 (Fail)
//Storyboard Layer 2 (Pass)
//Storyboard Layer 3 (Foreground)
//Storyboard Sound Samples

[TimingPoints]
458,300,4,1,0,60,1,0
458,-125,4,1,0,60,0,0
5108,-117.647058823529,4,1,0,60,0,0
5258,-111.111111111111,4,1,0,60,0,0
7208,-106.382978723404,4,1,0,60,0,0
7358,-104.166666666667,4,1,0,60,0,0
7508,-102.040816326531,4,1,0,60,0,0
7658,-100,4,1,0,60,0,0
7958,-98.6193293885601,4,1,0,60,0,0
8108,-97.2762645914397,4,1,0,60,0,0
8258,-95.8772770853308,4,1,0,60,0,0
8408,-94.6073793755913,4,1,0,60,0,0
8558,-93.3706816059757,4,1,0,60,0,0
8708,-92.1658986175115,4,1,0,60,0,0
8858,-90.9090909090909,4,1,0,60,0,0
10058,-100,4,1,0,60,0,0
11258,-90.9090909090909,4,1,0,60,0,0
11558,-100,4,1,0,60,0,0
18158,-98.0392156862745,4,1,0,60,0,0
18233,-96.1538461538461,4,1,0,60,0,0
18308,-94.3396226415094,4,1,0,60,0,0
18383,-92.5925925925926,4,1,0,60,0,0
18458,-90.9090909090909,4,1,0,60,0,0
18758,-100,4,1,0,60,0,0
37058,-102.040816326531,4,1,0,60,0,0
37208,-104.166666666667,4,1,0,60,0,0
37358,-106.382978723404,4,1,0,60,0,0
37508,-108.695652173913,4,1,0,60,0,0
37658,-111.111111111111,4,1,0,60,0,0
52058,-108.695652173913,4,1,0,60,0,0
52358,-106.382978723404,4,1,0,60,0,0
52658,-104.166666666667,4,1,0,60,0,0
52958,-102.040816326531,4,1,0,60,0,0
53258,-100,4,1,0,60,0,0
54308,-95.2380952380952,4,1,0,60,0,0
54458,-90.9090909090909,4,1,0,60,0,0
56558,-89.2857142857143,4,1,0,60,0,0
56633,-87.719298245614,4,1,0,60,0,0
56708,-86.2068965517241,4,1,0,60,0,0
56783,-84.7457627118644,4,1,0,60,0,0
56858,-83.3333333333333,4,1,0,80,0,1
75458,-81.9672131147541,4,1,0,90,0,0
75533,-81.3008130081301,4,1,0,90,0,0
75608,-80.6451612903226,4,1,0,90,0,0
75683,-80,4,1,0,90,0,0
75758,-79.3650793650794,4,1,0,90,0,0
75833,-78.7401574803149,4,1,0,90,0,0
75908,-78.125,4,1,0,90,0,0
75983,-77.5193798449612,4,1,0,90,0,0
76058,-76.9230769230769,4,1,0,100,0,1
84608,-78.125,4,1,0,100,0,1
84683,-79.3650793650794,4,1,0,100,0,1
84758,-80.6451612903226,4,1,0,100,0,1
84833,-81.9672131147541,4,1,0,100,0,1
84908,-83.3333333333333,4,1,0,100,0,1
84983,-84.7457627118644,4,1,0,100,0,1
85058,-86.2068965517241,4,1,0,100,0,1
85133,-87.719298245614,4,1,0,100,0,1
85208,-89.2857142857143,4,1,0,100,0,1
85283,-90.9090909090909,4,1,0,100,0,1
85358,-92.5925925925926,4,1,0,100,0,1
85433,-94.3396226415094,4,1,0,100,0,1
85508,-96.1538461538461,4,1,0,100,0,1
85583,-98.0392156862745,4,1,0,100,0,1
85658,-100,4,1,0,80,0,0

[HitObjects]
256,192,458,5,8,0:0:0:0:
256,192,608,1,8,0:0:0:0:
256,192,758,1,0,0:0:0:0:
256,192,908,1,0,0:0:0:0:
256,192,1058,1,8,0:0:0:0:
256,192,1358,1,0,0:0:0:0:
256,192,1508,1,8,0:0:0:0:
256,192,1808,1,8,0:0:0:0:
256,192,1958,1,8,0:0:0:0:
256,192,2108,1,0,0:0:0:0:
256,192,2258,1,8,0:0:0:0:
256,192,2408,1,0,0:0:0:0:
256,192,2558,1,8,0:0:0:0:
256,192,2858,1,0,0:0:0:0:
256,192,3158,1,0,0:0:0:0:
256,192,3308,1,0,0:0:0:0:
256,192,3458,1,8,0:0:0:0:
256,192,3758,1,0,0:0:0:0:
256,192,4058,1,8,0:0:0:0:
256,192,4658,1,8,0:0:0:0:
256,192,4958,1,8,0:0:0:0:
256,192,5108,1,8,0:0:0:0:
256,192,5258,1,0,0:0:0:0:
256,192,5558,1,8,0:0:0:0:
256,192,5708,1,0,0:0:0:0:
256,192,6008,1,0,0:0:0:0:
256,192,6158,1,8,0:0:0:0:
256,192,6308,1,8,0:0:0:0:
256,192,6458,1,0,0:0:0:0:
256,192,6758,1,8,0:0:0:0:
256,192,6908,1,0,0:0:0:0:
256,192,7208,1,8,0:0:0:0:
256,192,7358,1,8,0:0:0:0:
256,192,7508,1,0,0:0:0:0:
256,192,7658,1,8,0:0:0:0:
256,192,7958,1,8,0:0:0:0:
256,192,8108,1,0,0:0:0:0:
256,192,8258,1,8,0:0:0:0:
256,192,8408,1,8,0:0:0:0:
256,192,8558,1,0,0:0:0:0:
256,192,8708,1,0,0:0:0:0:
256,192,8858,1,12,0:0:0:0:
256,192,10058,1,0,0:0:0:0:
256,192,10358,1,0,0:0:0:0:
256,192,10433,1,0,0:0:0:0:
256,192,10508,1,8,0:0:0:0:
256,192,10583,1,8,0:0:0:0:
256,192,10658,1,0,0:0:0:0:
256,192,10733,1,0,0:0:0:0:
256,192,10808,1,0,0:0:0:0:
256,192,10883,1,0,0:0:0:0:
256,192,10958,1,8,0:0:0:0:
256,192,11258,1,4,0:0:0:0:
256,192,11558,1,8,0:0:0:0:
256,192,11708,1,0,0:0:0:0:
256,192,11783,1,0,0:0:0:0:
256,192,11858,1,8,0:0:0:0:
256,192,12008,1,0,0:0:0:0:
256,192,12158,1,0,0:0:0:0:
256,192,12308,1,8,0:0:0:0:
256,192,12608,1,8,0:0:0:0:
256,192,12758,1,0,0:0:0:0:
256,192,12908,1,8,0:0:0:0:
256,192,13208,1,8,0:0:0:0:
256,192,13283,1,8,0:0:0:0:
256,192,13358,1,8,0:0:0:0:
256,192,13508,1,8,0:0:0:0:
256,192,13658,1,0,0:0:0:0:
256,192,13808,1,0,0:0:0:0:
256,192,13958,1,8,0:0:0:0:
256,192,14108,1,0,0:0:0:0:
256,192,14183,1,0,0:0:0:0:
256,192,14258,1,8,0:0:0:0:
256,192,14408,1,0,0:0:0:0:
256,192,14558,1,0,0:0:0:0:
256,192,14708,1,8,0:0:0:0:
256,192,15008,1,8,0:0:0:0:
256,192,15158,1,0,0:0:0:0:
256,192,15308,1,8,0:0:0:0:
256,192,15608,1,8,0:0:0:0:
256,192,15683,1,8,0:0:0:0:
256,192,15758,1,8,0:0:0:0:
256,192,15908,1,8,0:0:0:0:
256,192,16058,1,0,0:0:0:0:
256,192,16208,1,0,0:0:0:0:
256,192,16358,1,8,0:0:0:0:
256,192,16508,1,0,0:0:0:0:
256,192,16583,1,0,0:0:0:0:
256,192,16658,1,8,0:0:0:0:
256,192,16808,1,0,0:0:0:0:
256,192,16958,1,0,0:0:0:0:
256,192,17108,1,8,0:0:0:0:
256,192,17408,1,8,0:0:0:0:
256,192,17483,1,8,0:0:0:0:
256,192,17558,1,0,0:0:0:0:
256,192,17708,1,0,0:0:0:0:
256,192,17858,1,8,0:0:0:0:
256,192,17933,1,0,0:0:0:0:
256,192,18008,1,8,0:0:0:0:
256,192,18158,1,0,0:0:0:0:
256,192,18233,1,8,0:0:0:0:
256,192,18308,1,8,0:0:0:0:
256,192,18383,1,8,0:0:0:0:
256,192,18458,1,4,0:0:0:0:
256,192,18758,1,8,0:0:0:0:
256,192,18908,1,0,0:0:0:0:
256,192,18983,1,0,0:0:0:0:
256,192,19058,1,8,0:0:0:0:
256,192,19208,1,8,0:0:0:0:
256,192,19358,1,0,0:0:0:0:
256,192,19508,1,8,0:0:0:0:
256,192,19808,1,8,0:0:0:0:
256,192,19958,1,0,0:0:0:0:
256,192,20108,1,8,0:0:0:0:
256,192,20183,1,8,0:0:0:0:
256,192,20258,1,8,0:0:0:0:
256,192,20408,1,8,0:0:0:0:
256,192,20558,1,0,0:0:0:0:
256,192,20708,1,8,0:0:0:0:
256,192,20858,1,0,0:0:0:0:
256,192,21008,1,0,0:0:0:0:
256,192,21158,1,8,0:0:0:0:
256,192,21308,1,0,0:0:0:0:
256,192,21383,1,0,0:0:0:0:
256,192,21458,1,8,0:0:0:0:
256,192,21608,1,0,0:0:0:0:
256,192,21758,1,8,0:0:0:0:
256,192,21908,1,8,0:0:0:0:
256,192,22058,1,0,0:0:0:0:
256,192,22358,1,8,0:0:0:0:
256,192,22508,1,8,0:0:0:0:
256,192,22583,1,8,0:0:0:0:
256,192,22658,1,0,0:0:0:0:
256,192,22808,1,0,0:0:0:0:
256,192,22958,1,8,0:0:0:0:
256,192,23108,1,8,0:0:0:0:
256,192,23258,1,4,0:0:0:0:
256,192,23558,1,8,0:0:0:0:
256,192,23708,1,8,0:0:0:0:
256,192,23783,1,8,0:0:0:0:
256,192,23858,1,8,0:0:0:0:
256,192,24008,1,0,0:0:0:0:
256,192,24158,1,8,0:0:0:0:
256,192,24308,1,0,0:0:0:0:
256,192,24383,1,0,0:0:0:0:
256,192,24458,1,8,0:0:0:0:
256,192,24533,1,0,0:0:0:0:
256,192,24608,1,8,0:0:0:0:
256,192,24758,1,0,0:0:0:0:
256,192,24908,1,0,0:0:0:0:
256,192,24983,1,8,0:0:0:0:
256,192,25058,1,8,0:0:0:0:
256,192,25208,1,8,0:0:0:0:
256,192,25358,1,0,0:0:0:0:
256,192,25508,1,0,0:0:0:0:
256,192,25658,1,8,0:0:0:0:
256,192,25958,1,8,0:0:0:0:
256,192,26108,1,0,0:0:0:0:
256,192,26183,1,0,0:0:0:0:
256,192,26258,1,8,0:0:0:0:
256,192,26408,1,0,0:0:0:0:
256,192,26558,1,8,0:0:0:0:
256,192,26708,1,0,0:0:0:0:
256,192,26858,1,8,0:0:0:0:
256,192,27158,1,8,0:0:0:0:
256,192,27308,1,8,0:0:0:0:
256,192,27383,1,8,0:0:0:0:
256,192,27458,1,0,0:0:0:0:
256,192,27608,1,0,0:0:0:0:
256,192,27758,1,8,0:0:0:0:
256,192,27908,1,8,0:0:0:0:
256,192,28058,1,4,0:0:0:0:
256,192,28358,1,8,0:0:0:0:
256,192,28508,1,8,0:0:0:0:
256,192,28583,1,8,0:0:0:0:
256,192,28658,1,8,0:0:0:0:
256,192,28808,1,0,0:0:0:0:
256,192,28958,1,8,0:0:0:0:
256,192,29108,1,0,0:0:0:0:
256,192,29258,1,8,0:0:0:0:
256,192,29408,1,8,0:0:0:0:
256,192,29558,1,0,0:0:0:0:
256,192,29708,1,8,0:0:0:0:
256,192,29783,1,0,0:0:0:0:
256,192,29858,1,8,0:0:0:0:
256,192,30008,1,0,0:0:0:0:
256,192,30158,1,8,0:0:0:0:
256,192,30308,1,0,0:0:0:0:
256,192,30458,1,8,0:0:0:0:
256,192,30608,1,8,0:0:0:0:
256,192,30683,1,8,0:0:0:0:
256,192,30758,1,0,0:0:0:0:
256,192,30908,1,8,0:0:0:0:
256,192,31058,1,0,0:0:0:0:
256,192,31208,1,0,0:0:0:0:
256,192,31358,1,8,0:0:0:0:
256,192,31658,1,8,0:0:0:0:
256,192,31808,1,8,0:0:0:0:
256,192,31883,1,8,0:0:0:0:
256,192,31958,1,0,0:0:0:0:
256,192,32108,1,8,0:0:0:0:
256,192,32258,1,0,0:0:0:0:
256,192,32408,1,0,0:0:0:0:
256,192,32558,1,8,0:0:0:0:
256,192,32708,1,0,0:0:0:0:
256,192,32858,1,8,0:0:0:0:
256,192,33158,1,0,0:0:0:0:
256,192,33308,1,0,0:0:0:0:
256,192,33383,1,0,0:0:0:0:
256,192,33458,1,8,0:0:0:0:
256,192,33608,1,0,0:0:0:0:
256,192,33758,1,8,0:0:0:0:
256,192,33908,1,0,0:0:0:0:
256,192,34058,1,8,0:0:0:0:
256,192,34208,1,8,0:0:0:0:
256,192,34283,1,8,0:0:0:0:
256,192,34358,1,0,0:0:0:0:
256,192,34508,1,8,0:0:0:0:
256,192,34658,1,0,0:0:0:0:
256,192,34808,1,0,0:0:0:0:
256,192,34883,1,0,0:0:0:0:
256,192,34958,1,8,0:0:0:0:
256,192,35108,1,0,0:0:0:0:
256,192,35258,1,8,0:0:0:0:
256,192,35558,1,0,0:0:0:0:
256,192,35708,1,8,0:0:0:0:
256,192,35858,1,0,0:0:0:0:
256,192,36008,1,0,0:0:0:0:
256,192,36158,1,8,0:0:0:0:
256,192,36308,1,0,0:0:0:0:
256,192,36458,1,8,0:0:0:0:
256,192,36608,1,8,0:0:0:0:
256,192,36683,1,8,0:0:0:0:
256,192,36758,1,0,0:0:0:0:
256,192,36908,1,8,0:0:0:0:
256,192,37058,1,0,0:0:0:0:
256,192,37208,1,0,0:0:0:0:
256,192,37358,1,0,0:0:0:0:
256,192,37508,1,0,0:0:0:0:
256,192,37658,1,12,0:0:0:0:
256,192,37958,1,8,0:0:0:0:
256,192,38108,1,0,0:0:0:0:
256,192,38258,1,8,0:0:0:0:
256,192,38558,1,8,0:0:0:0:
256,192,38708,1,0,0:0:0:0:
256,192,38858,1,8,0:0:0:0:
256,192,39008,1,8,0:0:0:0:
256,192,39158,1,0,0:0:0:0:
256,192,39458,1,8,0:0:0:0:
256,192,39758,1,0,0:0:0:0:
256,192,39908,1,0,0:0:0:0:
256,192,40058,1,8,0:0:0:0:
256,192,40358,1,8,0:0:0:0:
256,192,40508,1,0,0:0:0:0:
256,192,40658,1,8,0:0:0:0:
256,192,40958,1,0,0:0:0:0:
256,192,41108,1,0,0:0:0:0:
256,192,41258,1,8,0:0:0:0:
256,192,41408,1,8,0:0:0:0:
256,192,41558,1,0,0:0:0:0:
256,192,41858,1,8,0:0:0:0:
256,192,42158,1,0,0:0:0:0:
256,192,42308,1,0,0:0:0:0:
256,192,42458,1,12,0:0:0:0:
256,192,42758,1,8,0:0:0:0:
256,192,42908,1,0,0:0:0:0:
256,192,43058,1,8,0:0:0:0:
256,192,43358,1,8,0:0:0:0:
256,192,43508,1,0,0:0:0:0:
256,192,43658,1,8,0:0:0:0:
256,192,43808,1,8,0:0:0:0:
256,192,43958,1,0,0:0:0:0:
256,192,44108,1,0,0:0:0:0:
256,192,44258,1,8,0:0:0:0:
256,192,44558,1,0,0:0:0:0:
256,192,44708,1,0,0:0:0:0:
256,192,44858,1,8,0:0:0:0:
256,192,45158,1,0,0:0:0:0:
256,192,45308,1,8,0:0:0:0:
256,192,45458,1,0,0:0:0:0:
256,192,45608,1,0,0:0:0:0:
256,192,45758,1,8,0:0:0:0:
256,192,45908,1,8,0:0:0:0:
256,192,46058,1,0,0:0:0:0:
256,192,46208,1,8,0:0:0:0:
256,192,46358,1,0,0:0:0:0:
256,192,46658,1,8,0:0:0:0:
256,192,46958,1,8,0:0:0:0:
256,192,47108,1,0,0:0:0:0:
256,192,47258,1,12,0:0:0:0:
256,192,47408,1,8,0:0:0:0:
256,192,47558,1,0,0:0:0:0:
256,192,47708,1,8,0:0:0:0:
256,192,47858,1,0,0:0:0:0:
256,192,48008,1,8,0:0:0:0:
256,192,48308,1,0,0:0:0:0:
256,192,48458,1,8,0:0:0:0:
256,192,48758,1,8,0:0:0:0:
256,192,48908,1,0,0:0:0:0:
256,192,49058,1,8,0:0:0:0:
256,192,49208,1,8,0:0:0:0:
256,192,49358,1,0,0:0:0:0:
256,192,49508,1,0,0:0:0:0:
256,192,49658,1,8,0:0:0:0:
256,192,49958,1,8,0:0:0:0:
256,192,50108,1,0,0:0:0:0:
256,192,50258,1,8,0:0:0:0:
256,192,50558,1,0,0:0:0:0:
256,192,50708,1,8,0:0:0:0:
256,192,50858,1,0,0:0:0:0:
256,192,51008,1,8,0:0:0:0:
256,192,51158,1,0,0:0:0:0:
256,192,51308,1,0,0:0:0:0:
256,192,51458,1,8,0:0:0:0:
256,192,51758,1,8,0:0:0:0:
256,192,51908,1,0,0:0:0:0:
256,192,52058,1,12,0:0:0:0:
256,192,52358,1,0,0:0:0:0:
256,192,52658,1,8,0:0:0:0:
256,192,52958,1,0,0:0:0:0:
256,192,53258,1,8,0:0:0:0:
256,192,53408,1,8,0:0:0:0:
256,192,53483,1,8,0:0:0:0:
256,192,53558,1,0,0:0:0:0:
256,192,53708,1,8,0:0:0:0:
256,192,53858,1,0,0:0:0:0:
256,192,54008,1,0,0:0:0:0:
256,192,54083,1,0,0:0:0:0:
256,192,54158,1,8,0:0:0:0:
256,192,54308,1,0,0:0:0:0:
256,192,54458,1,8,0:0:0:0:
256,192,54533,1,8,0:0:0:0:
256,192,54608,1,8,0:0:0:0:
256,192,54683,1,8,0:0:0:0:
256,192,54758,1,0,0:0:0:0:
256,192,54833,1,0,0:0:0:0:
256,192,54908,1,8,0:0:0:0:
256,192,54983,1,8,0:0:0:0:
256,192,55058,1,8,0:0:0:0:
256,192,55133,1,8,0:0:0:0:
256,192,55208,1,0,0:0:0:0:
256,192,55283,1,0,0:0:0:0:
256,192,55358,1,8,0:0:0:0:
256,192,55433,1,0,0:0:0:0:
256,192,55508,1,0,0:0:0:0:
256,192,55583,1,0,0:0:0:0:
256,192,55658,1,12,0:0:0:0:
256,192,56558,1,0,0:0:0:0:
256,192,56633,1,0,0:0:0:0:
256,192,56708,1,0,0:0:0:0:
256,192,56783,1,0,0:0:0:0:
256,192,56858,1,12,0:0:0:0:
256,192,57008,1,8,0:0:0:0:
256,192,57083,1,0,0:0:0:0:
256,192,57158,1,8,0:0:0:0:
256,192,57233,1,8,0:0:0:0:
256,192,57308,1,0,0:0:0:0:
256,192,57383,1,0,0:0:0:0:
256,192,57458,1,8,0:0:0:0:
256,192,57608,1,0,0:0:0:0:
256,192,57683,1,0,0:0:0:0:
256,192,57758,1,8,0:0:0:0:
256,192,57908,1,8,0:0:0:0:
256,192,57983,1,8,0:0:0:0:
256,192,58058,1,0,0:0:0:0:
256,192,58208,1,0,0:0:0:0:
256,192,58283,1,0,0:0:0:0:
256,192,58358,1,8,0:0:0:0:
256,192,58433,1,0,0:0:0:0:
256,192,58508,1,8,0:0:0:0:
256,192,58583,1,8,0:0:0:0:
256,192,58658,1,8,0:0:0:0:
256,192,58808,1,0,0:0:0:0:
256,192,58883,1,0,0:0:0:0:
256,192,58958,1,8,0:0:0:0:
256,192,59108,1,0,0:0:0:0:
256,192,59258,1,8,0:0:0:0:
256,192,59408,1,8,0:0:0:0:
256,192,59483,1,8,0:0:0:0:
256,192,59558,1,0,0:0:0:0:
256,192,59708,1,8,0:0:0:0:
256,192,59858,1,0,0:0:0:0:
256,192,59933,1,0,0:0:0:0:
256,192,60008,1,0,0:0:0:0:
256,192,60083,1,0,0:0:0:0:
256,192,60158,1,8,0:0:0:0:
256,192,60308,1,0,0:0:0:0:
256,192,60458,1,8,0:0:0:0:
256,192,60608,1,8,0:0:0:0:
256,192,60683,1,8,0:0:0:0:
256,192,60758,1,0,0:0:0:0:
256,192,60908,1,8,0:0:0:0:
256,192,61058,1,0,0:0:0:0:
256,192,61133,1,8,0:0:0:0:
256,192,61208,1,0,0:0:0:0:
256,192,61283,1,0,0:0:0:0:
256,192,61358,1,8,0:0:0:0:
256,192,61508,1,0,0:0:0:0:
256,192,61658,1,12,0:0:0:0:
256,192,61808,1,0,0:0:0:0:
256,192,61883,1,8,0:0:0:0:
256,192,61958,1,0,0:0:0:0:
256,192,62108,1,8,0:0:0:0:
256,192,62183,1,8,0:0:0:0:
256,192,62258,1,8,0:0:0:0:
256,192,62408,1,8,0:0:0:0:
256,192,62558,1,0,0:0:0:0:
256,192,62708,1,8,0:0:0:0:
256,192,62783,1,8,0:0:0:0:
256,192,62858,1,0,0:0:0:0:
256,192,63008,1,8,0:0:0:0:
256,192,63083,1,0,0:0:0:0:
256,192,63158,1,8,0:0:0:0:
256,192,63233,1,8,0:0:0:0:
256,192,63308,1,0,0:0:0:0:
256,192,63383,1,0,0:0:0:0:
256,192,63458,1,8,0:0:0:0:
256,192,63608,1,0,0:0:0:0:
256,192,63683,1,0,0:0:0:0:
256,192,63758,1,8,0:0:0:0:
256,192,63908,1,0,0:0:0:0:
256,192,64058,1,8,0:0:0:0:
256,192,64208,1,8,0:0:0:0:
256,192,64283,1,8,0:0:0:0:
256,192,64358,1,0,0:0:0:0:
256,192,64508,1,8,0:0:0:0:
256,192,64658,1,0,0:0:0:0:
256,192,64808,1,0,0:0:0:0:
256,192,64883,1,0,0:0:0:0:
256,192,64958,1,8,0:0:0:0:
256,192,65108,1,0,0:0:0:0:
256,192,65258,1,8,0:0:0:0:
256,192,65333,1,8,0:0:0:0:
256,192,65408,1,0,0:0:0:0:
256,192,65483,1,0,0:0:0:0:
256,192,65558,1,8,0:0:0:0:
256,192,65708,1,8,0:0:0:0:
256,192,65858,1,0,0:0:0:0:
256,192,65933,1,8,0:0:0:0:
256,192,66008,1,0,0:0:0:0:
256,192,66083,1,0,0:0:0:0:
256,192,66158,1,8,0:0:0:0:
256,192,66233,1,8,0:0:0:0:
256,192,66308,1,0,0:0:0:0:
256,192,66458,1,12,0:0:0:0:
256,192,66608,1,8,0:0:0:0:
256,192,66683,1,8,0:0:0:0:
256,192,66758,1,0,0:0:0:0:
256,192,66833,1,0,0:0:0:0:
256,192,66908,1,8,0:0:0:0:
256,192,66983,1,0,0:0:0:0:
256,192,67058,1,8,0:0:0:0:
256,192,67208,1,0,0:0:0:0:
256,192,67358,1,8,0:0:0:0:
256,192,67508,1,8,0:0:0:0:
256,192,67583,1,8,0:0:0:0:
256,192,67658,1,0,0:0:0:0:
256,192,67808,1,0,0:0:0:0:
256,192,67883,1,8,0:0:0:0:
256,192,67958,1,0,0:0:0:0:
256,192,68033,1,0,0:0:0:0:
256,192,68108,1,8,0:0:0:0:
256,192,68183,1,0,0:0:0:0:
256,192,68258,1,8,0:0:0:0:
256,192,68408,1,0,0:0:0:0:
256,192,68483,1,0,0:0:0:0:
256,192,68558,1,8,0:0:0:0:
256,192,68708,1,0,0:0:0:0:
256,192,68858,1,8,0:0:0:0:
256,192,69008,1,8,0:0:0:0:
256,192,69083,1,8,0:0:0:0:
256,192,69158,1,0,0:0:0:0:
256,192,69308,1,8,0:0:0:0:
256,192,69458,1,0,0:0:0:0:
256,192,69533,1,8,0:0:0:0:
256,192,69608,1,8,0:0:0:0:
256,192,69683,1,0,0:0:0:0:
256,192,69758,1,8,0:0:0:0:
256,192,69908,1,0,0:0:0:0:
256,192,70058,1,8,0:0:0:0:
256,192,70208,1,8,0:0:0:0:
256,192,70283,1,8,0:0:0:0:
256,192,70358,1,0,0:0:0:0:
256,192,70508,1,8,0:0:0:0:
256,192,70658,1,0,0:0:0:0:
256,192,70733,1,0,0:0:0:0:
256,192,70808,1,0,0:0:0:0:
256,192,70883,1,0,0:0:0:0:
256,192,70958,1,8,0:0:0:0:
256,192,71033,1,8,0:0:0:0:
256,192,71108,1,0,0:0:0:0:
256,192,71258,1,12,0:0:0:0:
256,192,71408,1,8,0:0:0:0:
256,192,71483,1,8,0:0:0:0:
256,192,71558,1,0,0:0:0:0:
256,192,71708,1,8,0:0:0:0:
256,192,71783,1,8,0:0:0:0:
256,192,71858,1,8,0:0:0:0:
256,192,72008,1,8,0:0:0:0:
256,192,72158,1,0,0:0:0:0:
256,192,72308,1,0,0:0:0:0:
256,192,72383,1,8,0:0:0:0:
256,192,72458,1,8,0:0:0:0:
256,192,72608,1,8,0:0:0:0:
256,192,72683,1,8,0:0:0:0:
256,192,72758,1,0,0:0:0:0:
256,192,72908,1,8,0:0:0:0:
256,192,73058,1,0,0:0:0:0:
256,192,73133,1,0,0:0:0:0:
256,192,73208,1,0,0:0:0:0:
256,192,73283,1,0,0:0:0:0:
256,192,73358,1,8,0:0:0:0:
256,192,73508,1,0,0:0:0:0:
256,192,73658,1,8,0:0:0:0:
256,192,73808,1,8,0:0:0:0:
256,192,73883,1,8,0:0:0:0:
256,192,73958,1,0,0:0:0:0:
256,192,74108,1,8,0:0:0:0:
256,192,74258,1,0,0:0:0:0:
256,192,74333,1,8,0:0:0:0:
256,192,74408,1,0,0:0:0:0:
256,192,74558,1,8,0:0:0:0:
256,192,74633,1,8,0:0:0:0:
256,192,74708,1,0,0:0:0:0:
256,192,74783,1,0,0:0:0:0:
256,192,74858,1,8,0:0:0:0:
256,192,75008,1,0,0:0:0:0:
256,192,75083,1,0,0:0:0:0:
256,192,75158,1,8,0:0:0:0:
256,192,75308,1,8,0:0:0:0:
256,192,75458,1,0,0:0:0:0:
256,192,75533,1,0,0:0:0:0:
256,192,75608,1,8,0:0:0:0:
256,192,75683,1,0,0:0:0:0:
256,192,75758,1,8,0:0:0:0:
256,192,75833,1,8,0:0:0:0:
256,192,75908,1,0,0:0:0:0:
256,192,75983,1,0,0:0:0:0:
256,192,76058,1,12,0:0:0:0:
256,192,76208,1,0,0:0:0:0:
256,192,76283,1,0,0:0:0:0:
256,192,76358,1,8,0:0:0:0:
256,192,76508,1,0,0:0:0:0:
256,192,76658,1,8,0:0:0:0:
256,192,76808,1,0,0:0:0:0:
256,192,76958,1,8,0:0:0:0:
256,192,77033,1,8,0:0:0:0:
256,192,77108,1,0,0:0:0:0:
256,192,77258,1,8,0:0:0:0:
256,192,77333,1,0,0:0:0:0:
256,192,77408,1,8,0:0:0:0:
256,192,77483,1,8,0:0:0:0:
256,192,77558,1,0,0:0:0:0:
256,192,77708,1,8,0:0:0:0:
256,192,77858,1,0,0:0:0:0:
256,192,77933,1,0,0:0:0:0:
256,192,78008,1,8,0:0:0:0:
256,192,78083,1,0,0:0:0:0:
256,192,78158,1,8,0:0:0:0:
256,192,78308,1,0,0:0:0:0:
256,192,78458,1,8,0:0:0:0:
256,192,78608,1,0,0:0:0:0:
256,192,78683,1,0,0:0:0:0:
256,192,78758,1,8,0:0:0:0:
256,192,78908,1,0,0:0:0:0:
256,192,79058,1,8,0:0:0:0:
256,192,79208,1,0,0:0:0:0:
256,192,79358,1,8,0:0:0:0:
256,192,79433,1,0,0:0:0:0:
256,192,79508,1,0,0:0:0:0:
256,192,79658,1,8,0:0:0:0:
256,192,79733,1,8,0:0:0:0:
256,192,79808,1,0,0:0:0:0:
256,192,79883,1,8,0:0:0:0:
256,192,79958,1,0,0:0:0:0:
256,192,80108,1,8,0:0:0:0:
256,192,80258,1,0,0:0:0:0:
256,192,80408,1,0,0:0:0:0:
256,192,80483,1,0,0:0:0:0:
256,192,80558,1,8,0:0:0:0:
256,192,80708,1,0,0:0:0:0:
256,192,80858,1,12,0:0:0:0:
256,192,81008,1,0,0:0:0:0:
256,192,81083,1,0,0:0:0:0:
256,192,81158,1,8,0:0:0:0:
256,192,81308,1,0,0:0:0:0:
256,192,81458,1,8,0:0:0:0:
256,192,81608,1,0,0:0:0:0:
256,192,81683,1,0,0:0:0:0:
256,192,81758,1,8,0:0:0:0:
256,192,81908,1,0,0:0:0:0:
256,192,82058,1,8,0:0:0:0:
256,192,82208,1,0,0:0:0:0:
256,192,82283,1,0,0:0:0:0:
256,192,82358,1,8,0:0:0:0:
256,192,82433,1,8,0:0:0:0:
256,192,82508,1,0,0:0:0:0:
256,192,82658,1,8,0:0:0:0:
256,192,82808,1,8,0:0:0:0:
256,192,82883,1,0,0:0:0:0:
256,192,82958,1,8,0:0:0:0:
256,192,83033,1,8,0:0:0:0:
256,192,83108,1,0,0:0:0:0:
256,192,83258,1,8,0:0:0:0:
256,192,83408,1,0,0:0:0:0:
256,192,83483,1,8,0:0:0:0:
256,192,83558,1,8,0:0:0:0:
256,192,83633,1,8,0:0:0:0:
256,192,83708,1,0,0:0:0:0:
256,192,83858,1,8,0:0:0:0:
256,192,84008,1,0,0:0:0:0:
256,192,84083,1,0,0:0:0:0:
256,192,84158,1,8,0:0:0:0:
256,192,84233,1,8,0:0:0:0:
256,192,84308,1,0,0:0:0:0:
256,192,84383,1,0,0:0:0:0:
256,192,84458,1,8,0:0:0:0:
256,192,84533,1,0,0:0:0:0:
256,192,84608,1,8,0:0:0:0:
256,192,84683,1,8,0:0:0:0:
256,192,84758,1,0,0:0:0:0:
256,192,84908,1,8,0:0:0:0:
256,192,84983,1,8,0:0:0:0:
256,192,85058,1,0,0:0:0:0:
256,192,85133,1,0,0:0:0:0:
256,192,85208,1,8,0:0:0:0:
256,192,85283,1,0,0:0:0:0:
256,192,85358,1,8,0:0:0:0:
256,192,85433,1,8,0:0:0:0:
256,192,85508,1,0,0:0:0:0:
256,192,85583,1,0,0:0:0:0:
256,192,85658,1,12,0:0:0:0:
256,192,86858,1,0,0:0:0:0:
