osu file format v14

[General]
AudioFilename: audio.mp3
AudioLeadIn: 0
PreviewTime: 56483
Countdown: 0
SampleSet: Soft
StackLeniency: 0.7
Mode: 0
LetterboxInBreaks: 0
WidescreenStoryboard: 0

[Editor]
Bookmarks: 76058
DistanceSpacing: 1.4
BeatDivisor: 4
GridSize: 8
TimelineZoom: 1.5

[Metadata]
Title:Kimi no Bouken (TV Size)
TitleUnicode:キミの冒険 (TV Size)
Artist:Okazaki Taiiku
ArtistUnicode:岡崎体育
Creator:Sotarks
Version:Shunao's Hard
Source:ポケットモンスター サン&ムーン
Tags:pokemon pokémon pocket monsters sun and moon opening op your adventure nintendo the company game freak alola akitoshi corinn -laura- shunao shogunmoon snownino_ reform kujinn
BeatmapID:1849121
BeatmapSetID:884581

[Difficulty]
HPDrainRate:5
CircleSize:3.7
OverallDifficulty:6
ApproachRate:8
SliderMultiplier:1.4
SliderTickRate:1

[Events]
//Background and Video events
0,0,"bg.jpg",0,0
Video,0,"video.avi"
//Break Periods
//Storyboard Layer 0 (Background)
//Storyboard Layer 1 (Fail)
//Storyboard Layer 2 (Pass)
//Storyboard Layer 3 (Foreground)
//Storyboard Sound Samples

[TimingPoints]
458,300,4,2,22,32,1,0
458,-142.857142857143,4,2,22,32,0,0
5258,-125,4,2,22,42,0,0
11258,-100,4,2,22,72,0,0
18458,-111.111111111111,4,2,22,72,0,0
37658,-125,4,2,22,62,0,0
53258,-125,4,2,22,72,0,0
56558,-125,4,2,22,52,0,0
56858,-83.3333333333333,4,2,22,82,0,1
85658,-100,4,2,22,82,0,0

[Colours]
Combo1 : 70,241,255
Combo2 : 55,255,65
Combo3 : 248,255,104

[HitObjects]
295,360,458,6,0,L|288:298,1,48.9999985046387,2|0,0:0|0:0,0:0:0:0:
222,261,758,2,0,L|227:212,1,48.9999985046387,2|0,0:0|0:0,0:0:0:0:
289,156,1058,2,0,P|240:165|193:135,1,97.9999970092774,2|0,0:0|0:0,0:0:0:0:
145,78,1508,6,0,P|105:65|46:91,1,97.9999970092774,2|0,0:0|0:0,0:0:0:0:
16,158,1958,2,0,L|25:220,1,48.9999985046387,2|2,0:0|0:0,0:0:0:0:
84,262,2258,2,0,L|75:324,1,48.9999985046387,2|0,0:0|0:0,0:0:0:0:
135,370,2558,2,0,P|163:367|191:371,1,48.9999985046387,2|0,0:0|0:0,0:0:0:0:
265,352,2858,6,0,P|295:357|322:350,1,48.9999985046387,2|0,0:0|0:0,0:0:0:0:
393,332,3158,2,0,L|384:276,1,48.9999985046387,0|0,0:0|0:0,0:0:0:0:
311,244,3458,2,0,L|320:188,1,48.9999985046387,2|0,0:0|0:0,0:0:0:0:
390,152,3758,2,0,L|381:96,1,48.9999985046387,0|0,0:0|0:0,0:0:0:0:
417,27,4058,6,0,P|470:29|509:78,1,97.9999970092774,2|0,0:0|0:0,0:0:0:0:
501,141,4508,1,0,0:0:0:0:
501,141,4658,2,0,L|496:203,1,48.9999985046387,2|0,0:0|0:0,0:0:0:0:
420,224,4958,2,0,L|423:272,1,48.9999985046387,0|0,0:0|0:0,0:0:0:0:
381,370,5258,6,0,P|330:350|255:370,1,112,2|2,0:2|3:2,0:0:0:0:
186,374,5708,2,0,P|176:346|171:301,1,56,2|0,0:2|0:2,0:0:0:0:
237,259,6008,2,0,P|247:231|252:186,1,56,2|0,0:2|3:2,0:0:0:0:
210,125,6308,6,0,P|192:77|184:9,1,112,2|2,0:2|0:2,0:0:0:0:
93,18,6758,2,0,P|53:12|16:12,1,56,2|0,3:2|0:2,0:0:0:0:
12,98,7058,2,0,P|17:131|17:170,1,56,2|0,0:2|0:2,0:0:0:0:
93,201,7358,2,0,P|88:234|88:273,1,56,2|0,3:2|0:0,0:0:0:0:
81,346,7658,6,0,P|134:370|197:354,2,112,2|2|2,0:2|3:2|0:2,0:0:0:0:
190,203,8558,2,0,P|195:172|200:124,1,56,2|0,3:2|0:2,0:0:0:0:
168,62,8858,6,0,P|206:94|283:83,1,112,6|0,0:0|0:0,0:0:0:0:
322,22,9308,1,0,0:0:0:0:
322,22,9458,2,0,B|299:120|299:120|354:246|354:246|329:351,1,336,0|0,0:0|0:0,0:0:0:0:
331,341,11258,6,0,L|239:330,1,70,6|0,1:2|0:2,0:0:0:0:
187,279,11558,2,0,L|95:290,1,70,2|0,1:2|0:2,0:0:0:0:
38,241,11858,1,10,0:2:0:0:
38,241,12008,2,0,P|33:208|42:163,1,70,2|0,1:2|0:2,0:0:0:0:
85,93,12308,6,0,B|168:78|135:132|237:114,1,140,10|10,0:2|0:2,0:0:0:0:
290,58,12758,1,0,1:2:0:0:
290,58,12908,2,0,P|259:102|291:185,1,140,2|2,1:2|1:2,0:0:0:0:
366,216,13358,2,0,L|441:210,1,70,2|10,0:2|0:2,0:0:0:0:
491,282,13658,6,0,P|501:318|490:364,1,70,2|0,1:2|1:2,0:0:0:0:
409,376,13958,2,0,L|328:369,1,70,2|0,0:2|1:2,0:0:0:0:
251,345,14258,1,10,0:2:0:0:
251,345,14408,2,0,L|170:352,1,70,2|0,1:2|0:2,0:0:0:0:
89,350,14708,6,0,P|61:288|96:220,1,140,10|10,0:2|0:2,0:0:0:0:
166,178,15158,1,0,1:2:0:0:
166,178,15308,2,0,P|232:187|327:194,1,140,2|2,1:2|1:2,0:0:0:0:
389,157,15758,2,0,P|380:119|390:78,1,70,2|10,0:2|0:2,0:0:0:0:
316,28,16058,6,0,P|282:33|226:31,1,70,6|0,1:2|1:2,0:0:0:0:
155,27,16358,2,0,P|121:22|65:24,1,70,2|0,0:2|1:2,0:0:0:0:
18,84,16658,1,10,0:2:0:0:
18,84,16808,2,0,P|25:120|27:167,1,70,2|0,1:2|0:2,0:0:0:0:
97,211,17108,6,0,P|83:273|74:356,1,140,10|10,0:2|0:2,0:0:0:0:
162,372,17558,1,2,1:2:0:0:
162,372,17708,2,0,P|198:364|250:374,1,70,2|10,1:2|0:2,0:0:0:0:
321,374,18008,1,2,1:2:0:0:
405,339,18158,2,0,L|398:286,3,35,10|8|10|8,0:2|0:2|0:2|0:2,0:0:0:0:
374,267,18458,6,0,L|382:199,1,62.9999980773926,6|0,1:2|0:0,0:0:0:0:
467,184,18758,2,0,L|457:104,1,62.9999980773926,8|2,0:2|0:2,0:0:0:0:
418,42,19058,2,0,P|367:24|291:49,1,125.999996154785,2|10,1:2|0:2,0:0:0:0:
247,113,19508,6,0,L|234:249,1,125.999996154785,2|2,0:2|0:2,0:0:0:0:
164,290,19958,2,0,L|173:375,1,62.9999980773926,10|0,0:2|0:2,0:0:0:0:
83,368,20258,2,0,P|50:372|8:358,1,62.9999980773926,2|0,1:2|0:2,0:0:0:0:
9,277,20558,2,0,L|18:192,1,62.9999980773926,10|0,0:2|0:2,0:0:0:0:
35,128,20858,6,0,L|25:47,2,62.9999980773926,2|0|10,1:2|0:2|0:2,0:0:0:0:
122,142,21308,2,0,P|149:130|191:131,1,62.9999980773926,0|2,0:2|1:2,0:0:0:0:
269,142,21608,2,0,L|282:3,1,125.999996154785,2|0,0:2|0:2,0:0:0:0:
368,24,22058,6,0,P|398:30|435:24,2,62.9999980773926,0|0|8,1:2|0:2|0:2,0:0:0:0:
372,112,22508,1,0,0:2:0:0:
372,112,22658,2,0,L|379:180,1,62.9999980773926,2|2,1:2|0:2,0:0:0:0:
311,233,22958,2,0,P|277:223|231:230,1,62.9999980773926,8|2,0:2|0:2,0:0:0:0:
163,245,23258,6,0,L|175:377,1,125.999996154785,6|8,1:2|0:2,0:0:0:0:
262,375,23708,1,2,0:2:0:0:
262,375,23858,2,0,P|293:375|323:366,1,62.9999980773926,2|0,1:2|0:2,0:0:0:0:
408,340,24158,2,0,P|439:339|469:348,1,62.9999980773926,10|2,0:2|0:2,0:0:0:0:
486,260,24458,6,0,P|464:192|462:121,1,125.999996154785,2|10,1:2|0:2,0:0:0:0:
372,143,24908,2,0,P|368:178|356:221,1,62.9999980773926,2|0,0:2|1:2,0:0:0:0:
279,228,25208,1,2,0:2:0:0:
279,228,25358,2,0,P|246:217|205:224,1,62.9999980773926,8|2,0:2|0:2,0:0:0:0:
130,234,25658,6,0,L|123:157,1,62.9999980773926,2|0,1:2|0:0,0:0:0:0:
190,113,25958,2,0,L|197:34,1,62.9999980773926,10|0,0:2|0:0,0:0:0:0:
111,23,26258,2,0,P|80:14|48:19,1,62.9999980773926,2|0,1:2|0:2,0:0:0:0:
8,97,26558,2,0,L|15:175,1,62.9999980773926,10|0,0:2|0:2,0:0:0:0:
43,242,26858,6,0,L|28:380,1,125.999996154785,2|8,1:2|0:2,0:0:0:0:
117,376,27308,1,0,0:2:0:0:
117,376,27458,2,0,P|149:370|179:376,1,62.9999980773926,2|0,1:2|0:2,0:0:0:0:
264,355,27758,2,0,P|296:361|326:354,1,62.9999980773926,8|0,0:2|0:2,0:0:0:0:
413,340,28058,6,0,L|403:254,1,62.9999980773926,6|0,1:2|0:0,0:0:0:0:
335,223,28358,2,0,L|342:160,1,62.9999980773926,10|0,0:2|0:2,0:0:0:0:
423,124,28658,1,2,1:2:0:0:
423,124,28808,2,0,L|415:61,1,62.9999980773926,2|8,0:2|0:2,0:0:0:0:
331,33,29108,6,0,B|260:10|274:57|195:36,1,125.999996154785,2|2,0:2|0:2,0:0:0:0:
122,25,29558,2,0,P|88:19|47:27,1,62.9999980773926,10|0,0:2|0:2,0:0:0:0:
12,97,29858,2,0,L|20:178,1,62.9999980773926,2|2,1:2|0:2,0:0:0:0:
80,222,30158,1,10,0:2:0:0:
80,222,30308,1,0,0:2:0:0:
163,193,30458,5,2,1:2:0:0:
163,193,30608,2,0,P|220:190|265:244,1,125.999996154785,2|0,0:2|0:2,0:0:0:0:
310,312,31058,2,0,L|394:305,1,62.9999980773926,0|0,1:2|0:2,0:0:0:0:
454,272,31358,2,0,P|457:237|446:199,1,62.9999980773926,8|0,0:2|0:2,0:0:0:0:
421,126,31658,5,2,1:2:0:0:
421,126,31808,2,0,L|282:114,1,125.999996154785,2|0,0:2|0:2,0:0:0:0:
219,160,32258,2,0,P|212:191|220:232,1,62.9999980773926,0|0,1:2|0:2,0:0:0:0:
267,293,32558,2,0,P|274:324|266:365,1,62.9999980773926,10|2,0:2|0:2,0:0:0:0:
183,376,32858,6,0,L|117:369,1,62.9999980773926,2|0,1:2|0:2,0:0:0:0:
34,348,33158,2,0,P|29:316|36:286,1,62.9999980773926,10|0,0:2|0:2,0:0:0:0:
97,221,33458,2,0,P|101:189|94:159,2,62.9999980773926,2|2|10,1:2|0:2|0:2,0:0:0:0:
12,194,33908,1,2,0:2:0:0:
12,194,34058,6,0,P|7:162|14:132,1,62.9999980773926,2|0,1:2|0:2,0:0:0:0:
49,50,34358,2,0,L|126:56,1,62.9999980773926,10|0,0:2|0:2,0:0:0:0:
193,90,34658,2,0,L|334:80,1,125.999996154785,2|10,1:2|0:2,0:0:0:0:
389,27,35108,1,2,0:2:0:0:
389,27,35258,6,0,P|362:80|392:149,1,125.999996154785,2|8,1:2|0:2,0:0:0:0:
454,191,35708,1,2,0:2:0:0:
454,191,35858,2,0,L|444:330,1,125.999996154785,2|8,1:2|0:2,0:0:0:0:
360,344,36308,1,0,0:2:0:0:
360,344,36458,6,0,L|355:267,1,62.9999980773926,0|0,1:2|0:2,0:0:0:0:
316,201,36758,2,0,P|284:196|246:202,1,62.9999980773926,8|0,0:2|0:2,0:0:0:0:
171,231,37058,1,8,0:2:0:0:
171,231,37208,1,8,0:3:0:0:
87,201,37358,1,4,0:3:0:0:
87,201,37508,1,4,0:3:0:0:
30,97,37658,6,0,P|23:66|26:22,2,56,4|0|0,1:2|0:2|0:2,0:0:0:0:
118,112,38108,1,0,0:2:0:0:
118,112,38258,2,0,P|148:115|195:108,1,56,8|0,0:2|0:2,0:0:0:0:
244,58,38558,2,0,P|274:55|321:62,1,56,0|8,0:2|0:2,0:0:0:0:
387,77,38858,6,0,L|379:154,1,56,0|8,1:2|0:2,0:0:0:0:
342,214,39158,2,0,L|354:340,2,112,0|8|0,1:2|0:2|0:2,0:0:0:0:
432,209,39908,1,8,0:2:0:0:
432,209,40058,6,0,P|460:214|488:207,2,56,4|0|0,1:2|0:2|0:2,0:0:0:0:
381,132,40508,1,0,0:2:0:0:
381,132,40658,2,0,P|351:125|321:132,1,56,8|0,0:2|0:2,0:0:0:0:
236,135,40958,2,0,L|227:64,1,56,0|8,0:2|0:2,0:0:0:0:
148,40,41258,6,0,L|140:112,1,56,0|8,1:2|0:2,0:0:0:0:
118,182,41558,2,0,P|63:191|5:152,2,112,0|8|0,1:2|0:2|1:2,0:0:0:0:
194,228,42308,1,0,0:0:0:0:
194,228,42458,6,0,L|200:298,1,56,4|0,1:2|0:2,0:0:0:0:
182,371,42758,2,0,P|157:365|126:371,1,56,0|0,0:2|0:2,0:0:0:0:
37,366,43058,2,0,L|27:245,1,112,8|0,0:2|0:2,0:0:0:0:
57,169,43508,1,8,0:2:0:0:
57,169,43658,6,0,L|62:98,1,56,0|8,1:2|0:2,0:0:0:0:
80,25,43958,2,0,P|111:19|148:27,1,56,0|0,1:2|0:2,0:0:0:0:
223,35,44258,2,0,L|219:102,1,56,8|0,0:2|0:0,0:0:0:0:
167,163,44558,2,0,L|170:218,1,56,0|8,0:2|0:2,0:0:0:0:
188,307,44858,6,0,P|230:342|297:336,1,112,4|0,1:2|0:0,0:0:0:0:
369,311,45308,2,0,L|444:319,2,56,0|8|0,0:2|0:2|0:2,0:0:0:0:
317,236,45758,1,0,0:2:0:0:
317,236,45908,1,8,0:2:0:0:
274,157,46058,6,0,P|270:126|274:94,1,56,0|8,1:2|0:2,0:0:0:0:
324,27,46358,2,0,L|402:34,1,56,0|0,1:2|0:2,0:0:0:0:
466,55,46658,2,0,P|487:110|461:167,1,112,8|0,0:2|1:2,0:0:0:0:
404,219,47108,1,8,0:2:0:0:
404,219,47258,6,0,L|410:291,2,56,4|0|0,1:2|0:2|0:2,0:0:0:0:
315,202,47708,2,0,P|285:194|245:197,1,56,0|8,0:2|0:2,0:0:0:0:
174,219,48008,2,0,P|116:234|59:213,1,112,0|8,0:2|0:2,0:0:0:0:
27,137,48458,5,0,1:2:0:0:
27,137,48608,2,0,L|21:81,2,56,8|0|0,0:2|1:2|0:2,0:0:0:0:
67,218,49058,2,0,L|60:285,1,56,8|0,0:2|0:0,0:0:0:0:
45,362,49358,2,0,P|76:359|110:368,1,56,0|8,0:2|0:2,0:0:0:0:
187,343,49658,6,0,P|241:359|295:339,2,112,4|0|8,1:2|0:2|0:2,0:0:0:0:
298,202,50558,2,0,L|372:195,1,56,0|8,0:2|0:2,0:0:0:0:
432,153,50858,6,0,P|435:120|426:90,1,56,0|8,1:2|0:2,0:0:0:0:
371,29,51158,1,0,1:2:0:0:
210,109,51458,2,0,L|149:103,1,56,8|0,0:2|0:2,0:0:0:0:
110,24,51758,2,0,L|48:32,1,56,0|0,1:2|0:2,0:0:0:0:
22,133,52058,6,0,P|31:187|37:258,2,112,6|8|10,1:2|0:2|0:2,0:0:0:0:
170,233,52958,2,0,P|161:270|156:313,1,56,8|0,0:2|0:0,0:0:0:0:
197,368,53258,6,0,P|227:361|266:365,1,56,10|0,0:2|1:2,0:0:0:0:
342,366,53558,2,0,P|333:329|328:286,1,56,10|0,0:2|1:2,0:0:0:0:
373,232,53858,1,10,0:2:0:0:
373,232,54008,1,0,1:2:0:0:
460,211,54158,1,10,0:2:0:0:
460,211,54308,1,0,1:2:0:0:
478,123,54458,6,0,P|459:117|440:115,3,28,10|0|0|0,1:2|1:2|1:2|1:2,0:0:0:0:
406,121,54758,2,0,P|387:127|368:129,3,28,8|0|2|0,1:2|1:2|1:2|1:2,0:0:0:0:
336,115,55058,2,0,P|317:109|298:107,3,28,8|0|0|0,1:2|1:2|1:2|1:2,0:0:0:0:
264,113,55358,2,0,P|245:119|226:121,3,28,10|0|0|0,1:2|1:2|1:2|1:2,0:0:0:0:
192,120,55658,5,6,1:2:0:0:
192,120,56858,6,0,P|184:161|180:217,1,83.9999974365235,6|0,1:2|0:2,0:0:0:0:
82,231,57158,2,0,P|90:272|93:314,1,83.9999974365235,10|0,0:2|0:2,0:0:0:0:
190,342,57458,2,0,B|290:318|252:385|356:364,1,167.999994873047,2|8,1:2|0:2,0:0:0:0:
449,346,57908,6,0,P|480:277|424:200,1,167.999994873047,2|2,0:2|0:2,0:0:0:0:
352,146,58358,1,10,0:2:0:0:
259,186,58508,1,2,0:2:0:0:
166,146,58658,2,0,L|156:47,1,83.9999974365235,2|0,1:2|0:2,0:0:0:0:
60,35,58958,2,0,L|50:137,1,83.9999974365235,10|0,0:2|0:2,0:0:0:0:
13,211,59258,6,0,L|23:312,1,83.9999974365235,2|0,1:2|0:2,0:0:0:0:
111,339,59558,2,0,L|120:242,1,83.9999974365235,10|0,0:2|0:2,0:0:0:0:
212,217,59858,2,0,P|252:206|296:222,1,83.9999974365235,2|0,1:2|0:2,0:0:0:0:
379,269,60158,2,0,P|419:280|463:264,1,83.9999974365235,10|0,0:2|0:2,0:0:0:0:
505,178,60458,6,0,L|494:11,1,167.999994873047,2|8,1:2|0:2,0:0:0:0:
394,28,60908,1,0,0:2:0:0:
294,44,61058,2,0,P|252:42|207:32,1,83.9999974365235,2|0,1:2|0:0,0:0:0:0:
131,95,61358,2,0,P|141:138|147:194,1,83.9999974365235,8|0,0:2|0:2,0:0:0:0:
52,217,61658,6,0,B|149:190|122:252|224:228,1,167.999994873047,6|10,1:2|0:2,0:0:0:0:
316,235,62108,2,0,P|306:278|300:334,1,83.9999974365235,2|0,0:2|1:2,0:0:0:0:
214,370,62408,2,0,P|164:358|118:363,1,83.9999974365235,2|8,0:2|0:2,0:0:0:0:
31,345,62708,6,0,P|8:273|60:179,1,167.999994873047,2|2,0:2|0:2,0:0:0:0:
121,126,63158,1,10,0:2:0:0:
221,127,63308,1,0,0:2:0:0:
297,192,63458,2,0,L|401:182,1,83.9999974365235,2|0,1:2|0:2,0:0:0:0:
420,91,63758,2,0,L|324:84,1,83.9999974365235,10|0,0:2|0:2,0:0:0:0:
259,19,64058,6,0,L|169:26,1,83.9999974365235,2|0,1:2|0:2,0:0:0:0:
76,43,64358,2,0,P|60:79|73:139,1,83.9999974365235,10|0,0:2|0:2,0:0:0:0:
130,198,64658,2,0,P|146:236|141:277,1,83.9999974365235,2|0,1:2|0:2,0:0:0:0:
189,366,64958,2,0,P|230:358|284:361,1,83.9999974365235,10|0,0:2|0:2,0:0:0:0:
334,280,65258,6,0,B|301:198|374:206|333:101,1,167.999994873047,2|8,1:2|0:2,0:0:0:0:
274,38,65708,1,2,0:2:0:0:
359,91,65858,2,0,P|447:103|513:42,1,167.999994873047,2|8,1:2|0:2,0:0:0:0:
416,7,66308,1,0,0:2:0:0:
337,95,66458,6,0,L|345:193,1,83.9999974365235,6|2,1:2|0:2,0:0:0:0:
420,260,66758,2,0,L|412:354,1,83.9999974365235,10|2,0:2|0:2,0:0:0:0:
318,378,67058,2,0,P|251:335|152:376,1,167.999994873047,2|8,1:2|0:2,0:0:0:0:
70,367,67508,6,0,P|51:296|41:180,1,167.999994873047,2|2,0:2|0:2,0:0:0:0:
108,126,67958,1,10,0:2:0:0:
195,175,68108,1,2,0:2:0:0:
278,118,68258,2,0,P|286:70|286:16,1,83.9999974365235,2|0,1:2|0:2,0:0:0:0:
186,23,68558,2,0,P|141:33|70:18,1,83.9999974365235,10|0,0:2|0:2,0:0:0:0:
21,89,68858,6,0,P|22:130|30:172,1,83.9999974365235,2|0,1:2|0:2,0:0:0:0:
75,262,69158,2,0,P|115:253|165:264,1,83.9999974365235,10|0,0:2|0:2,0:0:0:0:
254,285,69458,2,0,P|246:326|244:368,1,83.9999974365235,2|0,1:2|0:2,0:0:0:0:
346,363,69758,2,0,P|387:355|427:364,1,83.9999974365235,10|0,0:2|0:2,0:0:0:0:
502,296,70058,6,0,P|446:253|441:140,1,167.999994873047,2|8,1:2|0:2,0:0:0:0:
494,80,70508,1,0,0:2:0:0:
411,21,70658,2,0,L|325:27,1,83.9999974365235,2|0,1:2|0:2,0:0:0:0:
230,56,70958,2,0,P|219:98|234:153,1,83.9999974365235,8|0,0:2|0:2,0:0:0:0:
308,195,71258,6,0,P|222:192|181:261,1,167.999994873047,6|10,1:2|0:2,0:0:0:0:
156,352,71708,2,0,L|56:342,1,83.9999974365235,2|0,0:2|1:2,0:0:0:0:
15,260,72008,2,0,L|115:250,1,83.9999974365235,2|10,0:2|0:2,0:0:0:0:
132,156,72308,6,0,P|116:88|20:48,1,167.999994873047,2|2,0:2|0:2,0:0:0:0:
34,147,72758,1,10,0:2:0:0:
115,205,72908,1,0,0:2:0:0:
213,184,73058,2,0,P|254:173|319:174,1,83.9999974365235,2|0,1:2|0:2,0:0:0:0:
383,122,73358,2,0,P|366:83|360:28,1,83.9999974365235,10|0,0:2|0:2,0:0:0:0:
457,67,73658,6,0,P|472:147|409:212,1,167.999994873047,2|8,1:2|0:2,0:0:0:0:
326,249,74108,2,0,P|411:252|519:267,1,167.999994873047,2|0,0:2|0:2,0:0:0:0:
479,362,74558,2,0,P|438:364|393:372,1,83.9999974365235,10|0,0:2|0:2,0:0:0:0:
300,337,74858,6,0,P|289:268|190:235,1,167.999994873047,10|8,0:2|0:2,0:0:0:0:
108,259,75308,1,0,1:2:0:0:
22,205,75458,2,0,L|15:150,3,41.9999987182618,8|0|2|0,1:2|1:2|1:2|1:2,0:0:0:0:
54,129,75758,2,0,L|62:73,3,41.9999987182618,10|0|2|0,1:2|1:2|1:2|1:2,0:0:0:0:
81,42,76058,6,0,P|122:33|173:47,1,83.9999974365235,14|0,0:2|0:2,0:0:0:0:
228,118,76358,2,0,L|236:215,1,83.9999974365235,8|0,0:2|0:2,0:0:0:0:
333,177,76658,2,0,L|339:93,1,83.9999974365235,8|0,0:2|1:2,0:0:0:0:
423,36,76958,1,10,0:2:0:0:
510,86,77108,1,2,1:2:0:0:
465,176,77258,6,0,L|471:259,1,83.9999974365235,10|2,0:2|0:2,0:0:0:0:
481,360,77558,2,0,P|437:350|392:363,1,83.9999974365235,10|0,0:2|0:2,0:0:0:0:
298,348,77858,2,0,P|254:358|209:345,1,83.9999974365235,8|0,0:2|1:2,0:0:0:0:
124,306,78158,1,10,0:2:0:0:
34,351,78308,1,2,1:2:0:0:
7,253,78458,6,0,P|12:206|24:159,1,83.9999974365235,10|0,0:2|0:2,0:0:0:0:
115,133,78758,2,0,P|110:86|98:39,1,83.9999974365235,8|0,0:2|0:2,0:0:0:0:
199,23,79058,2,0,P|242:21|285:46,1,83.9999974365235,8|0,0:2|1:2,0:0:0:0:
348,111,79358,1,10,0:2:0:0:
325,209,79508,1,0,1:2:0:0:
237,259,79658,6,0,P|243:300|244:358,1,83.9999974365235,10|0,0:2|0:2,0:0:0:0:
345,349,79958,2,0,P|387:341|436:357,1,83.9999974365235,10|2,0:2|0:2,0:0:0:0:
491,275,80258,2,0,P|492:233|498:191,1,83.9999974365235,8|0,0:2|1:2,0:0:0:0:
465,95,80558,2,0,P|423:83|374:89,1,83.9999974365235,10|0,0:2|1:2,0:0:0:0:
289,125,80858,6,0,P|247:137|198:131,1,83.9999974365235,14|0,0:2|1:2,0:0:0:0:
108,112,81158,2,0,L|99:204,1,83.9999974365235,10|0,0:2|1:2,0:0:0:0:
20,257,81458,2,0,L|30:347,1,83.9999974365235,10|0,0:2|1:2,0:0:0:0:
124,373,81758,1,10,0:2:0:0:
224,365,81908,1,0,1:2:0:0:
294,293,82058,6,0,L|303:209,1,83.9999974365235,10|0,0:2|1:2,0:0:0:0:
397,174,82358,2,0,L|387:90,1,83.9999974365235,10|0,0:2|1:2,0:0:0:0:
306,30,82658,2,0,P|266:17|222:26,1,83.9999974365235,10|0,0:2|1:2,0:0:0:0:
125,37,82958,1,10,0:2:0:0:
49,104,83108,1,0,1:2:0:0:
43,204,83258,6,0,P|83:215|149:201,1,83.9999974365235,10|0,0:2|1:2,0:0:0:0:
213,163,83558,2,0,P|253:152|319:166,1,83.9999974365235,10|0,0:2|1:2,0:0:0:0:
386,200,83858,2,0,P|426:211|492:197,1,83.9999974365235,8|0,0:2|1:2,0:0:0:0:
502,301,84158,1,10,0:2:0:0:
432,374,84308,1,0,1:2:0:0:
332,359,84458,6,0,P|288:350|239:361,2,83.9999974365235,10|0|8,0:2|0:0|0:2,0:0:0:0:
398,282,84908,2,0,P|388:242|386:193,1,83.9999974365235,2|8,1:2|0:2,0:0:0:0:
455,126,85208,2,0,P|461:97|463:63,5,41.9999987182618,8|8|10|8|8|8,0:2|0:2|1:2|0:2|0:2|0:2,0:0:0:0:
448,44,85658,6,0,B|222:-10|284:130|42:87|42:87|129:98|180:166,1,560,6|10,1:2|0:2,0:0:0:0:
