osu file format v14

[General]
AudioFilename: audio.mp3
AudioLeadIn: 0
PreviewTime: 56483
Countdown: 0
SampleSet: Soft
StackLeniency: 0.7
Mode: 0
LetterboxInBreaks: 0
WidescreenStoryboard: 0

[Editor]
DistanceSpacing: 1.1
BeatDivisor: 6
GridSize: 32
TimelineZoom: 1.5

[Metadata]
Title:Kimi no Bouken (TV Size)
TitleUnicode:キミの冒険 (TV Size)
Artist:Okazaki Taiiku
ArtistUnicode:岡崎体育
Creator:Sotarks
Version:Reform's Extra
Source:ポケットモンスター サン&ムーン
Tags:pokemon pokémon pocket monsters sun and moon opening op your adventure nintendo the company game freak alola akitoshi corinn -laura- shunao shogunmoon snownino_ reform kujinn
BeatmapID:1849120
BeatmapSetID:884581

[Difficulty]
HPDrainRate:5
CircleSize:3.6
OverallDifficulty:9.1
ApproachRate:9
SliderMultiplier:1.82
SliderTickRate:1

[Events]
//Background and Video events
0,0,"bg.jpg",0,0
Video,0,"video.avi"
//Break Periods
//Storyboard Layer 0 (Background)
//Storyboard Layer 1 (Fail)
//Storyboard Layer 2 (Pass)
//Storyboard Layer 3 (Foreground)
//Storyboard Sound Samples

[TimingPoints]
458,300,4,2,22,32,1,0
458,-161.290322580645,4,2,22,32,0,0
5258,-138.888888888889,4,2,22,42,0,0
8858,-333.333333333333,4,2,22,42,0,0
11258,-121.951219512195,4,2,22,72,0,0
18458,-138.888888888889,4,2,22,62,0,0
37658,-161.290322580645,4,2,22,62,0,0
53258,-161.290322580645,4,2,22,72,0,0
54458,-121.951219512195,4,2,22,72,0,0
55658,-192.307692307692,4,2,22,72,0,0
56558,-138.888888888889,4,2,22,52,0,0
56858,-98.0392156862745,4,2,22,82,0,0
85658,-161.290322580645,4,2,22,82,0,0

[Colours]
Combo1 : 70,241,255
Combo2 : 55,255,65
Combo3 : 248,255,104

[HitObjects]
253,276,458,6,0,P|218:264|188:262,1,56.4199977616578,2|0,0:0|0:0,0:0:0:0:
51,331,758,2,0,P|80:327|108:316,1,56.4199977616578,2|0,0:0|0:0,0:0:0:0:
64,241,1058,2,0,P|56:183|44:105,1,112.839995523316,2|0,0:0|0:0,0:0:0:0:
118,32,1508,6,0,P|126:77|199:110,1,112.839995523316,2|0,0:0|0:0,0:0:0:0:
280,84,1958,2,0,P|288:46|297:17,1,56.4199977616578,2|2,0:0|0:0,0:0:0:0:
351,141,2258,2,0,P|359:169|364:198,1,56.4199977616578,2|0,0:0|0:0,0:0:0:0:
436,83,2558,2,0,P|480:72|506:71,1,56.4199977616578,2|0,0:0|0:0,0:0:0:0:
325,215,2858,6,0,P|269:209|227:173,2,112.839995523316,2|0|2,0:0|0:0|0:0,0:0:0:0:
462,285,3758,1,0,0:0:0:0:
338,352,4058,2,0,P|282:357|152:372,1,169.259993284973,2|0,0:0|0:0,0:0:0:0:
68,263,4658,2,0,B|168:236|139:296|252:266,1,169.259993284973,2|0,0:0|0:0,0:0:0:0:
299,186,5258,6,0,P|288:144|322:65,1,131.040003199219,2|2,0:2|3:2,0:0:0:0:
397,157,5708,2,0,P|404:203|407:228,1,65.5200015996094,2|0,0:2|0:2,0:0:0:0:
289,344,6008,2,0,P|293:311|298:279,1,65.5200015996094,2|0,0:2|3:2,0:0:0:0:
239,180,6308,6,0,B|163:158|192:208|96:177,1,131.040003199219,2|2,0:2|0:2,0:0:0:0:
10,233,6758,2,0,P|0:269|2:312,1,65.5200015996094,2|0,3:2|0:2,0:0:0:0:
46,130,7058,2,0,P|44:97|35:66,1,65.5200015996094,2|0,0:2|0:2,0:0:0:0:
133,218,7358,2,0,P|143:254|141:297,1,65.5200015996094,2|0,3:2|0:0,0:0:0:0:
282,363,7658,6,0,P|321:352|360:350,1,65.5200015996094,2|0,0:2|0:2,0:0:0:0:
463,277,7958,2,0,P|430:273|399:263,1,65.5200015996094,2|0,3:2|0:2,0:0:0:0:
291,124,8258,2,0,P|329:150|354:186,1,65.5200015996094,2|0,0:2|0:2,0:0:0:0:
486,152,8558,2,0,P|463:118|454:83,1,65.5200015996094,2|0,3:2|0:2,0:0:0:0:
341,8,8858,6,0,B|176:169|374:152|178:376,1,409.499987503052,6|0,0:0|0:0,0:0:0:0:
112,298,11258,6,0,P|103:242|108:203,1,74.6200011386109,6|0,1:2|0:2,0:0:0:0:
16,74,11558,2,0,P|16:111|8:147,1,74.6200011386109,2|0,1:2|0:2,0:0:0:0:
134,68,11858,1,10,0:2:0:0:
134,68,12008,2,0,P|186:80|212:99,1,74.6200011386109,2|0,1:2|0:2,0:0:0:0:
282,252,12308,6,0,P|325:252|366:233,1,74.6200011386109,10|0,0:2|1:2,0:0:0:0:
502,146,12608,2,0,P|466:133|429:134,1,74.6200011386109,10|0,0:2|1:2,0:0:0:0:
437,304,12908,2,0,P|445:252|452:218,1,74.6200011386109,2|8,1:2|0:2,0:0:0:0:
280,94,13208,1,2,1:2:0:0:
354,240,13358,1,2,0:2:0:0:
406,58,13508,1,10,0:2:0:0:
236,203,13658,6,0,P|192:197|155:175,1,74.6200011386109,2|0,1:2|1:2,0:0:0:0:
34,52,13958,2,0,P|44:103|46:147,1,74.6200011386109,2|0,0:2|1:2,0:0:0:0:
45,125,14183,1,0,1:2:0:0:
45,125,14258,1,10,0:2:0:0:
77,306,14408,2,0,P|80:268|88:232,1,74.6200011386109,2|0,1:2|0:2,0:0:0:0:
270,87,14708,6,0,P|227:68|167:68,1,74.6200011386109,10|0,0:2|1:2,0:0:0:0:
362,197,15008,2,0,P|398:190|432:174,1,74.6200011386109,10|0,0:2|1:2,0:0:0:0:
241,177,15308,2,0,P|220:213|208:266,1,74.6200011386109,2|8,1:2|0:2,0:0:0:0:
333,70,15608,1,2,1:2:0:0:
358,242,15758,1,2,0:2:0:0:
365,55,15908,1,10,0:2:0:0:
226,187,16058,6,0,P|182:192|140:180,1,74.6200011386109,6|0,1:2|1:2,0:0:0:0:
11,287,16358,2,0,P|47:280|84:285,1,74.6200011386109,2|0,0:2|1:2,0:0:0:0:
84,285,16583,1,0,1:2:0:0:
84,285,16658,1,10,0:2:0:0:
223,361,16808,2,0,P|259:367|296:362,1,74.6200011386109,2|0,1:2|0:2,0:0:0:0:
394,221,17108,6,0,P|405:264|411:298,1,74.6200011386109,10|0,0:2|1:2,0:0:0:0:
312,127,17408,1,10,0:2:0:0:
262,262,17558,1,2,1:2:0:0:
401,128,17708,1,2,1:2:0:0:
214,109,17858,1,10,0:2:0:0:
361,265,18008,1,2,1:2:0:0:
336,46,18158,2,0,L|349:-15,3,37.3100005693054,10|8|10|8,0:2|0:2|0:2|0:2,0:0:0:0:
249,68,18458,6,0,B|168:42|196:97|96:62,1,131.040003199219,6|8,1:2|0:2,0:0:0:0:
48,132,18908,1,2,0:2:0:0:
48,132,19058,2,0,P|62:178|62:224,1,65.5200015996094,2|0,1:2|0:2,0:0:0:0:
66,342,19358,1,10,0:2:0:0:
152,195,19508,6,0,P|171:155|250:116,1,131.040003199219,2|2,0:2|0:2,0:0:0:0:
319,250,19958,2,0,P|332:290|336:327,1,65.5200015996094,10|0,0:2|0:2,0:0:0:0:
448,188,20258,2,0,P|435:228|431:265,1,65.5200015996094,2|0,1:2|0:2,0:0:0:0:
351,117,20558,2,0,P|311:114|274:93,1,65.5200015996094,10|0,0:2|0:2,0:0:0:0:
113,50,20858,6,0,P|143:37|175:36,1,65.5200015996094,2|0,1:2|0:2,0:0:0:0:
48,167,21158,1,10,0:2:0:0:
4,50,21308,1,0,0:2:0:0:
167,149,21458,1,2,1:2:0:0:
167,149,21608,2,0,P|175:190|177:224,2,65.5200015996094,2|8|0,0:2|0:2|0:2,0:0:0:0:
286,27,22058,6,0,P|270:76|266:112,1,65.5200015996094,0|0,1:2|0:2,0:0:0:0:
394,195,22358,2,0,P|387:162|375:132,1,65.5200015996094,8|0,0:2|0:2,0:0:0:0:
340,293,22658,1,2,1:2:0:0:
458,243,22808,1,2,0:2:0:0:
296,190,22958,2,0,P|256:205|235:225,1,65.5200015996094,8|2,0:2|0:2,0:0:0:0:
124,342,23258,6,0,B|150:258|94:290|133:187,1,131.040003199219,6|8,1:2|0:2,0:0:0:0:
216,251,23708,1,2,0:2:0:0:
127,112,23858,2,0,P|134:71|144:39,1,65.5200015996094,2|0,1:2|0:2,0:0:0:0:
26,186,24158,2,0,P|35:217|39:249,1,65.5200015996094,10|2,0:2|0:2,0:0:0:0:
222,146,24458,6,0,P|277:150|326:230,1,131.040003199219,2|10,1:2|0:2,0:0:0:0:
383,308,24908,2,0,P|424:319|455:320,1,65.5200015996094,2|0,0:2|1:2,0:0:0:0:
301,244,25208,2,0,P|268:246|237:256,1,65.5200015996094,2|8,0:2|0:2,0:0:0:0:
415,181,25508,1,2,0:2:0:0:
275,144,25658,6,0,P|265:98|264:56,1,65.5200015996094,2|0,1:2|0:0,0:0:0:0:
158,19,25958,2,0,P|154:51|146:83,1,65.5200015996094,10|0,0:2|0:0,0:0:0:0:
81,159,26258,2,0,P|44:169|10:171,1,65.5200015996094,2|0,1:2|0:2,0:0:0:0:
105,255,26558,2,0,P|137:258|169:267,1,65.5200015996094,10|0,0:2|0:2,0:0:0:0:
278,353,26858,6,0,P|334:360|407:323,1,131.040003199219,2|8,1:2|0:2,0:0:0:0:
484,263,27308,1,0,0:2:0:0:
407,201,27458,2,0,P|400:161|391:127,1,65.5200015996094,2|0,1:2|0:2,0:0:0:0:
334,274,27758,2,0,P|326:305|320:338,1,65.5200015996094,8|0,0:2|0:2,0:0:0:0:
249,190,28058,6,0,B|168:181|205:224|107:217,1,131.040003199219,6|10,1:2|0:2,0:0:0:0:
1,176,28508,1,0,0:2:0:0:
43,278,28658,2,0,P|50:325|52:359,1,65.5200015996094,2|2,1:2|0:2,0:0:0:0:
115,171,28958,1,8,0:2:0:0:
194,306,29108,6,0,P|237:351|323:353,1,131.040003199219,2|2,0:2|0:2,0:0:0:0:
374,263,29558,2,0,P|414:252|451:250,1,65.5200015996094,10|0,0:2|0:2,0:0:0:0:
309,182,29858,2,0,P|276:178|245:168,1,65.5200015996094,2|2,1:2|0:2,0:0:0:0:
425,89,30158,1,10,0:2:0:0:
384,224,30308,1,0,0:2:0:0:
294,86,30458,5,2,1:2:0:0:
294,86,30608,2,0,P|286:45|285:11,2,65.5200015996094,2|8|0,0:2|0:2|0:2,0:0:0:0:
198,214,31058,1,0,1:2:0:0:
198,214,31208,2,0,P|206:173|207:139,2,65.5200015996094,0|8|0,0:2|0:2|0:2,0:0:0:0:
291,311,31658,5,2,1:2:0:0:
291,311,31808,2,0,P|334:319|368:333,2,65.5200015996094,2|8|0,0:2|0:2|0:2,0:0:0:0:
173,340,32258,1,0,1:2:0:0:
173,340,32408,1,0,0:2:0:0:
73,275,32558,2,0,P|68:223|71:192,1,65.5200015996094,10|2,0:2|0:2,0:0:0:0:
156,93,32858,6,0,P|201:100|226:107,1,65.5200015996094,2|0,1:2|0:2,0:0:0:0:
298,207,33158,2,0,P|330:202|362:194,1,65.5200015996094,10|0,0:2|0:2,0:0:0:0:
423,103,33458,2,0,P|432:51|441:22,1,65.5200015996094,2|2,1:2|0:2,0:0:0:0:
491,194,33758,1,10,0:2:0:0:
491,194,33908,1,2,0:2:0:0:
346,82,34058,6,0,P|305:69|269:66,1,65.5200015996094,2|0,1:2|0:2,0:0:0:0:
246,176,34358,2,0,P|205:189|169:192,1,65.5200015996094,10|0,0:2|0:2,0:0:0:0:
78,141,34658,2,0,P|69:98|61:66,1,65.5200015996094,2|0,1:2|0:2,0:0:0:0:
46,249,34958,1,10,0:2:0:0:
46,249,35108,1,2,0:2:0:0:
210,106,35258,6,0,P|257:104|324:168,1,131.040003199219,2|8,1:2|0:2,0:0:0:0:
369,243,35708,1,2,0:2:0:0:
369,243,35858,2,0,P|378:285|381:324,1,65.5200015996094,2|0,1:2|0:2,0:0:0:0:
442,174,36158,2,0,P|445:141|453:109,1,65.5200015996094,8|0,0:2|0:2,0:0:0:0:
336,248,36458,6,0,P|296:263|259:265,1,65.5200015996094,0|0,1:2|0:2,0:0:0:0:
161,155,36758,2,0,P|193:159|223:172,1,65.5200015996094,8|0,0:2|0:2,0:0:0:0:
74,253,37058,1,8,0:2:0:0:
197,328,37208,1,8,0:3:0:0:
46,264,37358,1,4,0:3:0:0:
184,208,37508,1,4,0:3:0:0:
327,304,37658,6,0,P|338:347|343:369,1,56.4199977616578,4|0,1:2|0:2,0:0:0:0:
420,209,37958,2,0,P|409:252|404:274,1,56.4199977616578,0|0,0:2|0:2,0:0:0:0:
303,138,38258,2,0,P|314:181|319:203,1,56.4199977616578,8|0,0:2|0:2,0:0:0:0:
396,43,38558,2,0,P|385:86|380:108,1,56.4199977616578,0|8,0:2|0:2,0:0:0:0:
230,40,38858,5,0,1:2:0:0:
230,40,39008,1,8,0:2:0:0:
144,117,39158,2,0,P|111:111|85:97,1,56.4199977616578,0|0,1:2|0:2,0:0:0:0:
192,197,39458,2,0,P|228:213|265:295,1,112.839995523316,8|0,0:2|0:2,0:0:0:0:
339,346,39908,1,8,0:2:0:0:
339,346,40058,6,0,P|346:301|352:279,1,56.4199977616578,4|0,1:2|0:2,0:0:0:0:
435,237,40358,2,0,P|428:192|422:170,1,56.4199977616578,0|0,0:2|0:2,0:0:0:0:
297,188,40658,2,0,P|304:143|310:121,1,56.4199977616578,8|0,0:2|0:2,0:0:0:0:
393,79,40958,2,0,P|386:34|380:12,1,56.4199977616578,0|8,0:2|0:2,0:0:0:0:
306,132,41258,5,0,1:2:0:0:
306,132,41408,1,8,0:2:0:0:
229,63,41558,2,0,P|198:75|174:98,1,56.4199977616578,0|0,1:2|0:2,0:0:0:0:
119,205,41858,2,0,P|106:151|61:96,1,112.839995523316,8|0,0:2|1:2,0:0:0:0:
66,323,42458,6,0,P|111:332|189:296,1,112.839995523316,4|0,1:2|0:2,0:0:0:0:
305,215,43058,2,0,P|350:206|428:242,1,112.839995523316,8|0,0:2|0:2,0:0:0:0:
354,293,43508,1,8,0:2:0:0:
354,293,43658,6,0,P|343:326|337:358,1,56.4199977616578,0|8,1:2|0:2,0:0:0:0:
261,233,43958,2,0,P|254:205|245:178,1,56.4199977616578,0|0,1:2|0:2,0:0:0:0:
155,81,44258,2,0,P|110:108|86:183,1,112.839995523316,8|0,0:2|0:2,0:0:0:0:
45,248,44708,1,8,0:2:0:0:
45,248,44858,6,0,B|153:265|82:295|203:319,1,169.259993284973,4|0,1:2|0:2,0:0:0:0:
272,247,45458,2,0,P|283:206|296:173,1,56.4199977616578,8|0,0:2|0:2,0:0:0:0:
345,319,45758,1,0,0:2:0:0:
345,319,45908,1,8,0:2:0:0:
450,218,46058,5,0,1:2:0:0:
421,349,46208,1,8,0:2:0:0:
365,212,46358,2,0,P|353:168|341:140,1,56.4199977616578,0|0,1:2|0:2,0:0:0:0:
274,268,46658,2,0,P|230:291|159:259,1,112.839995523316,8|0,0:2|1:2,0:0:0:0:
82,211,47108,1,8,0:2:0:0:
82,211,47258,6,0,P|119:200|159:197,1,56.4199977616578,4|0,1:2|0:2,0:0:0:0:
54,118,47558,2,0,P|26:113|0:104,1,56.4199977616578,0|0,0:2|0:2,0:0:0:0:
146,44,47858,1,8,0:2:0:0:
146,44,48008,2,0,P|185:74|254:68,1,112.839995523316,0|8,0:2|0:2,0:0:0:0:
345,22,48458,6,0,P|349:62|351:92,1,56.4199977616578,0|8,1:2|0:2,0:0:0:0:
429,154,48758,1,0,1:2:0:0:
429,154,48908,1,0,0:2:0:0:
321,198,49058,2,0,P|281:203|250:212,1,56.4199977616578,8|0,0:2|0:0,0:0:0:0:
402,280,49358,2,0,P|429:286|457:288,1,56.4199977616578,0|8,0:2|0:2,0:0:0:0:
268,328,49658,6,0,P|233:318|200:315,1,56.4199977616578,4|0,1:2|0:2,0:0:0:0:
66,254,49958,2,0,P|93:249|120:241,1,56.4199977616578,0|0,0:2|0:2,0:0:0:0:
188,149,50258,2,0,P|185:98|224:37,1,112.839995523316,8|0,0:2|0:2,0:0:0:0:
281,115,50708,1,8,0:2:0:0:
365,47,50858,5,0,1:2:0:0:
365,47,51008,1,8,0:2:0:0:
355,164,51158,2,0,P|366:200|376:225,1,56.4199977616578,0|0,1:2|0:0,0:0:0:0:
324,309,51458,6,0,P|293:314|262:323,1,56.4199977616578,8|0,0:2|0:2,0:0:0:0:
394,241,51758,2,0,P|421:248|449:252,1,56.4199977616578,0|0,1:2|0:2,0:0:0:0:
258,117,52058,5,6,1:2:0:0:
257,126,52358,1,8,0:2:0:0:
86,67,52658,1,10,0:2:0:0:
85,58,52958,1,8,0:2:0:0:
113,244,53258,5,10,0:2:0:0:
194,69,53408,1,0,1:2:0:0:
66,242,53558,1,10,0:2:0:0:
296,202,53708,1,0,1:2:0:0:
90,122,53858,1,10,0:2:0:0:
215,315,54008,1,0,1:2:0:0:
271,99,54158,1,10,0:2:0:0:
113,244,54308,1,0,1:2:0:0:
355,315,54458,6,0,L|403:320,3,37.3100005693054,10|0|0|0,1:2|1:2|1:2|1:2,0:0:0:0:
131,240,54758,2,0,L|93:243,3,37.3100005693054,8|0|2|0,1:2|1:2|1:2|1:2,0:0:0:0:
232,167,55058,1,8,1:2:0:0:
232,167,55133,1,0,1:2:0:0:
232,167,55208,2,0,L|240:115,1,37.3100005693054,0|0,1:2|1:2,0:0:0:0:
327,256,55358,1,10,1:2:0:0:
327,256,55433,1,0,1:2:0:0:
327,256,55508,2,0,L|335:308,1,37.3100005693054,0|0,1:2|1:2,0:0:0:0:
425,203,55658,6,0,B|453:74|388:142|420:3,1,189.279998844727,6|0,1:2|0:0,0:0:0:0:
312,90,56558,2,0,L|308:125,5,21.8400005332031
334,121,56858,6,0,P|288:137|231:133,1,92.8200005665283,6|0,1:2|0:2,0:0:0:0:
97,215,57158,2,0,P|143:214|186:230,1,92.8200005665283,10|0,0:2|0:2,0:0:0:0:
342,382,57458,2,0,P|289:349|329:236,1,185.640001133057,2|8,1:2|0:2,0:0:0:0:
448,162,57908,6,0,P|458:215|459:270,1,92.8200005665283,2|0,0:2|1:2,0:0:0:0:
329,133,58208,1,2,0:2:0:0:
423,39,58358,2,0,P|477:22|523:27,1,92.8200005665283,10|2,0:2|0:2,0:0:0:0:
325,160,58658,2,0,P|278:161|235:145,1,92.8200005665283,2|0,1:2|0:2,0:0:0:0:
99,91,58958,2,0,P|101:44|110:0,1,92.8200005665283,10|0,0:2|0:2,0:0:0:0:
50,227,59258,6,0,P|109:214|160:227,1,92.8200005665283,2|0,1:2|0:2,0:0:0:0:
235,339,59558,2,0,P|294:352|345:339,1,92.8200005665283,10|0,0:2|0:2,0:0:0:0:
431,239,59858,2,0,P|372:226|321:239,1,92.8200005665283,2|0,1:2|0:2,0:0:0:0:
148,300,60158,2,0,P|89:313|38:300,1,92.8200005665283,10|0,0:2|0:2,0:0:0:0:
63,41,60458,6,0,B|53:144|113:96|96:239,1,185.640001133057,2|8,1:2|0:2,0:0:0:0:
206,70,60908,1,0,0:2:0:0:
255,252,61058,2,0,P|287:310|405:328,1,185.640001133057,2|8,1:2|0:2,0:0:0:0:
491,236,61508,1,0,0:2:0:0:
373,149,61658,6,0,P|354:205|352:259,1,92.8200005665283,6|0,1:2|0:2,0:0:0:0:
478,79,61958,1,10,0:2:0:0:
268,139,62108,2,0,P|251:95|245:49,1,92.8200005665283,2|0,0:2|1:2,0:0:0:0:
151,192,62408,2,0,P|134:235|128:281,1,92.8200005665283,2|8,0:2|0:2,0:0:0:0:
118,73,62708,6,0,P|70:52|13:55,1,92.8200005665283,2|0,0:2|1:2,0:0:0:0:
243,214,63008,1,2,0:2:0:0:
243,214,63158,2,0,P|289:211|330:192,1,92.8200005665283,10|0,0:2|0:2,0:0:0:0:
281,35,63458,2,0,P|270:87|262:137,1,92.8200005665283,2|0,1:2|0:2,0:0:0:0:
448,245,63758,2,0,P|440:199|430:153,1,92.8200005665283,10|0,0:2|0:2,0:0:0:0:
200,231,64058,6,0,P|213:288|223:338,1,92.8200005665283,2|0,1:2|0:2,0:0:0:0:
360,98,64358,2,0,P|347:155|337:205,1,92.8200005665283,10|0,0:2|0:2,0:0:0:0:
204,24,64658,2,0,P|217:81|227:131,1,92.8200005665283,2|0,1:2|0:2,0:0:0:0:
62,253,64958,1,10,0:2:0:0:
118,116,65108,1,0,0:2:0:0:
250,256,65258,6,0,B|361:264|296:315|437:326,1,185.640001133057,2|8,1:2|0:2,0:0:0:0:
263,358,65708,1,2,0:2:0:0:
402,232,65858,2,0,P|411:179|427:133,1,92.8200005665283,2|0,1:2|0:2,0:0:0:0:
287,30,66158,2,0,P|301:74|308:120,1,92.8200005665283,8|0,0:2|0:2,0:0:0:0:
80,244,66458,5,6,1:2:0:0:
221,151,66608,1,2,0:2:0:0:
82,284,66758,1,10,0:2:0:0:
88,94,66908,1,2,0:2:0:0:
219,291,67058,2,0,P|281:316|381:237,1,185.640001133057,2|8,1:2|0:2,0:0:0:0:
271,122,67508,6,0,P|280:180|289:230,1,92.8200005665283,2|0,0:2|1:2,0:0:0:0:
347,46,67808,1,2,0:2:0:0:
256,215,67958,1,10,0:2:0:0:
445,152,68108,1,2,0:2:0:0:
255,68,68258,2,0,P|199:71|151:48,1,92.8200005665283,2|0,1:2|0:2,0:0:0:0:
55,183,68558,2,0,P|98:168|144:173,1,92.8200005665283,10|0,0:2|0:2,0:0:0:0:
116,354,68858,6,0,P|109:279|104:223,1,92.8200005665283,2|0,1:2|0:2,0:0:0:0:
244,175,69158,2,0,P|239:221|235:267,1,92.8200005665283,10|0,0:2|0:2,0:0:0:0:
375,368,69458,2,0,P|368:293|363:237,1,92.8200005665283,2|0,1:2|0:2,0:0:0:0:
498,182,69758,2,0,P|493:228|489:274,1,92.8200005665283,10|0,0:2|0:2,0:0:0:0:
430,67,70058,6,0,B|319:40|364:116|214:75,1,185.640001133057,2|8,1:2|0:2,0:0:0:0:
98,178,70508,1,0,0:2:0:0:
242,306,70658,2,0,P|252:246|269:196,1,92.8200005665283,2|0,1:2|0:2,0:0:0:0:
149,43,70958,2,0,P|161:87|168:133,1,92.8200005665283,8|0,0:2|0:2,0:0:0:0:
132,258,71258,6,0,P|86:273|33:269,1,92.8200005665283,6|0,1:2|0:2,0:0:0:0:
262,146,71558,1,10,0:2:0:0:
262,146,71708,2,0,P|308:144|351:159,1,92.8200005665283,2|0,0:2|1:2,0:0:0:0:
440,306,72008,1,2,0:2:0:0:
497,147,72158,1,10,0:2:0:0:
297,242,72308,6,0,P|277:322|273:363,1,92.8200005665283,2|0,0:2|1:2,0:0:0:0:
204,183,72608,1,2,0:2:0:0:
91,359,72758,2,0,P|82:313|69:268,1,92.8200005665283,10|0,0:2|0:2,0:0:0:0:
212,83,73058,2,0,P|192:163|188:204,1,92.8200005665283,2|0,1:2|0:2,0:0:0:0:
350,46,73358,2,0,P|403:43|452:77,1,92.8200005665283,10|0,0:2|0:2,0:0:0:0:
472,251,73658,6,0,B|369:263|413:193|277:212,1,185.640001133057,2|8,1:2|0:2,0:0:0:0:
179,374,74108,2,0,P|262:378|314:265,1,185.640001133057,2|0,0:2|0:2,0:0:0:0:
189,181,74558,2,0,P|200:247|207:299,1,92.8200005665283,10|0,0:2|0:2,0:0:0:0:
333,48,74858,5,10,0:2:0:0:
300,227,75008,1,0,1:2:0:0:
429,42,75158,1,8,0:2:0:0:
474,225,75308,1,0,1:2:0:0:
286,72,75458,1,8,1:2:0:0:
286,72,75533,1,0,1:2:0:0:
286,72,75608,2,0,P|246:85|221:88,1,46.4100002832642,2|0,1:2|1:2,0:0:0:0:
130,181,75758,1,10,1:2:0:0:
130,181,75833,1,0,1:2:0:0:
130,181,75908,2,0,P|153:186|175:195,1,46.4100002832642,2|0,1:2|1:2,0:0:0:0:
351,346,76058,6,0,P|416:337|454:307,1,92.8200005665283,14|0,0:2|0:2,0:0:0:0:
275,196,76358,2,0,P|210:205|172:235,1,92.8200005665283,8|0,0:2|0:2,0:0:0:0:
362,358,76658,2,0,P|427:349|465:319,1,92.8200005665283,8|0,0:2|1:2,0:0:0:0:
261,295,76958,5,10,0:2:0:0:
463,197,77108,1,2,1:2:0:0:
252,115,77258,1,10,0:2:0:0:
381,263,77408,1,2,0:2:0:0:
351,98,77558,2,0,P|361:38|378:3,1,92.8200005665283,10|0,0:2|0:2,0:0:0:0:
222,213,77858,2,0,P|239:255|245:301,1,92.8200005665283,8|0,0:2|1:2,0:0:0:0:
109,98,78158,1,10,0:2:0:0:
61,273,78308,1,2,1:2:0:0:
262,115,78458,6,0,P|313:96|363:100,1,92.8200005665283,10|0,0:2|0:2,0:0:0:0:
486,269,78758,2,0,P|439:268|397:251,1,92.8200005665283,8|0,0:2|0:2,0:0:0:0:
254,107,79058,2,0,P|305:88|355:92,1,92.8200005665283,8|0,0:2|1:2,0:0:0:0:
281,326,79358,2,0,P|269:257|260:208,1,92.8200005665283,10|0,0:2|1:2,0:0:0:0:
116,96,79658,6,0,P|107:141|99:187,1,92.8200005665283,10|0,0:2|0:2,0:0:0:0:
241,64,79958,1,10,0:2:0:0:
192,327,80108,2,0,P|184:281|175:235,1,92.8200005665283,2|8,0:2|0:2,0:0:0:0:
305,371,80408,1,0,1:2:0:0:
358,116,80558,2,0,P|349:161|341:207,1,92.8200005665283,10|0,0:2|1:2,0:0:0:0:
116,60,80858,5,14,0:2:0:0:
313,36,81008,1,0,1:2:0:0:
91,163,81158,5,10,0:2:0:0:
340,207,81308,1,0,1:2:0:0:
129,36,81458,5,10,0:2:0:0:
182,265,81608,1,0,1:2:0:0:
287,70,81758,5,10,0:2:0:0:
79,187,81908,1,0,1:2:0:0:
303,244,82058,5,10,0:2:0:0:
161,103,82208,1,0,1:2:0:0:
242,340,82358,5,10,0:2:0:0:
372,134,82508,1,0,1:2:0:0:
157,247,82658,5,10,0:2:0:0:
431,231,82808,1,0,1:2:0:0:
255,71,82958,5,10,0:2:0:0:
353,313,83108,1,0,1:2:0:0:
346,88,83258,6,0,P|358:22|366:-5,1,92.8200005665283,10|0,0:2|1:2,0:0:0:0:
229,215,83558,2,0,P|241:259|248:305,1,92.8200005665283,10|0,0:2|1:2,0:0:0:0:
128,61,83858,5,8,0:2:0:0:
336,168,84008,1,0,1:2:0:0:
158,269,84158,2,0,P|114:282|63:280,1,92.8200005665283,10|0,0:2|1:2,0:0:0:0:
322,135,84458,6,0,P|403:136|486:241,1,185.640001133057,10|8,0:2|0:2,0:0:0:0:
366,330,84908,2,0,P|358:278|364:231,1,92.8200005665283,2|8,1:2|0:2,0:0:0:0:
245,55,85208,1,8,0:2:0:0:
245,55,85283,1,8,0:2:0:0:
245,55,85358,2,0,P|245:94|239:126,1,46.4100002832642,10|8,1:2|0:2,0:0:0:0:
136,276,85508,2,0,P|136:237|130:205,1,46.4100002832642,8|8,0:2|0:2,0:0:0:0:
48,114,85658,6,0,B|309:85|196:264|476:244,1,451.359982093262,6|10,1:2|0:2,0:0:0:0:
