osu file format v14

[General]
AudioFilename: audio.mp3
AudioLeadIn: 0
PreviewTime: 56483
Countdown: 0
SampleSet: Soft
StackLeniency: 0.2
Mode: 0
LetterboxInBreaks: 0
WidescreenStoryboard: 0

[Editor]
DistanceSpacing: 1
BeatDivisor: 4
GridSize: 8
TimelineZoom: 2

[Metadata]
Title:Kimi no Bouken (TV Size)
TitleUnicode:キミの冒険 (TV Size)
Artist:Okazaki Taiiku
ArtistUnicode:岡崎体育
Creator:Sotarks
Version:NiNo's Insane
Source:ポケットモンスター サン&ムーン
Tags:pokemon pokémon pocket monsters sun and moon opening op your adventure nintendo the company game freak alola akitoshi corinn -laura- shunao shogunmoon snownino_ reform kujinn
BeatmapID:1849718
BeatmapSetID:884581

[Difficulty]
HPDrainRate:5
CircleSize:3.8
OverallDifficulty:8.2
ApproachRate:9
SliderMultiplier:1.8
SliderTickRate:1

[Events]
//Background and Video events
0,0,"bg.jpg",0,0
Video,0,"video.avi"
//Break Periods
//Storyboard Layer 0 (Background)
//Storyboard Layer 1 (Fail)
//Storyboard Layer 2 (Pass)
//Storyboard Layer 3 (Foreground)
//Storyboard Sound Samples

[TimingPoints]
458,300,4,2,22,30,1,0
458,-133.333333333333,4,2,22,30,0,0
5258,-133.333333333333,4,2,22,40,0,0
7658,-133.333333333333,4,2,22,50,0,0
11258,-100,4,2,22,60,0,0
18458,-100,4,2,22,50,0,0
37658,-133.333333333333,4,2,22,45,0,0
52058,-100,4,2,22,60,0,0
56858,-100,4,2,22,80,0,1
76058,-100,4,2,22,90,0,1
85658,-100,4,2,22,90,0,0

[Colours]
Combo1 : 70,241,255
Combo2 : 55,255,65
Combo3 : 248,255,104

[HitObjects]
83,125,458,6,0,P|121:116|157:124,1,67.5000025749208,2|0,0:0|0:0,0:0:0:0:
198,185,758,2,0,P|236:194|272:186,1,67.5000025749208,2|0,0:0|0:0,0:0:0:0:
332,145,1058,2,0,P|295:182|344:264,1,135.000005149842,2|0,0:0|0:0,0:0:0:0:
384,299,1508,6,0,L|224:285,1,135.000005149842,2|0,0:0|0:0,0:0:0:0:
173,329,1958,1,2,0:0:0:0:
173,329,2108,1,2,0:0:0:0:
118,269,2258,2,0,L|126:195,1,67.5000025749208,2|0,0:0|0:0,0:0:0:0:
190,152,2558,2,0,L|182:78,1,67.5000025749208,2|0,0:0|0:0,0:0:0:0:
237,24,2858,6,0,P|270:42|383:38,1,135.000005149842,2|0,0:0|0:0,0:0:0:0:
438,190,3458,2,0,P|405:172|292:176,1,135.000005149842,2|0,0:0|0:0,0:0:0:0:
222,306,4058,2,0,P|255:324|368:320,1,135.000005149842,2|0,0:0|0:0,0:0:0:0:
264,188,4658,2,0,P|197:183|135:208,1,135.000005149842,2|0,0:0|0:0,0:0:0:0:
35,336,5258,6,0,P|66:278|40:207,1,135.000005149842,2|2,0:2|3:2,0:0:0:0:
31,135,5708,2,0,P|64:183|146:184,1,135.000005149842,2|2,0:2|0:2,0:0:0:0:
212,160,6158,1,0,3:2:0:0:
212,160,6308,2,0,L|222:300,1,135.000005149842,2|2,0:2|0:2,0:0:0:0:
272,358,6758,2,0,P|329:355|356:342,1,67.5000025749208,2|0,3:2|0:2,0:0:0:0:
358,273,7058,2,0,P|415:276|442:289,1,67.5000025749208,2|0,0:2|0:2,0:0:0:0:
481,337,7358,1,2,3:2:0:0:
481,337,7658,6,0,L|472:181,1,135.000005149842,2|2,0:2|3:2,0:0:0:0:
488,122,8108,1,0,0:2:0:0:
488,122,8258,2,0,P|450:107|405:113,1,67.5000025749208,2|0,0:2|0:2,0:0:0:0:
363,162,8558,2,0,P|329:161|298:147,1,67.5000025749208,2|0,3:2|0:2,0:0:0:0:
233,99,8858,6,0,B|246:137|270:151|270:151|230:176|232:258|232:258|200:185|149:147|149:147|158:217|135:281|63:369|63:369|92:261|36:182|36:182|74:136|56:62|56:62|87:73|117:68,1,945.000036048891,6|0,0:0|0:0,0:0:0:0:
252,27,11258,6,0,L|365:34,1,90,6|0,1:2|0:2,0:0:0:0:
431,34,11558,2,0,P|413:84|429:130,1,90,2|0,1:2|0:2,0:0:0:0:
482,184,11858,2,0,B|439:143|439:143|300:166,1,180,10|0,0:2|0:2,0:0:0:0:
231,181,12308,2,0,P|236:125|228:84,1,90,10|0,0:2|1:2,0:0:0:0:
174,21,12608,2,0,L|78:30,1,90,10|0,0:2|1:2,0:0:0:0:
20,93,12908,2,0,P|75:123|54:239,1,180,2|2,1:2|1:2,0:0:0:0:
25,308,13358,1,2,0:2:0:0:
114,305,13508,1,10,0:2:0:0:
203,302,13658,6,0,L|292:299,1,90,2|0,1:2|1:2,0:0:0:0:
334,218,13958,2,0,L|423:220,1,90,2|0,0:2|1:2,0:0:0:0:
469,220,14183,1,0,1:2:0:0:
469,220,14258,2,0,P|419:176|450:66,1,180,10|0,0:2|0:2,0:0:0:0:
364,23,14708,2,0,L|241:29,1,90,10|0,0:2|1:2,0:0:0:0:
213,94,15008,2,0,L|90:88,1,90,10|0,0:2|1:2,0:0:0:0:
38,58,15308,2,0,B|94:97|94:97|75:237,1,180,2|2,1:2|1:2,0:0:0:0:
87,297,15758,1,2,0:2:0:0:
160,245,15908,1,10,0:2:0:0:
169,335,16058,5,6,1:2:0:0:
242,283,16208,2,0,L|334:281,1,90,0|2,1:2|0:2,0:0:0:0:
421,278,16508,1,0,1:2:0:0:
421,278,16583,1,0,1:2:0:0:
421,278,16658,2,0,P|402:229|491:147,1,180,10|0,0:2|0:2,0:0:0:0:
481,55,17108,2,0,L|292:59,1,180,10|10,0:2|0:2,0:0:0:0:
223,104,17558,5,2,1:2:0:0:
302,148,17708,1,2,1:2:0:0:
224,194,17858,1,10,0:2:0:0:
301,58,18008,1,2,1:2:0:0:
302,237,18158,1,10,0:2:0:0:
302,259,18233,1,8,0:2:0:0:
302,282,18308,1,10,0:2:0:0:
302,304,18383,1,8,0:2:0:0:
302,327,18458,6,0,P|355:359|457:302,1,180,6|8,1:2|0:2,0:0:0:0:
493,232,18908,1,2,0:2:0:0:
413,191,19058,2,0,L|223:179,1,180,2|10,1:2|0:2,0:0:0:0:
143,169,19508,6,0,P|160:212|148:263,1,90,2|0,0:2|1:2,0:0:0:0:
111,334,19808,1,2,0:2:0:0:
200,339,19958,1,10,0:2:0:0:
289,344,20108,1,0,0:2:0:0:
378,349,20258,2,0,L|467:354,1,90,2|0,1:2|0:2,0:0:0:0:
474,265,20558,1,10,0:2:0:0:
384,260,20708,1,0,0:2:0:0:
379,349,20858,6,0,L|289:343,1,90,2|0,1:2|0:2,0:0:0:0:
200,339,21158,1,10,0:2:0:0:
248,266,21308,1,0,0:2:0:0:
160,263,21458,2,0,L|70:257,1,90,2|2,1:2|0:2,0:0:0:0:
117,183,21758,2,0,L|206:188,1,90,8|0,0:2|0:2,0:0:0:0:
295,192,22058,6,0,P|286:144|302:98,1,90,0|0,1:2|0:2,0:0:0:0:
375,151,22358,2,0,P|384:199|368:245,1,90,8|0,0:2|0:2,0:0:0:0:
293,282,22658,1,2,1:2:0:0:
295,192,22808,1,2,0:2:0:0:
215,236,22958,1,8,0:2:0:0:
217,146,23108,1,2,0:2:0:0:
135,280,23258,6,0,P|166:315|219:328,1,90,6|0,1:2|0:0,0:0:0:0:
293,282,23558,1,8,0:2:0:0:
215,236,23708,1,2,0:2:0:0:
295,192,23858,2,0,L|412:192,1,90,2|0,1:2|0:2,0:0:0:0:
475,192,24158,2,0,P|466:142|475:95,1,90,10|2,0:2|0:2,0:0:0:0:
501,18,24458,6,0,P|476:69|352:57,1,180,2|10,1:2|0:2,0:0:0:0:
285,26,24908,1,2,0:2:0:0:
285,26,25058,2,0,P|230:21|185:35,1,90,0|2,1:2|0:2,0:0:0:0:
190,120,25358,2,0,P|135:125|90:111,1,90,8|2,0:2|0:2,0:0:0:0:
17,84,25658,6,0,L|23:274,1,180,2|10,1:2|0:2,0:0:0:0:
5,352,26108,1,0,0:0:0:0:
5,352,26258,2,0,P|26:303|154:308,1,180,2|10,1:2|0:2,0:0:0:0:
216,341,26708,1,0,0:2:0:0:
216,341,26858,6,0,P|300:352|350:282,1,180,2|8,1:2|0:2,0:0:0:0:
313,199,27308,1,0,0:2:0:0:
313,199,27458,2,0,P|228:187|178:257,1,180,2|8,1:2|0:2,0:0:0:0:
350,282,28058,6,0,L|446:276,1,90,6|0,1:2|0:0,0:0:0:0:
503,213,28358,1,10,0:2:0:0:
415,189,28508,1,0,0:2:0:0:
479,126,28658,2,0,P|492:71|483:26,1,90,2|2,1:2|0:2,0:0:0:0:
399,16,28958,1,8,0:2:0:0:
338,82,29108,6,0,L|236:79,1,90,2|0,0:2|1:2,0:0:0:0:
190,10,29408,1,2,0:2:0:0:
100,12,29558,2,0,L|-2:15,1,90,10|0,0:2|0:2,0:0:0:0:
12,103,29858,1,2,1:2:0:0:
102,102,30008,1,2,0:2:0:0:
104,192,30158,1,10,0:2:0:0:
14,194,30308,1,0,0:2:0:0:
61,271,30458,5,2,1:2:0:0:
150,269,30608,2,0,L|250:267,1,90,2|8,0:2|0:2,0:0:0:0:
283,188,30908,1,0,0:2:0:0:
372,190,31058,2,0,L|472:192,1,90,0|0,1:2|0:2,0:0:0:0:
464,102,31358,2,0,L|374:100,1,90,8|0,0:2|0:2,0:0:0:0:
285,98,31658,5,2,1:2:0:0:
283,188,31808,2,0,L|281:277,1,90,2|8,0:2|0:2,0:0:0:0:
191,276,32108,1,0,0:2:0:0:
193,186,32258,2,0,L|194:96,1,90,0|0,1:2|0:2,0:0:0:0:
105,94,32558,2,0,L|103:183,1,90,10|2,0:2|0:2,0:0:0:0:
12,191,32858,6,0,L|13:280,1,90,2|0,1:2|0:2,0:0:0:0:
15,369,33158,2,0,P|62:357|115:363,1,90,10|0,0:2|0:2,0:0:0:0:
192,376,33458,2,0,P|142:348|148:223,1,180,2|10,1:2|0:2,0:0:0:0:
218,200,33908,1,2,0:2:0:0:
209,289,34058,6,0,P|261:280|297:241,1,90,2|0,1:2|0:2,0:0:0:0:
297,167,34358,2,0,P|245:176|209:215,1,90,10|0,0:2|0:2,0:0:0:0:
369,219,34658,2,0,P|385:169|287:76,1,180,2|10,1:2|0:2,0:0:0:0:
297,167,35108,1,2,0:2:0:0:
289,256,35258,6,0,L|473:246,1,180,2|8,1:2|0:2,0:0:0:0:
472,335,35708,1,2,0:2:0:0:
382,339,35858,2,0,L|202:348,1,180,2|8,1:2|0:2,0:0:0:0:
120,312,36308,1,0,0:2:0:0:
193,260,36458,6,0,P|206:212|195:154,1,90,0|0,1:2|0:2,0:0:0:0:
122,128,36758,2,0,P|118:83|130:40,1,90,8|0,0:2|0:2,0:0:0:0:
218,16,37058,1,8,0:2:0:0:
306,30,37208,1,8,0:3:0:0:
394,44,37358,1,4,0:3:0:0:
482,58,37508,1,4,0:3:0:0:
337,113,37658,6,0,L|249:114,2,67.5000025749208,4|0|0,1:2|0:2|0:2,0:0:0:0:
406,155,38108,1,0,0:2:0:0:
406,155,38258,2,0,L|473:154,2,67.5000025749208,8|0|0,0:2|0:2|0:2,0:0:0:0:
335,195,38708,1,8,0:2:0:0:
335,195,38858,6,0,L|267:195,1,67.5000025749208,0|8,1:2|0:2,0:0:0:0:
213,257,39158,2,0,L|145:256,1,67.5000025749208,0|0,1:2|0:2,0:0:0:0:
65,274,39458,2,0,P|99:253|105:155,1,135.000005149842,8|0,0:2|0:2,0:0:0:0:
50,111,39908,1,8,0:2:0:0:
126,83,40058,6,0,L|202:87,1,67.5000025749208,4|0,1:2|0:2,0:0:0:0:
240,152,40358,2,0,L|316:148,1,67.5000025749208,0|0,0:2|0:2,0:0:0:0:
358,85,40658,2,0,L|434:89,1,67.5000025749208,8|0,0:2|0:2,0:0:0:0:
482,146,40958,1,0,0:2:0:0:
482,146,41108,1,8,0:2:0:0:
436,213,41258,6,0,L|439:292,2,67.5000025749208,0|8|0,1:2|0:2|1:2,0:0:0:0:
436,213,41858,2,0,P|399:194|351:194,1,67.5000025749208,8|0,0:2|0:0,0:0:0:0:
300,225,42158,1,0,1:2:0:0:
300,225,42458,6,0,L|304:378,1,135.000005149842,4|0,1:2|0:2,0:0:0:0:
144,324,43058,2,0,L|140:189,1,135.000005149842,8|0,0:2|0:2,0:0:0:0:
73,142,43508,1,8,0:2:0:0:
73,142,43658,6,0,L|74:74,2,67.5000025749208,0|8|0,1:2|0:2|1:2,0:0:0:0:
73,142,44258,2,0,B|104:184|104:184|193:175,1,135.000005149842,8|0,0:2|0:2,0:0:0:0:
257,135,44708,1,8,0:2:0:0:
257,135,44858,6,0,P|225:171|253:269,1,135.000005149842,4|0,1:2|0:0,0:0:0:0:
314,267,45308,1,0,0:2:0:0:
314,267,45458,2,0,P|346:231|318:133,1,135.000005149842,8|0,0:2|0:2,0:0:0:0:
257,135,45908,1,8,0:2:0:0:
257,135,46058,6,0,L|180:131,2,67.5000025749208,0|8|0,1:2|0:2|1:2,0:0:0:0:
257,135,46658,2,0,P|252:86|261:56,1,67.5000025749208,8|0,0:2|0:0,0:0:0:0:
326,27,46958,1,0,1:2:0:0:
326,27,47108,1,8,0:2:0:0:
395,69,47258,6,0,L|401:143,1,67.5000025749208,4|0,1:2|0:2,0:0:0:0:
472,174,47558,1,0,0:2:0:0:
472,174,47708,2,0,L|466:248,2,67.5000025749208,0|8|0,0:2|0:2|0:2,0:0:0:0:
472,174,48308,1,8,0:2:0:0:
400,136,48458,6,0,L|319:132,1,67.5000025749208,0|8,1:2|0:2,0:0:0:0:
272,77,48758,2,0,L|191:81,1,67.5000025749208,0|0,1:2|0:2,0:0:0:0:
167,152,49058,2,0,L|86:148,1,67.5000025749208,8|0,0:2|0:0,0:0:0:0:
33,100,49358,1,0,0:2:0:0:
33,100,49508,1,8,0:2:0:0:
26,180,49658,6,0,L|28:326,1,135.000005149842,4|0,1:2|0:2,0:0:0:0:
177,377,50258,2,0,L|175:242,1,135.000005149842,8|0,0:2|0:2,0:0:0:0:
241,194,50708,1,8,0:2:0:0:
241,194,50858,6,0,L|242:114,2,67.5000025749208,0|8|0,1:2|0:2|1:2,0:0:0:0:
241,194,51458,2,0,P|280:207|324:203,1,67.5000025749208,8|0,0:2|0:2,0:0:0:0:
373,162,51758,1,0,1:2:0:0:
373,162,52058,6,0,L|370:63,1,90,6|0,1:2|0:0,0:0:0:0:
282,89,52358,2,0,L|284:178,1,90,8|0,0:2|0:0,0:0:0:0:
196,195,52658,2,0,L|194:106,1,90,10|0,0:2|0:0,0:0:0:0:
105,122,52958,2,0,L|108:212,1,90,8|0,0:2|0:0,0:0:0:0:
166,280,53258,5,10,0:2:0:0:
197,196,53408,1,0,1:2:0:0:
255,264,53558,1,10,0:2:0:0:
108,212,53708,1,0,1:2:0:0:
286,180,53858,1,10,0:2:0:0:
166,280,54008,1,0,1:2:0:0:
228,112,54158,1,10,0:2:0:0:
344,248,54308,1,0,1:2:0:0:
197,196,54458,5,10,1:2:0:0:
174,200,54533,1,0,1:2:0:0:
152,204,54608,1,0,1:2:0:0:
130,208,54683,1,0,1:2:0:0:
108,212,54758,2,0,L|57:223,3,45,8|0|2|0,1:2|1:2|1:2|1:2,0:0:0:0:
166,280,55058,2,0,L|217:291,3,45,8|0|0|0,1:2|1:2|1:2|1:2,0:0:0:0:
84,317,55358,2,0,L|33:328,3,45,10|0|0|0,1:2|1:2|1:2|1:2,0:0:0:0:
154,381,55658,5,6,1:2:0:0:
379,159,56858,5,6,1:2:0:0:
363,70,57008,1,0,0:2:0:0:
294,129,57158,2,0,L|201:135,1,90,10|0,0:2|0:2,0:0:0:0:
121,98,57458,2,0,B|179:135|179:135|159:264,1,180,2|8,1:2|0:2,0:0:0:0:
109,318,57908,6,0,P|160:335|206:323,1,90,2|0,0:2|1:2,0:0:0:0:
252,259,58208,1,2,0:2:0:0:
162,245,58358,1,10,0:2:0:0:
219,174,58508,1,2,0:2:0:0:
129,160,58658,2,0,P|86:192|70:245,1,90,2|0,1:2|0:2,0:0:0:0:
219,174,58958,2,0,P|212:120|174:80,1,90,10|0,0:2|0:2,0:0:0:0:
162,245,59258,6,0,P|211:265|310:173,1,180,2|10,1:2|0:2,0:0:0:0:
284,111,59708,1,0,0:2:0:0:
219,174,59858,2,0,P|168:155|125:163,1,90,2|0,1:2|0:2,0:0:0:0:
162,245,60158,2,0,P|213:264|256:256,1,90,10|0,0:2|0:2,0:0:0:0:
307,192,60458,6,0,P|282:246|389:309,1,180,2|8,1:2|0:2,0:0:0:0:
449,312,60908,1,0,0:2:0:0:
474,225,61058,2,0,L|468:45,1,180,2|8,1:2|0:2,0:0:0:0:
385,10,61508,1,0,0:2:0:0:
347,156,61658,6,0,P|311:106|193:111,1,180,6|10,1:2|0:2,0:0:0:0:
120,146,62108,2,0,L|128:246,1,90,2|0,0:2|1:2,0:0:0:0:
217,240,62408,2,0,L|209:340,1,90,2|8,0:2|0:2,0:0:0:0:
37,230,62708,6,0,L|29:130,1,90,2|0,0:2|1:2,0:0:0:0:
127,235,63008,1,2,0:2:0:0:
45,320,63158,2,0,L|37:220,1,90,10|0,0:2|0:2,0:0:0:0:
30,141,63458,2,0,L|22:41,1,90,2|0,1:2|0:2,0:0:0:0:
108,22,63758,2,0,P|160:42|216:33,1,90,10|0,0:2|0:2,0:0:0:0:
280,13,64058,6,0,B|230:48|230:48|248:178,1,180,2|10,1:2|0:2,0:0:0:0:
292,243,64508,1,0,0:2:0:0:
332,161,64658,2,0,P|288:151|246:165,1,90,2|0,1:2|0:2,0:0:0:0:
382,236,64958,2,0,P|411:202|421:159,1,90,10|0,0:2|0:2,0:0:0:0:
292,243,65258,6,0,P|309:291|431:313,1,180,2|8,1:2|0:2,0:0:0:0:
332,161,65708,1,2,0:2:0:0:
240,167,65858,2,0,P|208:203|204:269,1,90,2|0,1:2|0:2,0:0:0:0:
252,319,66158,2,0,P|284:283|288:217,1,90,8|0,0:2|0:2,0:0:0:0:
161,327,66458,5,6,1:2:0:0:
252,319,66608,1,2,0:2:0:0:
200,243,66758,2,0,L|93:236,1,90,10|2,0:2|0:2,0:0:0:0:
28,274,67058,2,0,P|80:228|45:112,1,180,2|8,1:2|0:2,0:0:0:0:
30,42,67508,6,0,B|75:104|75:104|205:83,1,180,2|2,0:2|0:2,0:0:0:0:
261,57,67958,1,10,0:2:0:0:
247,145,68108,1,2,0:2:0:0:
331,115,68258,2,0,P|383:101|434:113,1,90,2|0,1:2|0:2,0:0:0:0:
483,168,68558,2,0,L|471:260,1,90,10|0,0:2|0:2,0:0:0:0:
458,346,68858,6,0,P|412:332|355:336,1,90,2|0,1:2|0:2,0:0:0:0:
280,342,69158,2,0,P|294:296|290:239,1,90,10|0,0:2|0:2,0:0:0:0:
284,164,69458,2,0,P|330:178|387:174,1,90,2|0,1:2|0:2,0:0:0:0:
462,168,69758,2,0,P|448:214|452:271,1,90,10|0,0:2|0:2,0:0:0:0:
458,346,70058,6,0,P|435:283|316:276,1,180,2|8,1:2|0:2,0:0:0:0:
251,304,70508,1,0,0:2:0:0:
169,344,70658,2,0,P|83:339|43:262,1,180,2|8,1:2|0:2,0:0:0:0:
54,173,71108,1,0,0:2:0:0:
202,216,71258,6,0,P|172:127|254:88,1,180,6|10,1:2|0:2,0:0:0:0:
316,52,71708,2,0,L|411:60,1,90,2|0,0:2|1:2,0:0:0:0:
481,109,72008,1,2,0:2:0:0:
400,150,72158,1,10,0:2:0:0:
473,198,72308,6,0,B|465:294,1,90,2|0,0:2|1:2,0:0:0:0:
400,150,72608,1,2,0:2:0:0:
481,109,72758,2,0,B|473:205,1,90,10|0,0:2|0:2,0:0:0:0:
466,288,73058,2,0,B|458:384,1,90,2|0,1:2|0:2,0:0:0:0:
368,369,73358,2,0,B|272:361,1,90,10|0,0:2|0:2,0:0:0:0:
188,353,73658,6,0,P|232:334|241:206,1,180,2|8,1:2|0:2,0:0:0:0:
167,177,74108,2,0,P|151:130|164:79,1,90,2|0,0:2|0:0,0:0:0:0:
248,215,74408,1,0,0:2:0:0:
174,266,74558,2,0,P|125:256|87:219,1,90,10|0,0:2|0:2,0:0:0:0:
241,126,74858,6,0,P|289:135|327:172,1,90,10|0,0:2|1:2,0:0:0:0:
327,250,75158,2,0,P|278:240|240:203,1,90,8|0,0:2|1:2,0:0:0:0:
400,199,75458,1,8,1:2:0:0:
410,218,75533,1,0,1:2:0:0:
415,240,75608,1,2,1:2:0:0:
415,263,75683,1,0,1:2:0:0:
409,284,75758,2,0,L|414:346,3,45,10|0|2|0,1:2|1:2|1:2|1:2,0:0:0:0:
327,250,76058,5,14,0:2:0:0:
337,339,76208,1,0,0:2:0:0:
245,216,76358,5,8,0:2:0:0:
255,305,76508,1,0,0:2:0:0:
163,182,76658,6,0,P|192:144|241:128,1,90,8|0,0:2|1:2,0:0:0:0:
245,216,76958,2,0,P|216:254|167:270,1,90,10|2,0:2|1:2,0:0:0:0:
92,238,77258,5,10,0:2:0:0:
163,182,77408,1,2,0:2:0:0:
80,149,77558,5,10,0:2:0:0:
151,93,77708,1,0,0:2:0:0:
163,182,77858,6,0,L|176:289,1,90,8|0,0:2|1:2,0:0:0:0:
234,126,78158,2,0,L|221:19,1,90,10|2,0:2|1:2,0:0:0:0:
317,159,78458,6,0,L|330:266,1,90,10|0,0:2|0:2,0:0:0:0:
388,103,78758,2,0,L|375:-4,1,90,8|0,0:2|0:2,0:0:0:0:
305,70,79058,5,8,0:2:0:0:
317,159,79208,1,0,1:2:0:0:
223,37,79358,5,10,0:2:0:0:
234,126,79508,1,0,1:2:0:0:
139,4,79658,6,0,L|49:0,1,90,10|0,0:2|0:2,0:0:0:0:
234,126,79958,2,0,L|323:122,1,90,10|2,0:2|0:2,0:0:0:0:
151,93,80258,6,0,L|61:89,1,90,8|0,0:2|1:2,0:0:0:0:
244,215,80558,2,0,L|333:211,1,90,10|0,0:2|1:2,0:0:0:0:
163,182,80858,5,14,0:2:0:0:
173,271,81008,1,0,1:2:0:0:
234,126,81158,2,0,L|223:20,1,90,10|0,0:2|1:2,0:0:0:0:
315,159,81458,5,10,0:2:0:0:
305,70,81608,1,0,1:2:0:0:
399,193,81758,2,0,L|408:282,1,90,10|0,0:2|1:2,0:0:0:0:
389,104,82058,5,10,0:2:0:0:
315,159,82208,1,0,1:2:0:0:
399,193,82358,2,0,L|505:195,1,90,10|0,0:2|1:2,0:0:0:0:
325,248,82658,5,10,0:2:0:0:
409,282,82808,1,0,1:2:0:0:
335,337,82958,2,0,L|229:335,1,90,10|0,0:2|1:2,0:0:0:0:
409,282,83258,5,10,0:2:0:0:
335,337,83408,1,0,1:2:0:0:
315,159,83558,5,10,0:2:0:0:
325,248,83708,1,0,1:2:0:0:
157,180,83858,5,8,0:2:0:0:
241,214,84008,1,0,1:2:0:0:
93,324,84158,5,10,0:2:0:0:
167,269,84308,1,0,1:2:0:0:
167,269,84383,1,0,1:0:0:0:
167,269,84458,6,0,L|156:167,1,90,10|0,0:2|0:0,0:0:0:0:
234,126,84758,5,8,0:2:0:0:
241,214,84908,1,2,1:2:0:0:
308,71,85058,5,8,0:2:0:0:
315,159,85208,1,8,0:2:0:0:
337,154,85283,1,8,0:2:0:0:
357,145,85358,1,10,1:2:0:0:
374,130,85433,1,8,0:2:0:0:
386,111,85508,1,8,0:2:0:0:
394,90,85583,1,8,0:2:0:0:
396,68,85658,6,0,B|378:34|345:0|244:-19|160:37|144:150|197:274|297:276|420:253|417:152|397:116|397:116|248:126,1,720,6|10,1:2|0:2,0:0:0:0:
