osu file format v14

[General]
AudioFilename: audio.mp3
AudioLeadIn: 0
PreviewTime: 56483
Countdown: 0
SampleSet: Soft
StackLeniency: 0.7
Mode: 0
LetterboxInBreaks: 0
WidescreenStoryboard: 0

[Editor]
DistanceSpacing: 1.1
BeatDivisor: 6
GridSize: 8
TimelineZoom: 1.5

[Metadata]
Title:Kimi no Bouken (TV Size)
TitleUnicode:キミの冒険 (TV Size)
Artist:Okazaki Taiiku
ArtistUnicode:岡崎体育
Creator:Sotarks
Version:Extra
Source:ポケットモンスター サン&ムーン
Tags:pokemon pokémon pocket monsters sun and moon opening op your adventure nintendo the company game freak alola akitoshi corinn -laura- shunao shogunmoon snownino_ reform kujinn
BeatmapID:1848919
BeatmapSetID:884581

[Difficulty]
HPDrainRate:5.2
CircleSize:3.8
OverallDifficulty:9.6
ApproachRate:9.2
SliderMultiplier:1.92
SliderTickRate:1

[Events]
//Background and Video events
0,0,"bg.jpg",0,0
Video,0,"video.avi"
//Break Periods
//Storyboard Layer 0 (Background)
//Storyboard Layer 1 (Fail)
//Storyboard Layer 2 (Pass)
//Storyboard Layer 3 (Foreground)
//Storyboard Sound Samples

[TimingPoints]
458,300,4,2,22,32,1,0
458,-161.290322580645,4,2,22,32,0,0
5258,-138.888888888889,4,2,22,42,0,0
8858,-312.5,4,2,22,42,0,0
11258,-121.951219512195,4,2,22,72,0,0
18458,-138.888888888889,4,2,22,62,0,0
37658,-161.290322580645,4,2,22,62,0,0
53258,-161.290322580645,4,2,22,72,0,0
54458,-121.951219512195,4,2,22,72,0,0
56408,-121.951219512195,4,2,22,42,0,0
56558,-138.888888888889,4,2,22,52,0,0
56858,-98.0392156862745,4,2,22,82,0,0
80858,-98.0392156862745,4,2,22,82,0,1
85658,-138.888888888889,4,2,22,82,0,0

[Colours]
Combo1 : 70,241,255
Combo2 : 55,255,65
Combo3 : 248,255,104

[HitObjects]
132,86,458,6,0,P|146:129|155:166,1,59.519997638672,2|0,0:0|0:0,0:0:0:0:
243,171,758,2,0,P|222:211|209:242,1,59.519997638672,2|0,0:0|0:0,0:0:0:0:
94,271,1058,2,0,B|166:271|135:318|228:317,1,119.039995277344,2|0,0:0|0:0,0:0:0:0:
336,182,1508,2,0,P|275:199|249:258,1,119.039995277344,2|0,0:0|0:0,0:0:0:0:
311,331,1958,1,2,0:0:0:0:
311,331,2108,1,2,0:0:0:0:
379,257,2258,2,0,P|367:206|365:176,1,59.519997638672,2|0,0:0|0:0,0:0:0:0:
291,128,2558,2,0,P|286:157|278:185,1,59.519997638672,2|0,0:0|0:0,0:0:0:0:
161,274,2858,6,0,P|130:237|57:221,2,119.039995277344,2|0|2,0:0|0:0|0:0,0:0:0:0:
161,274,3758,1,0,0:0:0:0:
223,98,4058,2,0,P|240:177|260:289,1,178.559992916016,2|0,0:0|0:0,0:0:0:0:
352,195,4658,2,0,B|331:91|383:140|362:0,1,178.559992916016,2|0,0:0|0:0,0:0:0:0:
235,62,5258,6,0,P|198:74|157:79,1,69.1200016875,2|0,0:2|0:2,0:2:0:0:
130,204,5558,1,2,3:2:0:0:
130,204,5708,2,0,P|164:209|196:220,1,69.1200016875,2|0,0:2|0:2,0:2:0:0:
312,325,6008,2,0,P|298:278|293:233,1,69.1200016875,2|0,0:2|3:2,0:2:0:0:
340,85,6308,2,0,P|397:97|421:186,1,138.240003375,2|2,0:2|0:2,0:2:0:0:
272,153,6758,2,0,P|217:135|200:133,1,69.1200016875,2|0,3:2|0:2,0:2:0:0:
144,46,7058,2,0,P|177:39|209:26,1,69.1200016875,2|0,0:2|0:2,0:2:0:0:
172,155,7358,1,2,3:2:0:0:
172,155,7658,6,0,P|177:199|184:245,1,69.1200016875,2|0,0:2|0:2,0:2:0:0:
297,131,7958,2,0,P|301:96|305:62,1,69.1200016875,2|0,3:2|0:2,0:2:0:0:
269,233,8258,2,0,P|274:277|281:323,1,69.1200016875,2|0,0:2|0:2,0:2:0:0:
394,209,8558,2,0,P|398:174|402:140,1,69.1200016875,2|0,3:2|0:2,0:2:0:0:
396,334,8858,2,0,B|131:291|359:100|59:76,1,460.8,6|0,0:0|0:0,0:0:0:0:
125,188,11258,6,0,P|141:238|147:289,1,78.7200012011719,6|0,1:2|0:2,0:2:0:0:
349,198,11558,2,0,P|356:159|369:122,1,78.7200012011719,2|0,1:2|0:2,0:2:0:0:
207,35,11858,1,10,0:2:0:0:
207,35,12008,2,0,P|223:85|229:136,1,78.7200012011719,2|0,1:2|0:2,0:2:0:0:
188,274,12308,2,0,P|132:252|98:251,1,78.7200012011719,10|0,0:2|1:2,0:2:0:0:
291,179,12608,2,0,P|329:172|364:155,1,78.7200012011719,10|0,0:2|1:2,0:2:0:0:
175,286,12908,2,0,P|119:264|85:263,1,78.7200012011719,2|8,1:2|0:2,0:2:0:0:
203,121,13208,5,2,1:2:0:0:
298,270,13358,1,2,0:2:0:0:
336,72,13508,1,10,0:2:0:0:
194,252,13658,6,0,P|184:307|169:361,1,78.7200012011719,2|0,1:2|1:2,0:2:0:0:
327,166,13958,2,0,P|318:127|311:88,1,78.7200012011719,2|0,0:2|1:2,0:2:0:0:
331,55,14183,1,0,1:2:0:0:
331,55,14258,1,10,0:2:0:0:
207,143,14408,2,0,P|159:121|126:116,1,78.7200012011719,2|0,1:2|0:2,0:2:0:0:
315,270,14708,2,0,P|353:261|388:243,1,78.7200012011719,10|0,0:2|1:2,0:2:0:0:
191,259,15008,2,0,P|178:310|176:344,1,78.7200012011719,10|0,0:2|1:2,0:2:0:0:
332,155,15308,2,0,P|327:115|317:78,1,78.7200012011719,2|8,1:2|0:2,0:2:0:0:
169,236,15608,5,2,1:2:0:0:
232,60,15758,1,2,0:2:0:0:
315,270,15908,1,10,0:2:0:0:
156,102,16058,6,0,P|108:75|74:75,1,78.7200012011719,6|0,1:2|1:2,0:2:0:0:
290,241,16358,2,0,P|328:234|360:212,1,78.7200012011719,2|0,0:2|1:2,0:2:0:0:
373,180,16583,1,0,1:2:0:0:
373,180,16658,1,10,0:2:0:0:
161,208,16808,2,0,P|153:264|142:311,1,78.7200012011719,2|0,1:2|0:2,0:2:0:0:
290,121,17108,2,0,P|282:82|277:43,1,78.7200012011719,10|0,0:2|1:2,0:2:0:0:
396,271,17408,5,10,0:2:0:0:
197,190,17558,1,2,1:2:0:0:
365,60,17708,1,2,1:2:0:0:
241,273,17858,1,10,0:2:0:0:
124,59,18008,1,2,1:2:0:0:
385,177,18158,1,10,0:2:0:0:
385,177,18233,1,8,0:2:0:0:
385,177,18308,1,10,0:2:0:0:
385,177,18383,1,8,0:2:0:0:
385,177,18458,6,0,B|301:166|344:126|236:116,1,138.240003375,6|8,1:2|0:2,0:2:0:0:
137,221,18908,1,2,0:2:0:0:
137,221,19058,2,0,P|150:163|154:132,1,69.1200016875,2|0,1:2|0:2,0:2:0:0:
258,271,19358,1,10,0:2:0:0:
283,90,19508,2,0,P|289:124|297:157,1,69.1200016875,2|0,0:2|1:2,0:2:0:0:
359,313,19808,1,2,0:2:0:0:
359,313,19958,2,0,P|405:288|440:281,1,69.1200016875,10|0,0:2|0:2,0:2:0:0:
233,246,20258,2,0,P|200:235|171:216,1,69.1200016875,2|0,1:2|0:2,0:2:0:0:
342,297,20558,2,0,P|388:272|423:265,1,69.1200016875,10|0,0:2|0:2,0:2:0:0:
186,320,20858,5,2,1:2:0:0:
186,320,21008,1,0,0:2:0:0:
282,169,21158,1,10,0:2:0:0:
139,198,21308,1,0,0:2:0:0:
314,284,21458,1,2,1:2:0:0:
314,284,21608,2,0,P|360:267|386:245,2,69.1200016875,2|8|0,0:2|0:2|0:2,0:2:0:0:
168,172,22058,6,0,P|154:120|139:87,1,69.1200016875,0|0,1:2|0:2,0:2:0:0:
289,262,22358,2,0,P|277:294|269:328,1,69.1200016875,8|0,0:2|0:2,0:2:0:0:
344,117,22658,1,2,1:2:0:0:
197,196,22808,1,2,0:2:0:0:
390,233,22958,1,8,0:2:0:0:
334,83,23108,1,2,0:2:0:0:
188,277,23258,6,0,P|177:213|154:109,1,138.240003375,6|8,1:2|0:2,0:2:0:0:
254,32,23708,1,2,0:2:0:0:
306,184,23858,1,2,1:2:0:0:
254,32,24008,1,0,0:2:0:0:
148,166,24158,1,10,0:2:0:0:
334,83,24308,1,2,0:2:0:0:
127,145,24458,6,0,P|88:129|50:120,1,69.1200016875,2|0,1:2|0:2,0:2:0:0:
232,252,24758,1,10,0:2:0:0:
232,252,24908,2,0,P|265:242|297:229,1,69.1200016875,2|0,0:2|1:2,0:2:0:0:
383,62,25208,2,0,P|369:115|364:149,1,69.1200016875,2|8,0:2|0:2,0:2:0:0:
395,292,25508,1,2,0:2:0:0:
272,123,25658,6,0,B|188:120|213:166|127:168,2,138.240003375,2|10|2,1:2|0:2|1:2,0:2:0:0:
138,79,26408,1,0,0:2:0:0:
259,208,26558,2,0,P|268:258|273:292,1,69.1200016875,10|0,0:2|0:2,0:2:0:0:
342,55,26858,6,0,P|385:78|396:172,1,138.240003375,2|8,1:2|0:2,0:2:0:0:
310,289,27308,1,0,0:2:0:0:
197,142,27458,2,0,P|127:113|109:114,1,69.1200016875,2|0,1:2|0:2,0:2:0:0:
207,293,27758,2,0,P|240:283|268:264,1,69.1200016875,8|0,0:2|0:2,0:2:0:0:
315,43,28058,6,0,P|327:109|343:189,1,138.240003375,6|10,1:2|0:2,0:2:0:0:
310,289,28508,1,0,0:2:0:0:
220,164,28658,1,2,1:2:0:0:
220,164,28808,2,0,P|225:128|228:83,1,69.1200016875,2|8,0:2|0:2,0:2:0:0:
95,223,29108,2,0,P|97:257|102:291,1,69.1200016875,2|0,0:2|1:2,0:2:0:0:
242,188,29408,1,2,0:2:0:0:
334,312,29558,2,0,P|394:294|410:293,1,69.1200016875,10|0,0:2|0:2,0:2:0:0:
202,260,29858,1,2,1:2:0:0:
359,217,30008,1,2,0:2:0:0:
160,165,30158,1,10,0:2:0:0:
262,93,30308,1,0,0:2:0:0:
191,286,30458,5,2,1:2:0:0:
191,286,30608,2,0,P|202:335|207:361,2,69.1200016875,2|8|0,0:2|0:2|0:2,0:2:0:0:
282,164,31058,1,0,1:2:0:0:
282,164,31208,2,0,P|288:130|296:96,2,69.1200016875,0|8|0,0:2|0:2|0:2,0:2:0:0:
133,182,31658,5,2,1:2:0:0:
133,182,31808,2,0,P|91:172|51:146,2,69.1200016875,2|8|0,0:2|0:2|0:2,0:2:0:0:
249,282,32258,1,0,1:2:0:0:
249,282,32408,1,0,0:2:0:0:
293,121,32558,1,10,0:2:0:0:
155,205,32708,1,2,0:2:0:0:
312,106,32858,6,0,P|319:163|327:197,1,69.1200016875,2|0,1:2|0:2,0:2:0:0:
157,104,33158,2,0,P|163:69|166:35,1,69.1200016875,10|0,0:2|0:2,0:2:0:0:
251,241,33458,1,2,1:2:0:0:
312,106,33608,1,2,0:2:0:0:
180,186,33758,1,10,0:2:0:0:
280,321,33908,1,2,0:2:0:0:
328,133,34058,6,0,P|336:83|348:44,1,69.1200016875,2|0,1:2|0:2,0:2:0:0:
158,205,34358,2,0,P|166:238|170:272,1,69.1200016875,10|0,0:2|0:2,0:2:0:0:
299,145,34658,2,0,P|307:95|319:56,1,69.1200016875,2|0,1:2|0:2,0:2:0:0:
366,267,34958,1,10,0:2:0:0:
366,267,35108,1,2,0:2:0:0:
186,179,35258,6,0,B|109:180|132:137|49:135,1,138.240003375,2|8,1:2|0:2,0:2:0:0:
182,81,35708,1,2,0:2:0:0:
274,228,35858,2,0,P|281:275|286:315,1,69.1200016875,2|0,1:2|0:2,0:2:0:0:
368,157,36158,2,0,P|372:122|377:88,1,69.1200016875,8|0,0:2|0:2,0:2:0:0:
186,179,36458,5,0,1:2:0:0:
186,179,36608,1,0,0:2:0:0:
272,114,36758,1,8,0:2:0:0:
272,114,36908,1,0,0:2:0:0:
192,281,37058,1,8,0:2:0:0:
101,114,37208,1,8,0:3:0:0:
262,227,37358,1,4,0:3:0:0:
107,229,37508,1,4,0:3:0:0:
272,114,37658,6,0,P|278:72|280:46,1,59.519997638672,4|0,1:2|0:2,0:2:0:0:
347,167,37958,2,0,P|349:196|354:226,1,59.519997638672,0|0,0:2|0:2,0:2:0:0:
251,101,38258,2,0,P|257:59|259:33,1,59.519997638672,8|0,0:2|0:2,0:2:0:0:
133,205,38558,1,0,0:2:0:0:
278,266,38708,1,8,0:2:0:0:
162,182,38858,1,0,1:2:0:0:
202,301,39008,1,8,0:2:0:0:
284,172,39158,2,0,P|290:125|289:95,1,59.519997638672,0|0,1:2|0:2,0:2:0:0:
166,43,39458,2,0,P|186:137|197:182,1,119.039995277344,8|0,0:2|0:2,0:2:0:0:
314,72,39908,1,8,0:2:0:0:
162,182,40058,6,0,P|124:171|81:167,1,59.519997638672,4|0,1:2|0:2,0:2:0:0:
239,268,40358,2,0,P|268:263|296:254,1,59.519997638672,0|0,0:2|0:2,0:2:0:0:
149,159,40658,2,0,P|111:148|68:144,1,59.519997638672,8|0,0:2|0:2,0:2:0:0:
305,110,40958,1,0,0:2:0:0:
239,268,41108,1,8,0:2:0:0:
177,131,41258,1,0,1:2:0:0:
277,278,41408,1,8,0:2:0:0:
265,58,41558,2,0,P|275:106|279:135,1,59.519997638672,0|0,1:2|0:2,0:2:0:0:
151,275,41858,2,0,P|141:222|180:150,1,119.039995277344,8|0,0:2|1:2,0:2:0:0:
165,163,42458,6,0,P|194:182|227:190,1,59.519997638672,4|0,1:2|0:2,0:2:0:0:
291,112,42758,2,0,P|320:93|353:85,1,59.519997638672,0|0,0:2|0:2,0:2:0:0:
373,228,43058,2,0,P|357:191|350:159,1,59.519997638672,8|0,0:2|0:2,0:2:0:0:
391,85,43358,1,0,0:2:0:0:
269,216,43508,1,8,0:2:0:0:
207,93,43658,1,0,1:2:0:0:
247,240,43808,1,8,0:2:0:0:
321,33,43958,2,0,P|306:79|300:115,1,59.519997638672,0|0,1:2|0:2,0:2:0:0:
179,190,44258,2,0,P|164:119|142:51,1,119.039995277344,8|0,0:2|0:2,0:2:0:0:
152,225,44708,1,8,0:2:0:0:
254,117,44858,6,0,B|350:119|315:189|406:226,1,178.559992916016,4|0,1:2|0:2,0:2:0:0:
418,67,45458,2,0,P|409:113|403:141,1,59.519997638672,8|0,0:2|0:2,0:2:0:0:
257,213,45758,1,0,0:2:0:0:
224,74,45908,1,8,0:2:0:0:
364,144,46058,1,0,1:2:0:0:
204,106,46208,1,8,0:2:0:0:
393,46,46358,2,0,P|351:55|331:65,1,59.519997638672,0|0,1:2|0:2,0:2:0:0:
149,174,46658,2,0,P|214:212|235:260,1,119.039995277344,8|0,0:2|1:2,0:2:0:0:
259,91,47108,1,8,0:2:0:0:
149,261,47258,6,0,P|157:303|160:334,1,59.519997638672,4|0,1:2|0:2,0:2:0:0:
259,221,47558,2,0,P|262:191|268:162,1,59.519997638672,0|0,0:2|0:2,0:2:0:0:
160,81,47858,1,8,0:2:0:0:
160,81,48008,2,0,P|126:69|80:67,1,59.519997638672,0|0,0:2|0:2,0:2:0:0:
233,243,48308,1,8,0:2:0:0:
257,68,48458,1,0,1:2:0:0:
134,189,48608,1,8,0:2:0:0:
311,150,48758,2,0,P|361:143|386:143,1,59.519997638672,0|0,1:2|0:2,0:2:0:0:
311,303,49058,2,0,P|239:266|180:276,1,119.039995277344,8|0,0:2|0:2,0:2:0:0:
311,205,49508,1,8,0:2:0:0:
180,68,49658,6,0,P|190:97|196:126,1,59.519997638672,4|0,1:2|0:2,0:2:0:0:
292,191,49958,2,0,P|298:161|307:133,1,59.519997638672,0|0,0:2|0:2,0:2:0:0:
152,49,50258,2,0,P|175:132|185:185,1,119.039995277344,8|0,0:2|0:2,0:2:0:0:
148,301,50708,1,8,0:2:0:0:
292,191,50858,1,0,1:2:0:0:
137,273,51008,1,8,0:2:0:0:
303,322,51158,1,0,1:2:0:0:
303,322,51458,6,0,P|247:304|232:297,1,59.519997638672,8|0,0:2|0:2,0:2:0:0:
156,188,51758,2,0,P|184:180|212:169,1,59.519997638672,0|0,1:2|0:2,0:2:0:0:
392,42,52058,5,6,1:2:0:0:
305,161,52358,1,8,0:2:0:0:
173,37,52658,1,10,0:2:0:0:
63,191,52958,1,8,0:2:0:0:
267,39,53258,5,10,0:2:0:0:
339,247,53408,1,0,1:2:0:0:
123,114,53558,1,10,0:2:0:0:
353,40,53708,1,0,1:2:0:0:
198,279,53858,1,10,0:2:0:0:
84,40,54008,1,0,1:2:0:0:
345,142,54158,1,10,0:2:0:0:
89,294,54308,1,0,1:2:0:0:
234,38,54458,6,0,L|242:91,3,39.3600006005859,10|0|0|0,1:2|1:2|1:2|1:2,0:2:0:0:
148,188,54758,2,0,L|153:149,3,39.3600006005859,8|0|2|0,1:2|1:2|1:2|1:2,0:2:0:0:
296,262,55058,1,8,1:2:0:0:
296,262,55133,1,0,1:2:0:0:
296,262,55208,2,0,L|355:248,1,39.3600006005859,0|0,1:2|1:2,0:2:0:0:
369,105,55358,1,10,1:2:0:0:
369,105,55433,1,0,1:2:0:0:
369,105,55508,2,0,L|310:119,1,39.3600006005859,0|0,1:2|1:2,0:2:0:0:
124,281,55658,6,0,P|64:227|244:172,1,393.600006005859,6|0,1:2|0:2,0:2:0:0:
284,40,56558,6,0,L|279:72,5,23.0400005625
304,56,56858,6,0,P|348:33|401:36,1,97.9200005976563,6|0,1:2|0:2,0:2:0:0:
183,241,57158,2,0,P|134:241|91:219,1,97.9200005976563,10|0,0:2|0:2,0:2:0:0:
192,54,57458,2,0,P|277:72|320:201,1,195.840001195313,2|8,1:2|0:2,0:2:0:0:
236,353,57908,6,0,P|227:298|213:251,1,97.9200005976563,2|0,0:2|1:2,0:2:0:0:
346,91,58208,1,2,0:2:0:0:
409,283,58358,1,10,0:2:0:0:
409,283,58508,1,2,0:2:0:0:
227,150,58658,2,0,P|163:133|122:130,1,97.9200005976563,2|0,1:2|0:2,0:2:0:0:
99,358,58958,2,0,P|147:352|194:338,1,97.9200005976563,10|0,0:2|0:2,0:2:0:0:
329,130,59258,6,0,P|308:69|299:18,1,97.9200005976563,2|0,1:2|0:2,0:2:0:0:
137,226,59558,2,0,P|126:273|109:319,1,97.9200005976563,10|0,0:2|0:2,0:2:0:0:
345,112,59858,2,0,P|324:51|315:0,1,97.9200005976563,2|0,1:2|0:2,0:2:0:0:
152,245,60158,2,0,P|141:292|124:338,1,97.9200005976563,10|0,0:2|0:2,0:2:0:0:
100,77,60458,6,0,B|215:74|158:161|308:159,1,195.840001195313,2|8,1:2|0:2,0:2:0:0:
412,58,60908,1,0,0:2:0:0:
374,294,61058,2,0,P|317:277|167:248,1,195.840001195313,2|8,1:2|0:2,0:2:0:0:
77,320,61508,1,0,0:2:0:0:
129,76,61658,6,0,P|146:133|159:183,1,97.9200005976563,6|0,1:2|0:2,0:2:0:0:
269,328,61958,1,10,0:2:0:0:
269,328,62108,2,0,P|281:280|295:233,1,97.9200005976563,2|0,0:2|1:2,0:2:0:0:
140,51,62408,2,0,P|157:108|170:158,1,97.9200005976563,2|8,0:2|0:2,0:2:0:0:
337,62,62708,6,0,P|392:38|434:33,1,97.9200005976563,2|0,0:2|1:2,0:2:0:0:
202,251,63008,1,2,0:2:0:0:
202,251,63158,2,0,P|153:243|109:222,1,97.9200005976563,10|0,0:2|0:2,0:2:0:0:
322,91,63458,2,0,P|337:185|347:223,1,97.9200005976563,2|0,1:2|0:2,0:2:0:0:
99,112,63758,2,0,P|108:63|114:15,1,97.9200005976563,10|0,0:2|0:2,0:2:0:0:
293,266,64058,5,2,1:2:0:0:
209,104,64208,1,0,0:2:0:0:
107,315,64358,1,10,0:2:0:0:
213,209,64508,1,0,0:2:0:0:
357,355,64658,1,2,1:2:0:0:
217,315,64808,1,0,0:2:0:0:
381,198,64958,2,0,P|394:139|380:87,1,97.9200005976563,10|0,0:2|0:2,0:2:0:0:
103,125,65258,6,0,B|214:125|168:48|304:39,1,195.840001195313,2|8,1:2|0:2,0:2:0:0:
114,28,65708,1,2,0:2:0:0:
272,148,65858,2,0,P|263:214|260:255,1,97.9200005976563,2|0,1:2|0:2,0:2:0:0:
81,237,66158,2,0,P|76:188|69:139,1,97.9200005976563,8|0,0:2|0:2,0:2:0:0:
277,275,66458,5,6,1:2:0:0:
180,134,66608,1,2,0:2:0:0:
145,319,66758,1,10,0:2:0:0:
302,178,66908,1,2,0:2:0:0:
103,48,67058,2,0,P|134:153|154:241,1,195.840001195313,2|8,1:2|0:2,0:2:0:0:
283,49,67508,6,0,P|348:31|390:31,1,97.9200005976563,2|0,0:2|1:2,0:2:0:0:
411,220,67808,1,2,0:2:0:0:
211,104,67958,1,10,0:2:0:0:
190,294,68108,1,2,0:2:0:0:
355,134,68258,2,0,P|374:219|382:253,1,97.9200005976563,2|0,1:2|0:2,0:2:0:0:
218,324,68558,2,0,P|228:276|239:228,1,97.9200005976563,10|0,0:2|0:2,0:2:0:0:
182,57,68858,6,0,P|120:25|76:26,1,97.9200005976563,2|0,1:2|0:2,0:2:0:0:
333,232,69158,2,0,P|381:224|421:198,1,97.9200005976563,10|0,0:2|0:2,0:2:0:0:
167,79,69458,2,0,P|105:47|61:48,1,97.9200005976563,2|0,1:2|0:2,0:2:0:0:
318,254,69758,2,0,P|366:246|406:220,1,97.9200005976563,10|0,0:2|0:2,0:2:0:0:
95,134,70058,6,0,B|136:260|62:207|115:344,1,195.840001195313,2|8,1:2|0:2,0:2:0:0:
209,163,70508,1,0,0:2:0:0:
259,332,70658,2,0,P|332:356|366:342,1,97.9200005976563,2|0,1:2|0:2,0:2:0:0:
314,110,70958,2,0,P|265:105|223:129,1,97.9200005976563,8|0,0:2|0:2,0:2:0:0:
399,246,71258,6,0,P|412:172|424:131,1,97.9200005976563,6|0,1:2|0:2,0:2:0:0:
190,67,71558,1,10,0:2:0:0:
190,67,71708,2,0,P|201:114|208:162,1,97.9200005976563,2|0,0:2|1:2,0:2:0:0:
142,315,72008,1,2,0:2:0:0:
303,203,72158,1,10,0:2:0:0:
117,298,72308,6,0,P|103:235|88:186,1,97.9200005976563,2|0,0:2|1:2,0:2:0:0:
272,341,72608,1,2,0:2:0:0:
296,123,72758,2,0,P|282:170|272:218,1,97.9200005976563,10|0,0:2|0:2,0:2:0:0:
378,374,73058,2,0,P|367:326|354:278,1,97.9200005976563,2|0,1:2|0:2,0:2:0:0:
269,97,73358,2,0,P|255:144|245:192,1,97.9200005976563,10|0,0:2|0:2,0:2:0:0:
428,36,73658,6,0,B|309:19|350:105|214:72,1,195.840001195313,2|8,1:2|0:2,0:2:0:0:
68,287,74108,2,0,P|113:216|246:206,1,195.840001195313,2|0,0:2|0:2,0:2:0:0:
366,351,74558,2,0,P|384:273|394:241,1,97.9200005976563,10|0,0:2|0:2,0:2:0:0:
146,89,74858,5,10,0:2:0:0:
217,292,75008,1,0,1:2:0:0:
410,101,75158,1,8,0:2:0:0:
245,167,75308,1,0,1:2:0:0:
389,296,75458,1,8,1:2:0:0:
389,296,75533,1,0,1:2:0:0:
389,296,75608,2,0,L|402:244,1,48.9600002988281,2|0,1:2|1:2,0:2:0:0:
290,100,75758,1,10,1:2:0:0:
290,100,75833,1,0,1:2:0:0:
290,100,75908,2,0,L|277:152,1,48.9600002988281,2|0,1:2|1:2,0:2:0:0:
216,336,76058,6,0,P|164:308|116:302,1,97.9200005976563,14|0,0:2|0:2,0:2:0:0:
115,63,76358,2,0,P|157:38|204:28,1,97.9200005976563,8|0,0:2|0:2,0:2:0:0:
229,322,76658,2,0,P|177:294|129:288,1,97.9200005976563,8|0,0:2|1:2,0:2:0:0:
297,74,76958,5,10,0:2:0:0:
128,191,77108,1,2,1:2:0:0:
371,276,77258,1,10,0:2:0:0:
140,159,77408,1,2,0:2:0:0:
380,25,77558,2,0,P|394:100|405:143,1,97.9200005976563,10|0,0:2|0:2,0:2:0:0:
260,341,77858,2,0,P|270:293|279:245,1,97.9200005976563,8|0,0:2|1:2,0:2:0:0:
98,69,78158,1,10,0:2:0:0:
192,274,78308,1,2,1:2:0:0:
275,40,78458,6,0,P|333:5|387:0,1,97.9200005976563,10|0,0:2|0:2,0:2:0:0:
170,298,78758,2,0,P|122:285|83:257,1,97.9200005976563,8|0,0:2|0:2,0:2:0:0:
301,58,79058,2,0,P|359:23|413:18,1,97.9200005976563,8|0,0:2|1:2,0:2:0:0:
159,202,79358,6,0,P|146:130|134:89,1,97.9200005976563,10|0,0:2|1:2,0:2:0:0:
399,126,79658,2,0,P|387:173|379:221,1,97.9200005976563,10|0,0:2|0:2,0:2:0:0:
193,329,79958,1,10,0:2:0:0:
193,329,80108,2,0,P|128:311|81:306,1,97.9200005976563,2|8,0:2|0:2,0:2:0:0:
267,162,80408,1,0,1:2:0:0:
361,354,80558,2,0,P|409:346|456:332,1,97.9200005976563,10|0,0:2|1:2,0:2:0:0:
279,78,80858,5,14,0:2:0:0:
134,230,81008,1,0,1:2:0:0:
376,217,81158,5,10,0:2:0:0:
163,120,81308,1,0,1:2:0:0:
299,306,81458,5,10,0:2:0:0:
275,45,81608,1,0,1:2:0:0:
108,256,81758,5,10,0:2:0:0:
401,189,81908,1,0,1:2:0:0:
144,89,82058,5,10,0:2:0:0:
278,335,82208,1,0,1:2:0:0:
379,67,82358,5,10,0:2:0:0:
85,225,82508,1,0,1:2:0:0:
429,292,82658,5,10,0:2:0:0:
244,30,82808,1,0,1:2:0:0:
194,360,82958,5,10,0:2:0:0:
413,76,83108,1,0,1:2:0:0:
65,128,83258,5,10,0:2:0:0:
283,366,83408,1,0,1:2:0:0:
209,45,83558,5,10,0:2:0:0:
108,353,83708,1,0,1:2:0:0:
244,30,83858,6,0,P|249:94|255:145,1,97.9200005976563,8|0,0:2|1:2,0:2:0:0:
316,367,84158,2,0,P|322:318|325:269,1,97.9200005976563,10|0,0:2|1:2,0:2:0:0:
413,76,84458,6,0,P|326:85|273:201,1,195.840001195313,10|8,0:2|0:2,0:2:0:0:
402,324,84908,1,2,1:2:0:0:
168,222,85058,1,8,0:2:0:0:
370,167,85208,5,8,0:2:0:0:
370,167,85283,1,8,0:2:0:0:
370,167,85358,2,0,L|360:257,1,48.9600002988281,10|8,1:2|0:2,0:2:0:0:
159,307,85508,2,0,L|154:258,1,48.9600002988281,8|8,0:2|0:2,0:2:0:0:
63,35,85658,6,0,B|381:37|144:311|478:351,1,552.9600135,6|10,1:2|0:2,0:2:0:0:
