osu file format v14

[General]
AudioFilename: audio.mp3
AudioLeadIn: 0
PreviewTime: 56483
Countdown: 0
SampleSet: Soft
StackLeniency: 0.7
Mode: 0
LetterboxInBreaks: 0
WidescreenStoryboard: 0

[Editor]
DistanceSpacing: 1
BeatDivisor: 4
GridSize: 32
TimelineZoom: 1.5

[Metadata]
Title:Kimi no Bouken (TV Size)
TitleUnicode:キミの冒険 (TV Size)
Artist:Okazaki Taiiku
ArtistUnicode:岡崎体育
Creator:Sotarks
Version:Akitoshi's Normal
Source:ポケットモンスター サン&ムーン
Tags:pokemon pokémon pocket monsters sun and moon opening op your adventure nintendo the company game freak alola akitoshi corinn -laura- shunao shogunmoon snownino_ reform kujinn
BeatmapID:1849944
BeatmapSetID:884581

[Difficulty]
HPDrainRate:4
CircleSize:3.3
OverallDifficulty:4
ApproachRate:5
SliderMultiplier:0.999999999999999
SliderTickRate:1

[Events]
//Background and Video events
0,0,"bg.jpg",0,0
Video,0,"video.avi"
//Break Periods
//Storyboard Layer 0 (Background)
//Storyboard Layer 1 (Fail)
//Storyboard Layer 2 (Pass)
//Storyboard Layer 3 (Foreground)
//Storyboard Sound Samples

[TimingPoints]
458,300,4,2,22,32,1,0
458,-111.111111111111,4,2,22,32,0,0
5258,-111.111111111111,4,2,22,42,0,0
11258,-100,4,2,22,72,0,0
18458,-100,4,2,22,62,0,0
37658,-111.111111111111,4,2,22,62,0,0
54458,-100,4,2,22,72,0,0
56558,-100,4,2,22,52,0,0
56858,-95.2380952380952,4,2,22,82,0,0
85658,-95.2380952380952,4,2,22,82,0,0

[Colours]
Combo1 : 70,241,255
Combo2 : 55,255,65
Combo3 : 248,255,104

[HitObjects]
339,43,458,6,0,B|439:32|406:99|528:84,2,179.999994506836,2|2|0,0:0|0:0|0:0,0:0:0:0:
194,150,2258,2,0,L|100:143,1,89.999997253418,2|2,0:0|0:0,0:0:0:0:
54,68,2858,6,0,P|12:135|70:228,2,179.999994506836,2|2|2,0:0|0:0|0:0,0:0:0:0:
230,31,4658,2,0,L|238:130,1,89.999997253418,2|0,0:0|0:0,0:0:0:0:
294,190,5258,6,0,P|366:194|432:200,1,134.999995880127,2|2,0:2|0:2,0:0:0:0:
506,245,6008,1,2,0:2:0:0:
469,327,6308,2,0,P|415:334|378:327,1,89.999997253418,2|2,0:2|0:2,0:0:0:0:
337,314,6758,1,2,3:2:0:0:
258,269,7058,2,0,P|204:262|167:269,1,89.999997253418,2|2,0:2|3:2,0:0:0:0:
81,287,7658,6,0,L|72:189,1,89.999997253418,2|2,0:2|3:2,0:0:0:0:
69,107,8258,1,2,0:2:0:0:
126,37,8558,1,2,3:2:0:0:
215,25,8858,1,6,0:0:0:0:
256,192,9008,12,0,10358,0:0:0:0:
237,255,11258,5,6,1:2:0:0:
237,255,11408,2,0,L|348:245,1,99.9999999999999,0|0,0:2|0:2,0:0:0:0:
386,241,11858,2,0,P|395:195|377:132,1,99.9999999999999,10|0,0:2|0:2,0:0:0:0:
362,98,12308,1,10,0:2:0:0:
270,57,12608,1,10,0:2:0:0:
191,119,12908,2,0,P|141:134|83:128,1,99.9999999999999,2|2,1:2|1:2,0:0:0:0:
46,116,13358,1,2,0:2:0:0:
10,209,13658,6,0,L|21:324,1,99.9999999999999,2|2,1:2|0:2,0:0:0:0:
102,363,14258,2,0,P|149:348|199:350,1,99.9999999999999,10|0,0:2|0:2,0:0:0:0:
247,365,14708,1,10,0:2:0:0:
337,322,15008,1,10,0:2:0:0:
345,222,15308,2,0,L|238:213,1,99.9999999999999,2|2,1:2|1:2,0:0:0:0:
195,209,15758,1,2,0:2:0:0:
103,169,16058,6,0,P|96:104|108:66,1,99.9999999999999,6|2,1:2|0:2,0:0:0:0:
197,32,16658,2,0,P|245:42|294:34,1,99.9999999999999,10|0,0:2|0:2,0:0:0:0:
343,21,17108,2,0,L|448:28,1,99.9999999999999,10|10,0:2|0:2,0:0:0:0:
492,36,17558,1,2,1:2:0:0:
504,135,17858,1,10,0:2:0:0:
435,208,18158,2,0,L|368:212,1,50,10|10,0:2|0:2,0:0:0:0:
339,231,18458,6,0,L|235:222,1,99.9999999999999,6|8,1:2|0:2,0:0:0:0:
175,145,19058,2,0,L|71:154,1,99.9999999999999,2|10,1:2|0:2,0:0:0:0:
25,158,19508,2,0,B|5:206|5:206|28:313,1,150,2|10,0:2|0:2,0:0:0:0:
105,362,20258,1,2,1:2:0:0:
204,365,20558,1,10,0:2:0:0:
277,296,20858,6,0,P|326:284|384:290,1,99.9999999999999,2|10,1:2|0:2,0:0:0:0:
474,300,21458,2,0,P|485:240|470:183,1,99.9999999999999,2|8,1:2|0:2,0:0:0:0:
436,111,22058,1,0,1:2:0:0:
340,80,22358,1,8,0:2:0:0:
251,126,22658,2,0,L|257:184,2,50,2|2|8,1:2|0:2|0:2,0:0:0:0:
190,46,23258,6,0,P|136:37|86:51,1,99.9999999999999,6|8,1:2|0:2,0:0:0:0:
22,119,23858,2,0,P|32:167|23:216,1,99.9999999999999,2|10,1:2|0:2,0:0:0:0:
8,315,24458,2,0,L|114:319,1,99.9999999999999,2|10,1:2|0:2,0:0:0:0:
158,318,24908,2,0,B|190:274|170:223|170:223|177:170,1,150,2|8,0:2|0:2,0:0:0:0:
188,74,25658,5,2,1:2:0:0:
275,24,25958,1,10,0:2:0:0:
369,57,26258,2,0,P|384:115|368:164,1,99.9999999999999,2|10,1:2|0:2,0:0:0:0:
298,218,26858,2,0,L|196:213,2,99.9999999999999,2|8|2,1:2|0:2|1:2,0:0:0:0:
384,269,27758,1,8,0:2:0:0:
334,355,28058,6,0,P|275:366|217:355,1,99.9999999999999,6|10,1:2|0:2,0:0:0:0:
160,294,28658,2,0,P|101:283|43:294,1,99.9999999999999,2|8,1:2|0:2,0:0:0:0:
19,314,29108,2,0,B|0:260|0:260|16:149,1,150,2|10,0:2|0:2,0:0:0:0:
34,70,29858,1,2,1:2:0:0:
125,28,30158,1,10,0:2:0:0:
217,66,30458,6,0,P|267:57|330:49,2,99.9999999999999,2|8|0,1:2|0:2|1:2,0:0:0:0:
160,148,31358,1,8,0:2:0:0:
217,229,31658,2,0,P|267:238|330:246,2,99.9999999999999,2|8|0,1:2|0:2|1:2,0:0:0:0:
160,148,32558,1,10,0:2:0:0:
64,176,32858,6,0,P|48:242|63:290,1,99.9999999999999,2|10,1:2|0:2,0:0:0:0:
120,348,33458,2,0,P|167:363|216:357,1,99.9999999999999,2|10,1:2|0:2,0:0:0:0:
302,305,34058,2,0,P|349:320|398:314,2,99.9999999999999,2|10|2,1:2|0:2|1:2,0:0:0:0:
222,244,34958,1,10,0:2:0:0:
275,159,35258,6,0,B|365:146|334:196|437:177,1,150,2|2,1:2|0:2,0:0:0:0:
469,169,35858,2,0,P|488:121|481:68,1,99.9999999999999,2|8,1:2|0:2,0:0:0:0:
394,27,36458,1,0,1:2:0:0:
300,62,36758,1,8,0:2:0:0:
275,159,37058,2,0,L|284:219,1,50,8|8,0:2|0:3,0:0:0:0:
308,250,37358,2,0,L|299:310,1,50,4|4,0:3|0:3,0:0:0:0:
282,340,37658,6,0,P|228:320|99:322,1,179.999994506836,4|8,1:2|0:2,0:0:0:0:
38,260,38558,2,0,L|34:199,1,44.999998626709,0|8,0:2|0:2,0:0:0:0:
31,170,38858,2,0,P|116:144|206:149,1,179.999994506836,0|8,1:2|0:2,0:0:0:0:
346,262,40058,6,0,B|397:282|435:278|435:278|478:255|495:204,1,179.999994506836,4|8,1:2|0:2,0:0:0:0:
495,122,40958,2,0,L|488:67,1,44.999998626709,0|8,0:2|0:2,0:0:0:0:
466,38,41258,2,0,B|415:18|377:22|377:22|334:45|317:96,1,179.999994506836,0|8,1:2|0:2,0:0:0:0:
314,177,42158,1,0,1:2:0:0:
346,262,42458,6,0,P|272:297|170:264,2,179.999994506836,4|8|0,1:2|0:2|1:2,0:0:0:0:
405,194,43958,1,0,1:2:0:0:
350,122,44258,2,0,L|255:113,1,89.999997253418,8|0,0:2|0:2,0:0:0:0:
219,110,44708,1,8,0:2:0:0:
219,110,44858,6,0,P|170:81|51:106,1,179.999994506836,4|8,1:2|0:2,0:0:0:0:
13,183,45758,2,0,L|21:249,1,44.999998626709,0|8,0:2|0:2,0:0:0:0:
42,265,46058,2,0,P|105:256|146:253,1,89.999997253418,0|0,1:2|1:2,0:0:0:0:
212,215,46658,2,0,P|275:224|316:227,1,89.999997253418,8|0,0:2|1:2,0:0:0:0:
350,232,47108,1,8,0:2:0:0:
350,232,47258,6,0,P|383:161|334:61,1,179.999994506836,4|8,1:2|0:2,0:0:0:0:
166,71,48458,2,0,P|133:142|182:242,1,179.999994506836,0|8,1:2|0:2,0:0:0:0:
241,285,49358,2,0,L|234:338,1,44.999998626709,0|8,0:2|0:2,0:0:0:0:
204,362,49658,6,0,B|152:347|86:373|86:373|55:364|24:332,1,179.999994506836,4|8,1:2|0:2,0:0:0:0:
0,260,50558,2,0,L|3:197,1,44.999998626709,0|8,0:2|0:2,0:0:0:0:
7,170,50858,2,0,B|59:155|125:181|125:181|156:172|187:140,1,179.999994506836,0|8,1:2|0:2,0:0:0:0:
236,84,51758,1,0,1:2:0:0:
318,47,52058,6,0,P|364:46|412:62,1,89.999997253418,6|8,1:2|0:2,0:0:0:0:
469,122,52658,1,10,0:2:0:0:
469,212,52958,1,8,0:2:0:0:
405,275,53258,2,0,P|362:287|317:286,2,89.999997253418,10|10|10,0:2|0:2|0:2,0:0:0:0:
469,212,54158,1,10,0:2:0:0:
256,192,54458,12,6,55658,1:2:0:0:
435,217,56858,6,0,L|321:226,1,104.999996795654,6|10,1:2|0:2,0:0:0:0:
242,282,57458,2,0,L|128:273,1,104.999996795654,2|8,1:2|0:2,0:0:0:0:
85,268,57908,2,0,P|69:210|82:160,1,104.999996795654,2|2,0:2|0:2,0:0:0:0:
99,119,58358,1,10,0:2:0:0:
177,49,58658,1,2,1:2:0:0:
281,51,58958,1,10,0:2:0:0:
357,123,59258,6,0,L|347:235,2,104.999996795654,2|10|2,1:2|0:2|1:2,0:0:0:0:
416,36,60158,1,10,0:2:0:0:
495,104,60458,2,0,P|509:153|498:215,1,104.999996795654,2|8,1:2|0:2,0:0:0:0:
445,294,61058,1,2,1:2:0:0:
342,315,61358,1,8,0:2:0:0:
254,257,61658,6,0,P|248:205|241:150,1,104.999996795654,6|10,1:2|0:2,0:0:0:0:
230,100,62108,1,2,0:2:0:0:
139,47,62408,2,0,L|82:54,1,52.4999983978271,2|8,0:2|0:2,0:0:0:0:
35,63,62708,2,0,P|22:100|30:180,1,104.999996795654,2|2,0:2|0:2,0:0:0:0:
39,215,63158,1,10,0:2:0:0:
115,287,63458,1,2,1:2:0:0:
219,289,63758,1,10,0:2:0:0:
296,218,64058,6,0,L|411:224,2,104.999996795654,2|10|2,1:2|0:2|1:2,0:0:0:0:
199,175,64958,1,10,0:2:0:0:
218,71,65258,2,0,P|274:50|325:50,1,104.999996795654,2|8,1:2|0:2,0:0:0:0:
375,61,65708,1,2,0:2:0:0:
375,61,65858,2,0,P|423:80|475:82,1,104.999996795654,2|8,1:2|0:2,0:0:0:0:
507,182,66458,6,0,L|495:307,1,104.999996795654,6|10,1:2|0:2,0:0:0:0:
421,360,67058,2,0,P|372:340|320:339,1,104.999996795654,2|8,1:2|0:2,0:0:0:0:
270,354,67508,2,0,L|259:249,1,104.999996795654,2|2,0:2|0:2,0:0:0:0:
254,196,67958,1,10,0:2:0:0:
171,130,68258,1,2,1:2:0:0:
72,165,68558,1,10,0:2:0:0:
34,262,68858,6,0,P|33:313|51:366,2,104.999996795654,2|10|2,1:2|0:2|1:2,0:0:0:0:
72,165,69758,1,10,0:2:0:0:
171,130,70058,2,0,P|251:137|280:141,1,104.999996795654,2|8,1:2|0:2,0:0:0:0:
377,165,70658,1,2,1:2:0:0:
416,262,70958,1,8,0:2:0:0:
361,351,71258,6,0,P|318:361|254:353,1,104.999996795654,6|10,1:2|0:2,0:0:0:0:
208,334,71708,1,2,0:2:0:0:
135,258,72008,2,0,L|139:195,1,52.4999983978271,2|10,0:2|0:2,0:0:0:0:
143,153,72308,2,0,B|180:168|180:168|250:153,1,104.999996795654,2|2,0:2|0:2,0:0:0:0:
294,139,72758,1,10,0:2:0:0:
397,156,73058,1,2,1:2:0:0:
449,247,73358,1,10,0:2:0:0:
414,346,73658,6,0,P|368:339|303:334,1,104.999996795654,2|8,1:2|0:2,0:0:0:0:
256,332,74108,2,0,P|241:283|253:225,1,104.999996795654,2|0,0:2|0:2,0:0:0:0:
276,185,74558,1,10,0:2:0:0:
236,87,74858,2,0,P|187:72|129:84,1,104.999996795654,10|8,0:2|0:2,0:0:0:0:
47,139,75458,2,0,L|42:198,1,52.4999983978271,8|2,1:2|1:2,0:0:0:0:
19,238,75758,2,0,L|24:297,1,52.4999983978271,10|2,1:2|1:2,0:0:0:0:
42,339,76058,6,0,P|93:348|143:333,1,104.999996795654,14|8,0:2|0:2,0:0:0:0:
226,269,76658,1,8,0:2:0:0:
273,175,76958,1,10,0:2:0:0:
255,71,77258,2,0,L|316:64,1,52.4999983978271,10|2,0:2|0:2,0:0:0:0:
355,43,77558,2,0,P|396:32|468:54,1,104.999996795654,10|8,0:2|0:2,0:0:0:0:
498,141,78158,2,0,L|495:198,1,52.4999983978271,10|2,0:2|1:2,0:0:0:0:
485,245,78458,6,0,P|434:259|384:247,1,104.999996795654,10|8,0:2|0:2,0:0:0:0:
296,190,79058,1,8,0:2:0:0:
193,166,79358,1,10,0:2:0:0:
99,214,79658,2,0,L|110:324,1,104.999996795654,10|10,0:2|0:2,0:0:0:0:
119,375,80108,1,2,0:2:0:0:
119,375,80258,2,0,P|169:368|230:359,1,104.999996795654,8|10,0:2|0:2,0:0:0:0:
312,305,80858,6,0,P|365:316|421:304,2,104.999996795654,14|10|10,0:2|0:2|0:2,0:0:0:0:
225,245,81758,1,10,0:2:0:0:
179,150,82058,2,0,P|126:139|70:151,1,104.999996795654,10|10,0:2|0:2,0:0:0:0:
5,225,82658,1,10,0:2:0:0:
43,322,82958,2,0,L|101:317,1,52.4999983978271,10|0,0:2|1:2,0:0:0:0:
147,310,83258,6,0,P|198:319|249:308,1,104.999996795654,10|10,0:2|0:2,0:0:0:0:
340,254,83858,1,8,0:2:0:0:
379,156,84158,1,10,0:2:0:0:
342,57,84458,2,0,P|290:46|239:55,1,104.999996795654,10|8,0:2|0:2,0:0:0:0:
152,114,85058,2,0,L|148:177,1,52.4999983978271,8|8,0:2|0:2,0:0:0:0:
121,211,85358,2,0,L|125:274,1,52.4999983978271,10|8,1:2|0:2,0:0:0:0:
147,310,85658,6,0,P|216:341|335:104,1,419.999987182617,6|10,1:2|0:0,0:0:0:0:
