osu file format v14

[General]
AudioFilename: audio.mp3
AudioLeadIn: 0
PreviewTime: 56820
Countdown: 1
SampleSet: None
StackLeniency: 0.4
Mode: 0
LetterboxInBreaks: 0
WidescreenStoryboard: 0

[Editor]
Bookmarks: 458,11258,18458,37658,56858,76058,86858
DistanceSpacing: 1.1
BeatDivisor: 2
GridSize: 8
TimelineZoom: 1

[Metadata]
Title:Kimi no Bouken (TV Size)
TitleUnicode:キミの冒険 (TV Size)
Artist:Okazaki Taiiku
ArtistUnicode:岡崎体育
Creator:Sonnyc
Version:Expert
Source:ポケットモンスター サン&ムーン
Tags:pokemon pokémon sun moon opening
BeatmapID:1946181
BeatmapSetID:932102

[Difficulty]
HPDrainRate:6
CircleSize:4.4
OverallDifficulty:9
ApproachRate:9
SliderMultiplier:2
SliderTickRate:2

[Events]
//Background and Video events
0,0,"bg.jpg",0,0
//Break Periods
2,11458,17858
//Storyboard Layer 0 (Background)
//Storyboard Layer 1 (Fail)
//Storyboard Layer 2 (Pass)
//Storyboard Layer 3 (Foreground)
//Storyboard Sound Samples

[TimingPoints]
458,300,4,2,0,40,1,0
11258,-100,4,1,0,60,0,0
37658,-125,4,1,0,50,0,0
56858,-100,4,1,0,70,0,1
86858,-100,4,1,0,70,0,0

[Colours]
Combo1 : 255,128,64
Combo2 : 0,255,128
Combo3 : 128,128,255
Combo4 : 255,0,128

[HitObjects]
358,244,458,5,2,0:0:0:0:
239,303,608,1,0,0:0:0:0:
147,207,758,1,0,0:0:0:0:
209,90,908,1,0,0:0:0:0:
340,113,1058,1,2,0:0:0:0:
340,113,1508,5,2,0:0:0:0:
340,113,1808,1,2,0:0:0:0:
209,90,1958,1,0,0:0:0:0:
147,207,2108,1,0,0:0:0:0:
239,303,2258,1,2,0:0:0:0:
239,303,2558,1,0,0:0:0:0:
106,74,2858,5,2,0:0:0:0:
426,120,3158,1,0,0:0:0:0:
85,263,3458,1,2,0:0:0:0:
405,309,3758,1,0,0:0:0:0:
106,74,4058,1,2,0:0:0:0:
106,74,4658,6,0,P|171:62|142:152,1,200,2|0,0:0|0:0,0:0:0:0:
512,145,5258,6,0,B|398:130|430:200|319:183,1,200,2|0,0:0|1:0,0:0:0:0:
476,56,5708,2,0,B|362:41|394:111|283:94,1,200,2|0,0:0|0:0,0:0:0:0:
52,305,6308,6,0,B|166:290|134:360|245:343,1,200,2|0,0:0|0:0,0:0:0:0:
346,305,6758,1,0,1:0:0:0:
346,305,7058,1,2,0:0:0:0:
121,28,7358,5,0,1:0:0:0:
178,364,7658,1,2,0:0:0:0:
383,45,7958,1,0,1:0:0:0:
326,361,8258,1,2,0:0:0:0:
76,32,8558,1,0,1:0:0:0:
379,32,8858,6,0,P|288:23|248:213,1,300,2|0,0:0|0:0,0:0:0:0:
314,287,9458,1,2,0:0:0:0:
256,192,9533,12,4,11258,1:0:0:0:
54,179,18458,6,0,B|106:217|106:217|89:352,1,200,6|8,0:0|0:0,0:0:0:0:
18,255,18908,1,0,0:0:0:0:
177,339,19058,2,0,L|377:313,1,200,0|8,0:0|0:0,0:0:0:0:
452,111,19508,6,0,B|447:168|447:168|474:194|474:194|465:302,1,200,2|0,0:0|0:0,0:0:0:0:
284,193,19958,1,8,0:0:0:0:
382,231,20108,1,0,0:0:0:0:
173,308,20258,1,0,0:0:0:0:
284,287,20408,1,0,0:0:0:0:
62,216,20558,1,8,0:0:0:0:
162,228,20708,1,0,0:0:0:0:
103,3,20858,5,0,0:0:0:0:
122,153,21008,1,0,0:0:0:0:
247,45,21158,1,8,0:0:0:0:
37,92,21308,1,0,0:0:0:0:
241,215,21458,1,0,0:0:0:0:
179,21,21608,1,2,0:0:0:0:
362,321,22658,5,0,0:0:0:0:
341,191,22808,1,0,0:0:0:0:
462,212,22958,1,8,0:0:0:0:
425,37,23108,1,0,0:0:0:0:
205,116,23258,6,0,B|148:111|148:111|122:138|122:138|14:129,1,200,4|8,0:0|0:0,0:0:0:0:
183,200,23708,1,0,0:0:0:0:
84,271,23858,1,0,0:0:0:0:
198,356,24008,1,0,0:0:0:0:
5,235,24158,1,8,0:0:0:0:
274,315,24308,1,0,0:0:0:0:
169,171,24458,6,0,B|303:136|303:136|357:165,1,200,0|8,0:0|0:0,0:0:0:0:
474,225,24908,2,0,B|340:260|340:260|286:231,1,200
285,230,25508,5,0,0:0:0:0:
191,279,25658,2,0,L|81:237,1,100,2|0,0:0|0:0,0:0:0:0:
195,162,25958,2,0,L|144:61,1,100,8|0,0:0|0:0,0:0:0:0:
279,91,26258,1,0,0:0:0:0:
384,16,26408,1,0,0:0:0:0:
279,91,26558,1,8,0:0:0:0:
279,91,26858,6,0,B|326:142|326:142|307:218|307:218|350:252|350:252|324:347,1,300,2|0,0:0|0:0,0:0:0:0:
215,294,27458,2,0,B|161:323|161:323|27:288,1,200,0|8,0:0|0:0,0:0:0:0:
476,191,28058,6,0,B|424:229|424:229|441:364,1,200,6|8,0:0|0:0,0:0:0:0:
512,267,28508,1,0,0:0:0:0:
353,351,28658,1,0,0:0:0:0:
253,338,28808,1,0,0:0:0:0:
154,325,28958,1,8,0:0:0:0:
78,123,29108,6,0,B|83:180|83:180|56:206|56:206|65:314,1,200,2|0,0:0|0:0,0:0:0:0:
0,146,29558,1,8,0:0:0:0:
339,308,29858,5,0,0:0:0:0:
228,287,30008,1,0,0:0:0:0:
450,216,30158,1,8,0:0:0:0:
342,228,30308,1,0,0:0:0:0:
411,33,30458,5,2,0:0:0:0:
454,328,30608,1,0,0:0:0:0:
411,33,31658,1,2,2:1:0:0:
427,137,31808,1,0,2:0:0:0:
55,167,32558,5,8,0:0:0:0:
185,106,32708,1,0,0:0:0:0:
85,264,32858,2,0,B|158:253|158:253|193:288|193:288|284:275,2,200,0|8|0,0:0|0:0|0:0,0:0:0:0:
240,200,33608,1,0,0:0:0:0:
113,334,33758,1,8,0:0:0:0:
364,258,33908,5,0,0:0:0:0:
240,200,34058,2,0,L|276:102,1,100
69,114,34358,2,0,L|170:73,1,100,8|0,0:0|0:0,0:0:0:0:
24,219,34658,2,0,L|130:238,1,100
344,372,34958,5,8,0:0:0:0:
278,295,35108,1,0,0:0:0:0:
442,308,35258,2,0,P|394:192|233:203,1,300
53,354,35858,2,0,P|63:175|164:260,1,400
197,369,37658,21,4,0:0:0:0:
46,334,37808,1,0,0:0:0:0:
55,180,37958,1,0,0:0:0:0:
208,161,38108,1,0,0:0:0:0:
253,308,38258,1,8,0:0:0:0:
115,379,38408,1,0,0:0:0:0:
22,255,38558,1,0,0:0:0:0:
128,143,38708,1,0,0:0:0:0:
256,227,38858,1,0,0:0:0:0:
256,227,39158,1,0,0:0:0:0:
256,227,40058,5,0,0:0:0:0:
409,209,40208,1,0,0:0:0:0:
418,55,40358,1,0,0:0:0:0:
267,20,40508,1,0,0:0:0:0:
207,162,40658,1,8,0:0:0:0:
336,246,40808,1,0,0:0:0:0:
441,134,40958,1,0,0:0:0:0:
348,10,41108,1,0,0:0:0:0:
211,80,41258,1,0,0:0:0:0:
211,80,41558,1,0,0:0:0:0:
441,57,42158,5,0,0:0:0:0:
351,319,42458,1,4,0:0:0:0:
264,100,42758,1,0,0:0:0:0:
385,216,43058,1,8,0:0:0:0:
200,328,43358,1,0,0:0:0:0:
232,66,43658,1,0,0:0:0:0:
105,253,43958,1,0,0:0:0:0:
283,141,44258,1,8,0:0:0:0:
141,330,44558,1,0,0:0:0:0:
83,93,44858,6,0,L|391:53,2,240,0|0|8,0:0|0:0|0:0,0:0:0:0:
49,8,45908,2,0,P|-15:89|147:274,1,400,0|8,0:0|0:0,0:0:0:0:
146,274,47258,5,4,0:0:0:0:
13,162,47408,1,0,0:0:0:0:
176,103,47558,1,0,0:0:0:0:
47,256,47708,1,0,0:0:0:0:
77,86,47858,1,8,0:0:0:0:
210,197,48008,1,0,0:0:0:0:
210,197,48458,6,0,P|269:136|340:152,1,160
404,214,48908,1,0,0:0:0:0:
356,293,49058,1,8,0:0:0:0:
123,125,49358,5,0,0:0:0:0:
255,327,49658,1,0,0:0:0:0:
283,92,49958,1,0,0:0:0:0:
137,314,50258,1,8,0:0:0:0:
404,180,50558,1,0,0:0:0:0:
63,132,50858,1,0,0:0:0:0:
19,309,51458,37,8,0:0:0:0:
226,273,51758,1,0,0:0:0:0:
419,250,52058,1,4,0:0:0:0:
387,240,52658,1,8,0:0:0:0:
348,228,53258,5,0,0:0:0:0:
194,331,53558,1,8,0:0:0:0:
63,211,53858,1,0,0:0:0:0:
164,40,54158,1,8,0:0:0:0:
344,82,54458,6,0,L|334:333,2,240,0|0|8,0:0|0:0|0:0,0:0:0:0:
344,82,55658,1,6,0:0:0:0:
74,109,56858,5,6,0:0:0:0:
286,4,57008,1,0,0:0:0:0:
451,175,57158,1,8,0:0:0:0:
340,383,57308,1,0,0:0:0:0:
106,343,57458,1,2,0:0:0:0:
106,343,57908,5,2,0:0:0:0:
106,343,58208,1,2,0:0:0:0:
340,383,58358,1,8,0:0:0:0:
451,175,58508,1,0,0:0:0:0:
286,4,58658,1,2,0:0:0:0:
286,4,58958,1,8,0:0:0:0:
479,368,59258,5,2,0:0:0:0:
0,299,59558,1,8,0:0:0:0:
511,86,59858,1,2,0:0:0:0:
32,17,60158,1,8,0:0:0:0:
479,368,60458,1,2,0:0:0:0:
479,368,61058,6,0,P|409:378|448:296,1,200,2|8,0:0|0:0,0:0:0:0:
34,90,61658,6,0,B|117:61|146:116|237:72,1,200,6|8,0:0|0:0,0:0:0:0:
29,191,62108,2,0,B|112:162|141:217|232:173,1,200,2|0,0:0|0:0,0:0:0:0:
482,324,62708,6,0,B|384:354|399:282|280:321,1,200,2|0,0:0|0:0,0:0:0:0:
164,362,63158,1,8,0:0:0:0:
165,362,63458,1,2,0:0:0:0:
459,36,63758,5,8,0:0:0:0:
0,211,64058,1,2,0:0:0:0:
512,307,64358,1,8,0:0:0:0:
129,0,64658,1,2,0:0:0:0:
233,384,64958,1,8,0:0:0:0:
328,24,65258,6,0,P|320:130|163:101,1,300,2|0,0:0|0:0,0:0:0:0:
232,36,65858,1,2,0:0:0:0:
374,343,66458,5,2,0:0:0:0:
126,335,66608,1,0,0:0:0:0:
91,89,66758,1,8,0:0:0:0:
328,12,66908,1,0,0:0:0:0:
443,231,67058,1,2,0:0:0:0:
443,231,67508,5,2,0:0:0:0:
443,231,67808,1,2,0:0:0:0:
248,383,67958,1,8,0:0:0:0:
64,218,68108,1,0,0:0:0:0:
196,8,68258,1,2,0:0:0:0:
32,367,68558,5,8,0:0:0:0:
479,16,68858,1,2,0:0:0:0:
0,85,69158,1,8,0:0:0:0:
511,298,69458,1,2,0:0:0:0:
32,367,69758,1,8,0:0:0:0:
479,16,70058,1,2,0:0:0:0:
479,16,70658,6,0,P|409:6|448:88,1,200,2|8,0:0|0:0,0:0:0:0:
121,300,71258,6,0,B|84:314|30:298|22:239|56:133,1,200,6|8,0:0|0:0,0:0:0:0:
231,202,71708,2,0,B|194:216|140:200|132:141|166:35,1,200,2|2,0:0|0:0,0:0:0:0:
253,106,72158,1,8,0:0:0:0:
391,300,72308,6,0,B|428:314|482:298|490:239|456:133,1,200,2|2,0:0|0:0,0:0:0:0:
429,32,72758,1,8,0:0:0:0:
429,32,73058,1,2,0:0:0:0:
156,309,73358,21,8,0:0:0:0:
344,133,73658,2,0,P|297:75|60:79,2,300,2|2|8,0:0|0:0|0:0,0:0:0:0:
478,279,74858,1,2,0:0:0:0:
56,95,75608,5,0,0:0:0:0:
334,129,75758,1,8,0:0:0:0:
137,35,75908,1,0,0:0:0:0:
319,235,76058,2,0,P|254:238|126:290,2,200,2|2|2,0:0|0:0|0:0,0:0:0:0:
319,235,76958,5,2,0:0:0:0:
74,31,77108,1,0,0:0:0:0:
383,118,77258,1,2,0:0:0:0:
56,148,77408,1,0,0:0:0:0:
311,350,77558,2,0,P|180:334|71:335,1,200,2|2,0:0|0:0,0:0:0:0:
442,327,78158,5,2,0:0:0:0:
461,110,78308,1,0,0:0:0:0:
210,34,78458,2,0,P|121:26|27:78,2,200,2|2|2,0:0|0:0|0:0,0:0:0:0:
111,362,79358,5,2,0:0:0:0:
405,57,79658,2,0,P|409:109|408:270,1,200,2|0,0:0|0:0,0:0:0:0:
206,188,80108,2,0,P|276:181|225:329,1,300,2|0,0:0|0:0,0:0:0:0:
467,28,80858,5,2,0:0:0:0:
45,90,81158,1,2,0:0:0:0:
345,359,81458,1,2,0:0:0:0:
150,317,81608,1,0,0:0:0:0:
362,262,81758,1,2,0:0:0:0:
167,220,81908,1,0,0:0:0:0:
497,75,82058,5,2,0:0:0:0:
14,4,82358,1,2,0:0:0:0:
383,328,82658,1,2,0:0:0:0:
140,380,82808,1,0,0:0:0:0:
364,212,82958,1,2,0:0:0:0:
122,264,83108,1,0,0:0:0:0:
512,0,83258,5,2,0:0:0:0:
0,72,83558,1,2,0:0:0:0:
363,369,83858,1,2,0:0:0:0:
135,320,84008,1,0,0:0:0:0:
345,220,84158,5,0,0:0:0:0:
105,64,84458,2,0,P|167:14|305:146,2,300,2|2|0,0:0|0:0|0:0,0:0:0:0:
512,198,85658,1,6,0:0:0:0:
256,192,85733,12,4,86858,0:3:0:0:
