osu file format v14

[General]
AudioFilename: audio.mp3
AudioLeadIn: 0
PreviewTime: 56550
Countdown: 0
SampleSet: Normal
StackLeniency: 0.7
Mode: 0
LetterboxInBreaks: 0
EpilepsyWarning: 1
WidescreenStoryboard: 1

[Editor]
Bookmarks: 56850,66450,76050,85650
DistanceSpacing: 2.5
BeatDivisor: 4
GridSize: 4
TimelineZoom: 2.999999

[Metadata]
Title:Kimi no Bouken (TV Size)
TitleUnicode:キミの冒険 (TV Size)
Artist:Okazaki Taiiku
ArtistUnicode:岡崎体育
Creator:Nagatoro
Version:Neverending Adventure!
Source:ポケットモンスター サン&ムーン
Tags:岡崎体育 Okazaki Taiiku キミの冒険 TV Size Kimi no Bouken Pokemon Sun and & Moon Opening op Hayu -Tynamo Tynamo Sparxo Time Capsule TimeCapsule Michal
BeatmapID:2085713
BeatmapSetID:852260

[Difficulty]
HPDrainRate:7
CircleSize:4.8
OverallDifficulty:9.8
ApproachRate:10
SliderMultiplier:1.45
SliderTickRate:1

[Events]
//Background and Video events
0,0,"8sr.png",0,0
//Break Periods
//Storyboard Layer 0 (Background)
//Storyboard Layer 1 (Fail)
//Storyboard Layer 2 (Pass)
//Storyboard Layer 3 (Foreground)
//Storyboard Layer 4 (Overlay)
//Storyboard Sound Samples

[TimingPoints]
450,300,4,1,0,35,1,0
2850,-166.666666666667,4,1,0,35,0,0
3150,-133.333333333333,4,1,0,35,0,0
3450,-100,4,1,0,35,0,0
5250,-83.3333333333333,4,3,5,50,0,0
8850,-200,4,3,5,50,0,0
10350,-133.333333333333,4,3,5,50,0,0
11250,-66.6666666666667,4,3,5,75,0,0
13875,-78.125,4,3,5,75,0,0
13950,-78.125,4,3,5,75,0,0
16275,-78.125,4,3,5,75,0,0
16350,-78.125,4,3,5,75,0,0
18450,-100,4,3,5,75,0,0
18675,-100,4,3,5,75,0,0
18750,-100,4,3,5,75,0,0
23475,-100,4,3,5,75,0,0
23550,-100,4,3,5,75,0,0
28050,-100,4,3,5,75,0,0
28275,-100,4,3,5,75,0,0
28350,-100,4,3,5,75,0,0
33075,-100,4,3,5,75,0,0
33150,-100,4,3,5,75,0,0
37650,-111.111111111111,4,3,5,75,0,0
41175,-111.111111111111,4,3,5,75,0,0
41250,-111.111111111111,4,3,5,75,0,0
54450,-90.9090909090909,4,3,5,75,0,0
55650,-200,4,3,5,75,0,0
56550,-133.333333333333,4,3,5,75,0,0
56850,-71.4285714285714,4,3,5,75,0,1
62925,-71.4285714285714,4,3,5,75,0,1
63000,-71.4285714285714,4,3,5,75,0,1
67275,-71.4285714285714,4,3,5,75,0,1
67350,-71.4285714285714,4,3,5,75,0,1
75525,-71.4285714285714,4,3,5,75,0,0
76050,-50,4,3,5,75,0,1
85650,-149.253731343284,4,3,5,75,0,0
86775,-250,4,3,5,5,0,0
86850,-250,4,3,5,75,0,0

[HitObjects]
32,113,450,6,0,P|48:144|81:159,1,72.5,0|0,0:0|0:0,0:0:0:0:
128,24,750,2,0,P|106:52|106:88,1,72.5,0|0,0:0|0:0,0:0:0:0:
256,72,1050,2,0,P|221:64|188:80,1,72.5,2|0,0:0|0:0,0:0:0:0:
188,80,1350,1,2,0:0:0:0:
454,298,1500,6,0,P|397:282|368:194,1,145,0|0,0:0|0:0,0:0:0:0:
472,112,1950,2,0,P|479:147|466:180,1,72.5,0|0,0:0|0:0,0:0:0:0:
304,96,2250,2,0,P|338:104|363:129,1,72.5,2|0,0:0|0:0,0:0:0:0:
248,256,2550,2,0,P|270:227|304:215,1,72.5,2|0,0:0|0:0,0:0:0:0:
488,352,2850,6,0,L|426:347,1,43.4999986724854,0|0,0:0|0:0,0:0:0:0:
320,368,3150,2,0,L|374:371,1,54.3750020742417,0|0,0:0|0:0,0:0:0:0:
404,296,3450,6,0,L|331:292,1,72.5,2|0,0:0|0:0,0:0:0:0:
176,368,3750,2,0,L|249:372,1,72.5,2|0,0:0|0:0,0:0:0:0:
248,371,4050,1,0,0:0:0:0:
44,272,4650,6,0,P|74:187|131:256,1,217.5,2|0,0:0|0:0,0:0:0:0:
32,348,5250,6,0,P|112:370|175:315,1,173.999994689942,2|8,0:0|0:0,0:0:0:0:
236,228,5700,2,0,L|250:313,1,86.9999973449708,2|2,0:0|0:0,0:0:0:0:
352,384,6000,2,0,L|337:298,1,86.9999973449708,0|8,0:0|0:0,0:0:0:0:
296,24,6300,6,0,P|338:24|370:53,1,86.9999973449708,0|2,0:0|0:0,0:0:0:0:
408,128,6600,1,0,0:0:0:0:
310,101,6750,2,0,P|270:117|252:156,1,86.9999973449708,8|2,0:0|0:0,0:0:0:0:
327,176,7050,2,0,P|325:218|352:252,1,86.9999973449708,2|0,0:0|0:0,0:0:0:0:
404,196,7350,2,0,P|441:215|483:205,1,86.9999973449708,10|2,0:0|0:0,0:0:0:0:
156,12,7650,6,0,P|120:34|108:75,1,86.9999973449708,2|0,0:0|0:0,0:0:0:0:
232,180,7950,2,0,P|230:137|200:106,1,86.9999973449708,8|2,0:0|0:0,0:0:0:0:
40,152,8250,2,0,P|77:171|119:161,1,86.9999973449708,8|2,0:0|0:0,0:0:0:0:
108,75,8550,1,8,0:0:0:0:
220,268,8700,5,2,0:0:0:0:
220,268,8775,1,0,0:0:0:0:
220,268,8850,2,0,L|308:276,1,72.5,4|0,0:0|0:0,0:0:0:0:
292,274,9300,1,0,0:0:0:0:
144,344,9450,6,0,L|360:360,1,217.5
368,368,10650,1,0,0:0:0:0:
364,376,10950,1,0,0:0:0:0:
316,120,11250,6,0,L|301:12,1,108.750004148483,6|0,0:0|0:0,0:0:0:0:
336,264,11550,1,2,0:0:0:0:
424,68,11700,1,0,0:0:0:0:
188,116,11850,1,8,0:0:0:0:
424,176,12000,2,0,P|476:166|506:122,1,108.750004148483,0|0,0:0|0:0,0:0:0:0:
280,28,12300,6,0,L|64:54,1,217.500008296967,2|0,0:0|0:0,0:0:0:0:
56,60,12750,1,0,0:0:0:0:
320,220,12900,2,0,L|212:205,1,108.750004148483,2|8,0:0|0:0,0:0:0:0:
4,188,13200,5,2,0:0:0:0:
328,228,13350,1,8,0:0:0:0:
12,196,13500,1,8,0:0:0:0:
328,312,13650,6,0,P|399:283|405:206,1,163.125006222725,2|0,0:0|0:0,0:0:0:0:
356,160,13950,2,0,P|343:115|357:72,1,92.8,2|0,0:0|0:0,0:0:0:0:
424,44,14175,1,0,0:0:0:0:
424,44,14250,1,8,0:0:0:0:
276,252,14400,1,0,0:0:0:0:
256,8,14550,1,0,0:0:0:0:
188,296,14700,6,0,L|4:321,1,185.6,2|2,0:0|0:0,0:0:0:0:
0,332,15150,1,0,0:0:0:0:
276,136,15300,6,0,L|185:154,1,92.8,2|8,0:0|0:0,0:0:0:0:
0,208,15600,5,2,0:0:0:0:
280,128,15750,1,8,0:0:0:0:
0,220,15900,1,8,0:0:0:0:
328,200,16050,6,0,P|360:167|364:122,1,92.8,2|0,0:0|0:0,0:0:0:0:
176,16,16350,2,0,P|143:48|139:93,1,92.8,2|0,0:0|0:0,0:0:0:0:
96,144,16575,1,0,0:0:0:0:
96,144,16650,2,0,P|112:188|120:240,1,92.8,8|2,0:0|0:0,0:0:0:0:
60,44,16950,1,0,0:0:0:0:
40,332,17100,6,0,L|221:293,1,185.6,2|0,0:0|0:0,0:0:0:0:
0,236,17550,2,0,L|92:242,1,92.8,2|0,0:0|0:0,0:0:0:0:
316,264,17850,5,8,0:0:0:0:
0,224,18000,1,2,0:0:0:0:
300,344,18150,5,8,0:0:0:0:
355,353,18225,1,0,0:0:0:0:
401,320,18300,1,8,0:0:0:0:
411,264,18375,1,0,0:0:0:0:
379,218,18450,6,0,P|355:150|368:80,1,145,6|8,0:0|0:0,0:0:0:0:
368,80,18900,1,0,0:0:0:0:
280,8,19050,2,0,L|207:15,1,72.5,0|0,0:0|0:0,0:0:0:0:
4,120,19350,5,8,0:0:0:0:
79,184,19500,2,0,P|105:136|101:82,1,108.75,0|0,0:0|0:0,0:0:0:0:
101,82,19800,1,0,0:0:0:0:
0,248,19950,2,0,L|71:256,1,72.5,8|0,0:0|0:0,0:0:0:0:
255,199,20250,6,0,P|272:232|273:268,1,72.5,0|0,0:0|0:0,0:0:0:0:
176,304,20550,2,0,P|159:271|158:235,1,72.5,8|0,0:0|0:0,0:0:0:0:
224,128,20850,6,0,L|296:134,1,72.5,2|0,0:0|0:0,0:0:0:0:
412,148,21150,1,8,0:0:0:0:
408,160,21300,1,0,0:0:0:0:
344,56,21450,1,0,0:0:0:0:
328,212,21600,2,0,L|255:205,1,72.5,0|8,0:0|0:0,0:0:0:0:
80,372,21900,5,0,0:0:0:0:
80,372,21975,1,0,0:0:0:0:
80,372,22050,2,0,P|115:368|140:343,1,72.5,0|0,0:0|0:0,0:0:0:0:
108,264,22350,2,0,P|72:267|47:292,1,72.5,8|0,0:0|0:0,0:0:0:0:
204,376,22650,5,2,0:0:0:0:
224,232,22800,1,2,0:0:0:0:
308,384,22950,1,8,0:0:0:0:
328,244,23100,1,2,0:0:0:0:
416,356,23250,6,0,P|460:352|480:284,1,108.75,6|0,0:0|0:0,0:0:0:0:
484,298,23550,1,8,0:0:0:0:
484,298,23700,1,0,0:0:0:0:
352,320,23850,2,0,L|279:312,1,72.5,0|0,0:0|0:0,0:0:0:0:
128,352,24150,1,8,0:0:0:0:
208,312,24300,1,0,0:0:0:0:
149,252,24450,6,0,P|122:298|127:351,1,108.75,0|0,0:0|0:0,0:0:0:0:
192,384,24750,1,8,0:0:0:0:
216,216,24900,2,0,L|209:143,1,72.5,0|0,0:0|0:0,0:0:0:0:
304,232,25200,2,0,L|310:304,1,72.5,0|8,0:0|0:0,0:0:0:0:
310,304,25500,1,2,0:0:0:0:
408,64,25650,6,0,P|443:62|474:81,1,72.5,2|0,0:0|0:0,0:0:0:0:
448,208,25950,2,0,P|412:209|381:190,1,72.5,8|0,0:0|0:0,0:0:0:0:
312,88,26250,2,0,L|319:15,1,72.5,0|0,0:0|0:0,0:0:0:0:
304,208,26550,1,8,0:0:0:0:
208,64,26700,5,0,0:0:0:0:
208,64,26775,1,0,0:0:0:0:
207,64,26850,2,0,P|138:84|66:88,2,145,2|8|2,0:0|0:0|0:0,0:0:0:0:
0,56,27600,1,0,0:0:0:0:
66,88,27750,2,0,P|89:115|98:149,1,72.5,8|0,0:0|0:0,0:0:0:0:
192,312,28050,6,0,L|199:203,1,108.75,6|0,0:0|0:0,0:0:0:0:
199,203,28350,1,8,0:0:0:0:
199,203,28500,1,0,0:0:0:0:
312,360,28650,1,0,0:0:0:0:
336,272,28800,2,0,L|264:286,1,72.5,0|8,0:0|0:0,0:0:0:0:
432,312,29100,6,0,P|439:258|423:207,1,108.75,0|0,0:0|0:0,0:0:0:0:
368,160,29400,1,0,0:0:0:0:
479,151,29550,2,0,P|459:122|427:105,1,72.5,8|0,0:0|0:0,0:0:0:0:
216,16,29850,6,0,L|223:88,1,72.5,0|0,0:0|0:0,0:0:0:0:
336,160,30150,2,0,L|328:87,1,72.5,8|0,0:0|0:0,0:0:0:0:
320,0,30450,5,2,0:0:0:0:
320,8,30600,1,0,0:0:0:0:
223,88,30750,5,8,0:0:0:0:
223,96,30900,1,0,0:0:0:0:
103,15,31050,2,0,P|68:15|35:29,1,72.5,0|0,0:0|0:0,0:0:0:0:
48,160,31350,2,0,P|83:160|116:146,1,72.5,8|0,0:0|0:0,0:0:0:0:
176,112,31575,1,0,0:0:0:0:
176,112,31650,6,0,L|272:120,1,72.5,2|0,0:0|0:0,0:0:0:0:
200,232,31950,2,0,L|127:225,1,72.5,8|0,0:0|0:0,0:0:0:0:
280,216,32250,1,0,0:0:0:0:
288,208,32400,1,0,0:0:0:0:
376,320,32550,2,0,P|411:318|439:296,1,72.5,8|0,0:0|0:0,0:0:0:0:
456,144,32850,6,0,P|408:167|384:215,1,108.75,2|0,0:0|0:0,0:0:0:0:
376,224,33150,2,0,L|370:149,1,72.5,8|0,0:0|0:0,0:0:0:0:
359,0,33450,2,0,P|323:38|271:36,1,108.75,0|0,0:0|0:0,0:0:0:0:
271,36,33750,1,8,0:0:0:0:
271,36,33900,1,0,0:0:0:0:
127,0,34050,6,0,P|103:25|94:60,1,72.5,2|0,0:0|0:0,0:0:0:0:
208,120,34350,2,0,P|198:85|172:60,1,72.5,8|0,0:0|0:0,0:0:0:0:
64,128,34650,2,0,P|98:136|133:126,1,72.5,0|0,0:0|0:0,0:0:0:0:
133,126,34950,1,8,0:0:0:0:
16,56,35100,5,0,0:0:0:0:
16,56,35175,1,0,0:0:0:0:
16,56,35250,2,0,L|32:200,1,145,2|8,0:0|0:0,0:0:0:0:
32,200,35700,1,0,0:0:0:0:
176,352,35850,2,0,P|140:353|109:334,1,72.5,2|0,0:0|0:0,0:0:0:0:
136,224,36150,2,0,P|171:222|202:241,1,72.5,8|0,0:0|0:0,0:0:0:0:
336,352,36450,6,0,P|371:353|402:334,1,72.5,2|0,0:0|0:0,0:0:0:0:
376,224,36750,2,0,P|340:222|309:241,1,72.5,8|0,0:0|0:0,0:0:0:0:
256,384,37050,5,8,0:0:0:0:
176,128,37200,1,2,0:0:0:0:
432,272,37350,1,2,0:0:0:0:
160,336,37500,1,2,0:0:0:0:
328,112,37650,6,0,L|320:48,1,65.2499980087281,6|0,0:0|0:0,0:0:0:0:
416,128,37950,2,0,L|408:64,1,65.2499980087281,2|2,0:0|0:0,0:0:0:0:
464,256,38250,6,0,L|472:192,1,65.2499980087281,8|0,0:0|0:0,0:0:0:0:
376,272,38550,2,0,L|384:208,1,65.2499980087281,0|10,0:0|0:0,0:0:0:0:
328,336,38850,2,0,P|356:351|388:352,1,65.2499980087281,2|8,0:0|0:0,0:0:0:0:
288,264,39150,2,0,P|260:281|243:308,1,65.2499980087281,2|0,0:0|0:0,0:0:0:0:
176,368,39450,2,0,L|154:239,1,130.499996017456,8|0,0:0|0:0,0:0:0:0:
154,239,39900,1,0,0:0:0:0:
184,112,40050,6,0,L|192:48,1,65.2499980087281,2|0,0:0|0:0,0:0:0:0:
96,128,40350,2,0,L|104:64,1,65.2499980087281,2|2,0:0|0:0,0:0:0:0:
48,248,40650,6,0,L|40:184,1,65.2499980087281,8|0,0:0|0:0,0:0:0:0:
136,264,40950,2,0,L|128:200,1,65.2499980087281,0|10,0:0|0:0,0:0:0:0:
184,336,41250,2,0,P|155:351|123:352,1,65.2499980087281,2|8,0:0|0:0,0:0:0:0:
224,264,41550,2,0,P|251:281|268:308,1,65.2499980087281,2|0,0:0|0:0,0:0:0:0:
336,368,41850,2,0,L|341:302,1,65.2499980087281,8|0,0:0|0:0,0:0:0:0:
344,224,42150,1,2,0:0:0:0:
352,231,42450,6,0,P|293:258|229:250,1,130.499996017456,6|2,0:0|0:0,0:0:0:0:
229,250,42900,1,0,0:0:0:0:
128,168,43050,2,0,L|64:184,1,65.2499980087281,8|0,0:0|0:0,0:0:0:0:
40,288,43350,2,0,L|104:272,1,65.2499980087281,2|8,0:0|0:0,0:0:0:0:
200,152,43650,5,2,0:0:0:0:
64,88,43800,1,8,0:0:0:0:
176,16,43950,2,0,L|169:80,1,65.2499980087281,2|0,0:0|0:0,0:0:0:0:
264,192,44250,2,0,L|270:127,1,65.2499980087281,8|0,0:0|0:0,0:0:0:0:
270,127,44550,1,2,0:0:0:0:
384,16,44700,5,8,0:0:0:0:
384,16,44775,1,0,0:0:0:0:
383,15,44850,2,0,P|431:59|444:122,1,130.499996017456,2|2,0:0|0:0,0:0:0:0:
304,200,45300,2,0,P|317:137|365:94,1,130.499996017456,2|0,0:0|0:0,0:0:0:0:
504,176,45750,1,2,0:0:0:0:
504,176,45900,2,0,P|442:195|381:175,1,130.499996017456,8|0,0:0|0:0,0:0:0:0:
381,175,46350,6,0,L|393:238,1,65.2499980087281,2|0,0:0|0:0,0:0:0:0:
296,376,46650,2,0,L|283:312,1,65.2499980087281,8|0,0:0|0:0,0:0:0:0:
168,208,46950,5,8,0:0:0:0:
400,280,47100,1,2,0:0:0:0:
192,368,47250,6,0,L|127:360,1,65.2499980087281,4|0,0:0|0:0,0:0:0:0:
104,288,47550,2,0,L|39:280,1,65.2499980087281,2|0,0:0|0:0,0:0:0:0:
236,257,47850,1,8,0:0:0:0:
236,257,48000,2,0,L|300:264,1,65.2499980087281,0|0,0:0|0:0,0:0:0:0:
304,264,48300,1,2,0:0:0:0:
120,112,48450,6,0,L|112:48,1,65.2499980087281,2|0,0:0|0:0,0:0:0:0:
208,128,48750,2,0,L|200:64,1,65.2499980087281,2|0,0:0|0:0,0:0:0:0:
144,248,49050,6,0,L|152:184,1,65.2499980087281,8|0,0:0|0:0,0:0:0:0:
56,264,49350,2,0,L|64:200,1,65.2499980087281,10|0,0:0|0:0,0:0:0:0:
104,352,49650,6,0,P|159:319|223:319,1,130.499996017456,2|0,0:0|0:0,0:0:0:0:
223,319,50100,1,2,0:0:0:0:
328,240,50250,2,0,L|392:245,1,65.2499980087281,8|0,0:0|0:0,0:0:0:0:
424,344,50550,2,0,L|359:338,1,65.2499980087281,2|8,0:0|0:0,0:0:0:0:
480,192,50850,6,0,P|495:220|496:252,1,65.2499980087281,2|8,0:0|0:0,0:0:0:0:
424,344,51150,1,2,0:0:0:0:
432,352,51450,6,0,L|367:346,1,65.2499980087281,8|0,0:0|0:0,0:0:0:0:
232,368,51750,2,0,L|296:373,1,65.2499980087281,0|0,0:0|0:0,0:0:0:0:
192,215,52050,6,0,P|131:239|85:285,1,130.499996017456,6|2,0:0|0:0,0:0:0:0:
85,285,52500,1,0,0:0:0:0:
272,152,52650,6,0,P|225:107|164:85,1,130.499996017456,2|2,0:0|0:0,0:0:0:0:
164,85,53100,1,0,0:0:0:0:
384,151,53250,6,0,P|399:123|405:91,1,65.2499980087281,10|2,0:0|0:0,0:0:0:0:
376,248,53550,2,0,P|408:250|439:241,1,65.2499980087281,8|2,0:0|0:0,0:0:0:0:
304,312,53850,2,0,P|315:342|336:366,1,65.2499980087281,8|2,0:0|0:0,0:0:0:0:
208,296,54150,2,0,P|185:319|172:348,1,65.2499980087281,8|2,0:0|0:0,0:0:0:0:
48,144,54450,5,8,0:0:0:0:
96,144,54525,1,2,0:0:0:0:
134,175,54600,1,2,0:0:0:0:
143,223,54675,1,2,0:0:0:0:
119,266,54750,2,0,L|80:280,1,39.8750012168885,8|2,0:0|0:0,0:0:0:0:
0,304,54900,5,2,0:0:0:0:
21,358,54975,1,2,0:0:0:0:
71,389,55050,1,8,0:0:0:0:
129,383,55125,1,0,0:0:0:0:
172,343,55200,1,2,0:0:0:0:
211,313,55275,1,2,0:0:0:0:
260,309,55350,1,8,0:0:0:0:
303,333,55425,1,2,0:0:0:0:
326,377,55500,2,0,P|296:384|264:376,1,39.8750012168885,2|2,0:0|0:0,0:0:0:0:
96,304,55650,6,0,L|103:122,1,181.25,12|0,0:0|0:0,0:0:0:0:
88,312,56550,2,2,L|90:327,7,13.5937505185604,2|0|2|0|2|0|2|0,0:0|0:0|0:0|0:0|0:0|0:0|0:0|0:0,0:0:0:0:
24,88,56850,5,6,0:0:0:0:
192,312,57000,1,0,0:0:0:0:
176,24,57150,1,8,0:0:0:0:
16,248,57300,1,0,0:0:0:0:
272,144,57450,2,0,L|372:156,1,101.499996902466,2|0,0:0|0:0,0:0:0:0:
372,156,57750,1,8,0:0:0:0:
192,384,57900,6,0,P|160:345|155:295,1,101.499996902466,2|0,0:0|0:0,0:0:0:0:
96,112,58200,1,2,0:0:0:0:
296,384,58350,1,8,0:0:0:0:
304,48,58500,1,2,0:0:0:0:
69,332,58650,6,0,P|118:328|155:294,1,101.499996902466,2|0,0:0|0:0,0:0:0:0:
424,200,58950,2,0,P|374:203|337:237,1,101.499996902466,8|0,0:0|0:0,0:0:0:0:
88,256,59250,6,0,P|48:224|32:177,1,101.499996902466,2|0,0:0|0:0,0:0:0:0:
176,112,59550,2,0,P|187:63|223:28,1,101.499996902466,8|0,0:0|0:0,0:0:0:0:
352,128,59850,2,0,P|402:126|445:152,1,101.499996902466,2|0,0:0|0:0,0:0:0:0:
408,368,60150,2,0,P|357:369|314:343,1,101.499996902466,8|0,0:0|0:0,0:0:0:0:
240,208,60450,5,2,0:0:0:0:
504,280,60600,1,0,0:0:0:0:
216,360,60750,1,8,0:0:0:0:
264,72,60900,1,0,0:0:0:0:
424,312,61050,5,2,0:0:0:0:
160,224,61200,1,0,0:0:0:0:
384,144,61350,5,8,0:0:0:0:
248,320,61500,1,2,0:0:0:0:
127,10,61650,6,0,L|120:112,1,101.499996902466,6|0,0:0|0:0,0:0:0:0:
32,344,61950,1,8,0:0:0:0:
32,344,62025,1,0,0:0:0:0:
31,343,62100,2,0,P|80:342|119:310,1,101.499996902466,0|2,0:0|0:0,0:0:0:0:
88,176,62400,2,0,P|38:176|0:208,1,101.499996902466,0|8,0:0|0:0,0:0:0:0:
240,248,62700,6,0,L|341:255,1,101.499996902466,0|2,0:0|0:0,0:0:0:0:
216,376,63000,1,0,0:0:0:0:
224,96,63150,1,8,0:0:0:0:
352,344,63300,1,2,0:0:0:0:
384,72,63450,6,0,P|433:72|472:104,1,101.499996902466,2|0,0:0|0:0,0:0:0:0:
432,240,63750,2,0,P|382:239|343:207,1,101.499996902466,8|0,0:0|0:0,0:0:0:0:
288,0,64050,6,0,L|280:104,1,101.499996902466,6|0,0:0|0:0,0:0:0:0:
192,109,64350,2,0,L|200:8,1,101.499996902466,8|0,0:0|0:0,0:0:0:0:
15,175,64650,6,0,L|23:276,1,101.499996902466,2|0,0:0|0:0,0:0:0:0:
111,285,64950,2,0,L|103:183,1,101.499996902466,8|2,0:0|0:0,0:0:0:0:
151,15,65250,6,0,P|56:7|7:90,1,202.999993804932,6|8,0:0|0:0,0:0:0:0:
224,224,65700,1,2,0:0:0:0:
224,224,65775,1,0,0:0:0:0:
224,224,65850,2,0,L|352:208,1,101.499996902466,8|0,0:0|0:0,0:0:0:0:
472,352,66150,1,8,0:0:0:0:
272,128,66300,1,0,0:0:0:0:
488,56,66450,5,6,0:0:0:0:
320,336,66600,1,2,0:0:0:0:
312,16,66750,1,8,0:0:0:0:
480,272,66900,1,2,0:0:0:0:
192,160,67050,2,0,L|93:186,1,101.499996902466,2|0,0:0|0:0,0:0:0:0:
93,186,67350,1,8,0:0:0:0:
192,375,67500,6,0,P|223:337|223:287,1,101.499996902466,2|0,0:0|0:0,0:0:0:0:
0,56,67800,1,2,0:0:0:0:
160,312,67950,1,8,0:0:0:0:
176,8,68100,1,2,0:0:0:0:
88,343,68250,6,0,P|38:346|0:315,1,101.499996902466,2|0,0:0|0:0,0:0:0:0:
40,168,68550,2,0,P|89:165|128:196,1,101.499996902466,8|0,0:0|0:0,0:0:0:0:
256,368,68850,6,0,P|305:370|344:339,1,101.499996902466,2|0,0:0|0:0,0:0:0:0:
192,152,69150,2,0,P|210:197|255:219,1,101.499996902466,8|0,0:0|0:0,0:0:0:0:
400,56,69450,2,0,P|366:92|365:142,1,101.499996902466,2|2,0:0|0:0,0:0:0:0:
456,304,69750,2,0,P|489:267|490:217,1,101.499996902466,8|0,0:0|0:0,0:0:0:0:
120,176,70050,5,2,0:0:0:0:
424,240,70200,1,0,0:0:0:0:
112,296,70350,5,8,0:0:0:0:
352,184,70500,1,0,0:0:0:0:
32,296,70650,5,2,0:0:0:0:
248,304,70800,1,2,0:0:0:0:
24,184,70950,5,8,0:0:0:0:
104,368,71100,1,2,0:0:0:0:
120,112,71250,6,0,L|127:10,1,101.499996902466,6|0,0:0|0:0,0:0:0:0:
176,232,71550,1,8,0:0:0:0:
176,232,71625,1,0,0:0:0:0:
175,232,71700,2,0,P|210:195|214:146,1,101.499996902466,2|2,0:0|0:0,0:0:0:0:
0,24,72000,1,0,0:0:0:0:
144,168,72150,1,8,0:0:0:0:
288,0,72300,6,0,L|294:101,1,101.499996902466,0|6,0:0|0:0,0:0:0:0:
320,376,72600,1,0,0:0:0:0:
368,48,72750,1,8,0:0:0:0:
160,272,72900,1,2,0:0:0:0:
472,304,73050,5,2,0:0:0:0:
184,104,73200,1,0,0:0:0:0:
184,360,73350,2,0,P|239:312|235:238,1,152.249995353699,8|0,0:0|0:0,0:0:0:0:
208,176,73650,6,0,L|6:198,1,202.999993804932,6|8,0:0|0:0,0:0:0:0:
304,208,74100,2,0,P|306:157|291:109,1,101.499996902466,2|0,0:0|0:0,0:0:0:0:
144,280,74400,1,2,0:0:0:0:
400,152,74550,1,8,0:0:0:0:
112,8,74700,5,2,0:0:0:0:
112,8,74775,1,0,0:0:0:0:
112,8,74850,2,0,L|125:108,1,101.499996902466,6|2,0:0|0:0,0:0:0:0:
413,252,75150,2,0,L|399:151,1,101.499996902466,8|2,0:0|0:0,0:0:0:0:
336,320,75450,5,8,0:0:0:0:
390,350,75525,1,2,0:0:0:0:
452,342,75600,1,2,0:0:0:0:
497,299,75675,1,2,0:0:0:0:
509,238,75750,1,8,0:0:0:0:
441,204,75825,1,2,0:0:0:0:
366,203,75900,1,2,0:0:0:0:
298,236,75975,1,2,0:0:0:0:
252,296,76050,6,0,P|192:335|121:338,1,145,4|2,0:0|0:0,0:0:0:0:
0,80,76350,5,8,0:0:0:0:
112,344,76500,1,2,0:0:0:0:
112,56,76650,1,8,0:0:0:0:
104,352,76800,1,2,0:0:0:0:
208,88,76950,6,0,P|275:107|312:168,1,145,8|2,0:0|0:0,0:0:0:0:
16,328,77250,2,0,P|0:259|33:197,1,145,8|2,0:0|0:0,0:0:0:0:
368,288,77550,5,8,0:0:0:0:
88,264,77700,1,2,0:0:0:0:
352,168,77850,5,8,0:0:0:0:
80,272,78000,1,2,0:0:0:0:
312,384,78150,1,8,0:0:0:0:
128,160,78300,5,2,0:0:0:0:
128,160,78375,1,0,0:0:0:0:
128,160,78450,2,0,L|136:16,1,145,12|2,0:0|0:0,0:0:0:0:
0,264,78750,5,8,0:0:0:0:
272,192,78900,1,2,0:0:0:0:
64,384,79050,1,8,0:0:0:0:
280,184,79200,1,2,0:0:0:0:
304,384,79350,6,0,P|234:389|192:334,1,145,8|2,0:0|0:0,0:0:0:0:
472,160,79650,2,0,P|511:217|484:281,1,145,8|2,0:0|0:0,0:0:0:0:
176,136,79950,5,8,0:0:0:0:
368,352,80100,1,2,0:0:0:0:
296,64,80250,5,8,0:0:0:0:
376,360,80400,1,2,0:0:0:0:
128,264,80550,1,8,0:0:0:0:
504,184,80700,5,2,0:0:0:0:
504,184,80775,1,0,0:0:0:0:
504,184,80850,2,0,L|360:163,1,145,12|2,0:0|0:0,0:0:0:0:
16,360,81150,2,0,L|159:339,1,145,8|2,0:0|0:0,0:0:0:0:
48,88,81450,5,8,0:0:0:0:
240,360,81600,1,2,0:0:0:0:
208,24,81750,5,8,0:0:0:0:
248,376,81900,1,2,0:0:0:0:
400,8,82050,6,0,L|379:151,1,145,8|2,0:0|0:0,0:0:0:0:
96,384,82350,2,0,L|75:240,1,145,8|2,0:0|0:0,0:0:0:0:
408,224,82650,5,8,0:0:0:0:
64,160,82800,1,2,0:0:0:0:
320,384,82950,5,8,0:0:0:0:
56,152,83100,1,2,0:0:0:0:
440,304,83250,6,0,P|486:250|483:179,1,145,12|2,0:0|0:0,0:0:0:0:
128,264,83550,2,0,P|151:330|214:363,1,145,8|2,0:0|0:0,0:0:0:0:
328,24,83850,2,0,P|258:11|198:48,1,145,8|2,0:0|0:0,0:0:0:0:
16,240,84150,1,8,0:0:0:0:
264,144,84300,5,2,0:0:0:0:
264,144,84375,1,0,0:0:0:0:
264,144,84450,2,0,L|120:124,1,145,12|0,0:0|0:0,0:0:0:0:
352,248,84750,1,8,0:0:0:0:
40,352,84900,6,0,L|183:332,1,145,2|8,0:0|0:0,0:0:0:0:
88,120,85200,5,2,0:0:0:0:
36,147,85275,1,2,0:0:0:0:
18,204,85350,1,8,0:0:0:0:
46,256,85425,1,0,0:0:0:0:
102,273,85500,1,2,0:0:0:0:
154,246,85575,1,2,0:0:0:0:
172,190,85650,1,12,0:0:0:0:
256,192,85725,12,0,86700,0:0:0:0:
144,48,86850,6,0,L|138:19,1,29,2|0,1:0|0:0,0:0:0:0:
