osu file format v14

[General]
AudioFilename: audio.mp3
AudioLeadIn: 0
PreviewTime: 56783
Countdown: 0
SampleSet: Soft
StackLeniency: 0.2
Mode: 0
LetterboxInBreaks: 0
WidescreenStoryboard: 0

[Editor]
Bookmarks: 1508
DistanceSpacing: 1.1
BeatDivisor: 2
GridSize: 4
TimelineZoom: 1.2

[Metadata]
Title:Kimi no Bouken (TV Size)
TitleUnicode:キミの冒険 (TV Size)
Artist:Okazaki Taiiku
ArtistUnicode:岡崎体育
Creator:Kroytz
Version:Ralsei's Normal
Source:ポケットモンスター サン&ムーン
Tags:Alola Pokemon Sun & Moon Ultra Adventures Opening Theme Song Male Vocal Ralsei Renumi Shunao shogunmoon Realazy Nevo -Harpuia- A r M i N Mismagius Blue Dragon
BeatmapID:1828344
BeatmapSetID:874835

[Difficulty]
HPDrainRate:4
CircleSize:3.2
OverallDifficulty:4.5
ApproachRate:5
SliderMultiplier:1.15
SliderTickRate:1

[Events]
//Background and Video events
0,0,"BG.png",0,0
Video,-250,"video.avi"
//Break Periods
//Storyboard Layer 0 (Background)
//Storyboard Layer 1 (Fail)
//Storyboard Layer 2 (Pass)
//Storyboard Layer 3 (Foreground)
//Storyboard Sound Samples

[TimingPoints]
458,300,4,2,1,50,1,0
10358,-100,4,2,1,5,0,0
11258,-100,4,2,1,70,0,0
18458,-100,4,2,1,60,0,0
27158,-100,4,2,11,60,0,0
27458,-100,4,2,1,60,0,0
30758,-100,4,2,11,60,0,0
31058,-100,4,2,1,60,0,0
31958,-100,4,2,11,60,0,0
32258,-100,4,2,1,60,0,0
35558,-100,4,2,11,60,0,0
35708,-100,4,2,1,60,0,0
37658,-100,4,2,2,60,0,0
37958,-100,4,2,4,60,0,0
38108,-100,4,2,1,60,0,0
38258,-100,4,2,2,60,0,0
38558,-100,4,2,1,60,0,0
38858,-100,4,2,2,60,0,0
39458,-100,4,2,12,60,0,0
39758,-100,4,2,2,60,0,0
44858,-100,4,2,2,60,0,0
45308,-100,4,2,1,60,0,0
45458,-100,4,2,2,60,0,0
45908,-100,4,2,1,60,0,0
46058,-100,4,2,2,60,0,0
47558,-100,4,2,4,60,0,0
47708,-100,4,2,1,60,0,0
47858,-100,4,2,2,60,0,0
52058,-100,4,2,1,60,0,0
56858,-100,4,2,1,70,0,1
57158,-100,4,2,6,70,0,1
57458,-100,4,2,1,70,0,1
57758,-100,4,2,6,70,0,1
58058,-100,4,2,1,70,0,1
58358,-100,4,2,6,70,0,1
58658,-100,4,2,1,70,0,1
58958,-100,4,2,6,70,0,1
59258,-100,4,2,1,70,0,1
59558,-100,4,2,6,70,0,1
59858,-100,4,2,1,70,0,1
60158,-100,4,2,6,70,0,1
60458,-100,4,2,1,70,0,1
60758,-100,4,2,10,70,0,1
61058,-100,4,2,1,70,0,1
61358,-100,4,2,6,70,0,1
61658,-100,4,2,1,70,0,1
61958,-100,4,2,6,70,0,1
62108,-100,4,2,1,70,0,1
63158,-100,4,2,6,70,0,1
63458,-100,4,2,1,70,0,1
63758,-100,4,2,6,70,0,1
64058,-100,4,2,1,70,0,1
64358,-100,4,2,6,70,0,1
64658,-100,4,2,1,70,0,1
64958,-100,4,2,6,70,0,1
65258,-100,4,2,1,70,0,1
65558,-100,4,2,6,70,0,1
65858,-100,4,2,1,70,0,1
66158,-100,4,2,6,70,0,1
66458,-100,4,2,1,70,0,1
66758,-100,4,2,6,70,0,1
67058,-100,4,2,1,70,0,1
67358,-100,4,2,6,70,0,1
67658,-100,4,2,1,70,0,1
67958,-100,4,2,6,70,0,1
68258,-100,4,2,1,70,0,1
68558,-100,4,2,6,70,0,1
68858,-100,4,2,1,70,0,1
69158,-100,4,2,6,70,0,1
69458,-100,4,2,1,70,0,1
69758,-100,4,2,6,70,0,1
70058,-100,4,2,1,70,0,1
70358,-100,4,2,10,70,0,1
70658,-100,4,2,1,70,0,1
70958,-100,4,2,6,70,0,1
71258,-100,4,2,1,70,0,1
71558,-100,4,2,6,70,0,1
71858,-100,4,2,1,70,0,1
72158,-100,4,2,6,70,0,1
72458,-100,4,2,1,70,0,1
72758,-100,4,2,6,70,0,1
73058,-100,4,2,1,70,0,1
73358,-100,4,2,6,70,0,1
73658,-100,4,2,1,70,0,1
73958,-100,4,2,6,70,0,1
74858,-100,4,2,1,70,0,1
75158,-100,4,2,6,70,0,1
75458,-100,4,2,1,70,0,1
75983,-100,4,2,1,70,0,0
76058,-100,4,2,6,70,0,1
85658,-100,4,2,1,70,0,0

[Colours]
Combo1 : 182,38,31
Combo2 : 241,237,56
Combo3 : 232,176,49
Combo4 : 240,129,74

[HitObjects]
128,203,458,5,0,0:0:0:0:
34,118,758,2,0,P|20:42|8:-11,1,115,0|0,0:0|0:0,0:0:0:0:
234,71,1508,6,0,P|221:127|211:183,1,115,0|0,0:0|0:0,0:0:0:0:
251,233,1958,1,0,0:0:0:0:
240,359,2258,2,0,P|296:369|352:381,1,115,0|0,0:0|0:0,0:0:0:0:
448,298,2858,6,0,P|458:241|470:185,1,115,0|0,0:0|0:0,0:0:0:0:
352,138,3458,2,0,P|341:81|329:25,1,115,0|0,0:0|0:0,0:0:0:0:
453,0,4058,5,0,0:0:0:0:
203,43,4658,2,0,P|146:53|90:65,1,115,0|0,0:0|0:0,0:0:0:0:
21,171,5258,5,2,0:0:0:0:
92,275,5558,1,8,0:0:0:0:
83,337,5708,2,0,P|139:337|195:315,1,115,0|0,0:0|0:0,0:0:0:0:
269,214,6308,2,0,P|325:214|381:236,1,115,0|0,0:0|0:0,0:0:0:0:
436,264,6758,2,0,P|423:207|414:151,2,115,8|2|8,0:0|0:0|0:0,0:0:0:0:
512,362,7658,6,0,P|455:371|399:383,1,115,2|8,0:0|0:0,0:0:0:0:
301,302,8258,2,0,P|256:338|214:377,1,115,2|8,0:0|0:0,0:0:0:0:
106,315,8858,5,4,0:0:0:0:
256,192,9008,12,0,10358,0:0:0:0:
0,93,11258,6,0,P|63:99|130:109,1,115,6|0,0:0|0:0,0:0:0:0:
223,41,11858,1,8,0:0:0:0:
368,162,12308,6,0,P|360:218|354:276,1,115,8|8,0:0|0:0,0:0:0:0:
249,346,12908,2,0,P|242:277|232:208,1,115,2|2,0:0|0:0,0:0:0:0:
226,168,13358,1,0,0:0:0:0:
114,106,13658,6,0,P|45:113|-13:138,1,115,2|0,0:0|0:0,0:0:0:0:
2,255,14258,2,0,P|59:216|164:223,1,172.5,10|8,0:0|0:0,0:0:0:0:
242,315,15008,1,8,0:0:0:0:
362,277,15308,2,0,P|370:187|382:98,1,172.5,2|0,0:0|0:0,0:0:0:0:
467,12,16058,6,0,P|409:4|352:0,1,115,2|0,0:0|0:0,0:0:0:0:
272,98,16658,1,8,0:0:0:0:
154,254,17108,6,0,P|211:246|268:241,1,115,8|8,0:0|0:0,0:0:0:0:
327,264,17558,1,2,0:0:0:0:
375,146,17858,1,8,0:0:0:0:
501,153,18158,1,8,0:0:0:0:
432,259,18458,6,0,P|424:315|419:373,2,115,6|8|2,0:0|0:0|0:0,0:0:0:0:
375,146,19358,1,8,0:0:0:0:
320,114,19508,2,0,P|314:56|306:0,1,115,0|0,0:0|0:0,0:0:0:0:
243,10,19958,2,0,P|185:15|128:22,2,115,8|2|8,0:0|0:0|0:0,0:0:0:0:
320,114,20858,6,0,P|377:119|434:126,2,115,2|8|2,0:0|0:0|0:0,0:0:0:0:
257,121,21608,2,0,P|269:177|285:293,1,172.5,0|2,0:0|0:0,0:0:0:0:
376,378,22358,1,8,0:0:0:0:
499,351,22658,2,0,P|504:293|511:236,1,115,2|8,0:0|0:0,0:0:0:0:
503,110,23258,5,6,0:0:0:0:
415,19,23558,2,0,P|357:11|300:6,2,115,8|2|8,0:0|0:0|0:0,0:0:0:0:
503,110,24458,2,0,P|445:115|388:122,1,115,2|8,0:0|0:0,0:0:0:0:
326,133,24908,1,0,0:0:0:0:
209,84,25208,2,0,P|216:141|221:198,1,115,0|0,0:0|0:0,0:0:0:0:
231,260,25658,5,2,0:0:0:0:
105,243,25958,1,8,0:0:0:0:
35,348,26258,2,0,P|92:340|149:335,1,115,2|8,0:0|0:0,0:0:0:0:
242,248,26858,6,0,P|328:236|438:333,1,230,2|2,0:0|0:0,0:0:0:0:
480,203,27758,1,8,0:0:0:0:
390,117,28058,6,0,P|393:59|399:2,1,115,6|8,0:0|0:0,0:0:0:0:
257,0,28658,2,0,P|262:57|266:114,1,115,2|8,0:0|0:0,0:0:0:0:
311,157,29108,2,0,P|253:160|196:166,1,115,0|0,0:0|0:0,0:0:0:0:
133,172,29558,1,8,0:0:0:0:
77,285,29858,2,0,P|134:288|191:294,1,115,2|8,0:0|0:0,0:0:0:0:
285,380,30458,6,0,B|266:240|335:305|309:150,1,230,2|2,0:0|0:0,0:0:0:0:
512,1,31658,2,0,B|531:141|462:76|488:231,1,230,2|2,0:0|0:0,0:0:0:0:
508,348,32558,1,8,0:0:0:0:
392,296,32858,6,0,P|332:288|277:286,1,115,2|8,0:0|0:0,0:0:0:0:
216,176,33458,2,0,P|158:181|96:196,1,115,2|8,0:0|0:0,0:0:0:0:
4,272,34058,1,2,0:0:0:0:
84,368,34358,1,8,0:0:0:0:
208,356,34658,2,0,P|266:361|328:376,1,115,2|8,0:0|0:0,0:0:0:0:
380,264,35258,6,0,P|417:202|532:176,1,172.5,2|0,0:0|0:0,0:0:0:0:
484,116,35858,2,0,P|478:58|474:1,2,115,2|8|2,0:0|0:0|0:0,0:0:0:0:
506,248,36758,1,8,0:0:0:0:
380,264,37058,1,4,3:3:0:0:
251,60,37658,6,0,P|169:57|92:131,1,172.5,6|0,0:0|0:0,0:0:0:0:
41,89,38258,2,0,P|55:141|65:216,1,115,8|0,0:0|0:0,0:0:0:0:
15,318,38858,1,2,0:0:0:0:
137,286,39158,2,0,B|274:268|204:340|379:322,1,230,2|0,0:0|0:0,0:0:0:0:
471,295,40058,6,0,P|477:237|485:178,1,115,2|0,0:0|0:0,0:0:0:0:
376,116,40658,2,0,P|370:58|362:-1,1,115,8|0,0:0|0:0,0:0:0:0:
252,68,41258,1,2,0:0:0:0:
148,140,41558,2,0,P|142:82|134:23,2,115,2|8|2,0:0|0:0|0:0,0:0:0:0:
92,252,42458,6,0,P|130:301|167:352,1,115,6|0,0:0|0:0,0:0:0:0:
288,324,43058,1,8,0:0:0:0:
408,364,43358,1,0,0:0:0:0:
476,260,43658,2,0,P|489:210|513:142,1,115,2|2,0:0|0:0,0:0:0:0:
504,25,44258,2,0,P|451:31|405:78,1,115,8|0,0:0|0:0,0:0:0:0:
295,129,44858,6,0,P|240:101|186:82,1,115,2|0,0:0|0:0,0:0:0:0:
154,34,45308,1,0,0:0:0:0:
154,34,45458,2,0,P|92:46|45:81,1,115,8|2,0:0|0:0,0:0:0:0:
10,124,45908,1,8,0:0:0:0:
10,124,46058,6,0,P|26:200|34:256,2,115,2|0|8,0:0|0:0|0:0,0:0:0:0:
257,73,47258,6,0,P|279:156|294:241,1,172.5,6|0,0:0|0:0,0:0:0:0:
342,281,47858,2,0,P|352:223|372:156,1,115,8|0,0:0|0:0,0:0:0:0:
376,42,48458,1,2,0:0:0:0:
257,73,48758,1,2,0:0:0:0:
138,28,49058,2,0,P|82:12|26:3,1,115,8|0,0:0|0:0,0:0:0:0:
9,126,49658,6,0,P|65:135|120:151,1,115,2|0,0:0|0:0,0:0:0:0:
210,240,50258,2,0,P|194:295|184:351,1,115,8|0,0:0|0:0,0:0:0:0:
309,329,50858,1,2,0:0:0:0:
496,158,51458,1,8,0:0:0:0:
448,40,51758,1,2,0:0:0:0:
321,37,52058,6,0,P|264:46|209:62,1,115,14|10,0:0|0:0,0:0:0:0:
120,151,52658,2,0,P|135:206|145:262,1,115,10|10,0:0|0:0,0:0:0:0:
105,383,53258,1,10,0:0:0:0:
228,355,53558,1,10,0:0:0:0:
276,236,53858,1,10,0:0:0:0:
399,264,54158,1,10,0:0:0:0:
488,374,54458,6,0,P|436:354|376:348,1,115,8|8,3:2|3:2,0:0:0:0:
328,306,54908,2,0,P|280:316|228:354,1,115,8|8,0:2|0:2,0:0:0:0:
172,324,55358,1,8,3:2:0:0:
48,292,55658,5,12,0:0:0:0:
512,0,56858,6,0,P|500:48|488:120,1,115,6|10,0:0|0:0,0:0:0:0:
368,148,57458,2,0,P|320:136|248:124,1,115,2|10,0:0|0:0,0:0:0:0:
256,60,57908,6,0,P|208:73|140:99,1,115,0|0,0:0|0:0,0:0:0:0:
96,60,58358,1,10,0:0:0:0:
11,153,58658,2,0,P|31:206|46:262,1,115,2|10,0:0|0:0,0:0:0:0:
88,381,59258,5,2,0:0:0:0:
212,356,59558,1,10,0:0:0:0:
240,232,59858,2,0,P|296:241|352:255,1,115,2|10,0:0|0:0,0:0:0:0:
460,324,60458,6,0,P|496:268|448:116,1,230,2|2,0:0|0:0,0:0:0:0:
360,36,61358,1,10,0:0:0:0:
263,119,61658,6,0,P|248:176|239:231,1,115,6|10,0:0|0:0,0:0:0:0:
264,292,62108,1,0,0:0:0:0:
164,368,62408,1,0,0:0:0:0:
60,296,62708,6,0,P|51:239|36:183,1,115,2|0,0:0|0:0,0:0:0:0:
92,152,63158,2,0,P|56:106|15:66,2,115,10|2|10,0:0|0:0|0:0,0:0:0:0:
190,71,64058,5,6,0:0:0:0:
312,40,64358,1,10,0:0:0:0:
420,105,64658,2,0,P|412:145|400:221,1,115,2|10,0:0|0:0,0:0:0:0:
454,332,65258,6,0,P|418:312|330:308,1,115,2|10,0:0|0:0,0:0:0:0:
294,267,65708,1,0,0:0:0:0:
294,267,65858,2,0,P|258:287|170:291,1,115,2|10,0:0|0:0,0:0:0:0:
93,380,66458,6,0,P|74:325|53:272,1,115,6|10,0:0|0:0,0:0:0:0:
27,148,67058,2,0,P|83:156|140:167,1,115,2|10,0:0|0:0,0:0:0:0:
200,186,67508,6,0,P|218:131|239:78,1,115
280,30,67958,1,10,0:0:0:0:
343,139,68258,2,0,P|386:100|430:64,1,115,2|10,0:0|0:0,0:0:0:0:
506,165,68858,5,2,0:0:0:0:
501,291,69158,1,10,0:0:0:0:
398,365,69458,2,0,P|344:344|290:325,1,115,2|10,0:0|0:0,0:0:0:0:
177,383,70058,6,0,P|177:319|129:151,1,230,2|2,0:0|0:0,0:0:0:0:
92,44,70958,1,10,0:0:0:0:
216,32,71258,5,6,0:0:0:0:
300,128,71558,1,10,0:0:0:0:
344,84,71708,2,0,P|401:87|455:105,1,115,0|0,0:0|0:0,0:0:0:0:
512,80,72158,1,10,0:0:0:0:
512,80,72308,2,0,P|493:134|490:191,1,115,0|0,0:0|0:0,0:0:0:0:
490,254,72758,1,10,0:0:0:0:
409,351,73058,2,0,P|351:348|297:329,1,115,2|10,0:0|0:0,0:0:0:0:
216,231,73658,6,0,P|162:234|92:244,1,115,2|10,0:0|0:0,0:0:0:0:
42,265,74108,2,0,P|39:211|29:141,1,115,0|0,0:0|0:0,0:0:0:0:
15,88,74558,1,10,0:0:0:0:
113,8,74858,6,0,P|170:11|227:19,1,115,2|10,0:0|0:0,0:0:0:0:
300,128,75458,1,8,3:2:0:0:
412,70,75758,1,8,3:2:0:0:
480,176,76058,6,0,P|466:230|456:293,2,115,14|10|10,0:0|0:0|0:0,0:0:0:0:
412,70,76958,1,10,0:0:0:0:
300,128,77258,1,10,0:0:0:0:
175,106,77558,2,0,P|189:160|199:223,1,115,10|10,0:0|0:0,0:0:0:0:
177,343,78158,1,10,0:0:0:0:
296,302,78458,6,0,P|352:311|408:325,2,115,10|10|10,0:0|0:0|0:0,0:0:0:0:
198,218,79358,1,10,0:0:0:0:
73,242,79658,6,0,P|86:186|96:129,1,115,10|10,0:0|0:0,0:0:0:0:
113,3,80258,2,0,P|152:42|192:92,1,115,10|10,0:0|0:0,0:0:0:0:
198,218,80858,6,0,P|237:178|287:138,1,115,14|10,0:0|0:0,0:0:0:0:
336,28,81458,1,10,0:0:0:0:
504,216,82058,2,0,P|451:239|401:268,1,115,10|10,0:0|0:0,0:0:0:0:
344,380,82658,1,10,0:0:0:0:
92,384,83258,6,0,P|68:331|40:281,1,115,10|10,0:0|0:0,0:0:0:0:
40,156,83858,1,10,0:0:0:0:
136,72,84158,1,10,0:0:0:0:
256,116,84458,6,0,P|226:165|194:241,1,115,10|10,0:0|0:0,0:0:0:0:
240,340,85058,1,10,0:0:0:0:
364,372,85358,1,10,0:0:0:0:
448,276,85658,5,12,0:0:0:0:
