osu file format v14

[General]
AudioFilename: audio.mp3
AudioLeadIn: 0
PreviewTime: 56783
Countdown: 0
SampleSet: Soft
StackLeniency: 0.3
Mode: 0
LetterboxInBreaks: 0
WidescreenStoryboard: 0

[Editor]
Bookmarks: 11338,18538
DistanceSpacing: 0.7
BeatDivisor: 6
GridSize: 16
TimelineZoom: 2.5

[Metadata]
Title:Kimi no Bouken (TV Size)
TitleUnicode:キミの冒険 (TV Size)
Artist:Okazaki Taiiku
ArtistUnicode:岡崎体育
Creator:Kroytz
Version:A r M i N's Extra
Source:ポケットモンスター サン&ムーン
Tags:Alola Pokemon Sun & Moon Ultra Adventures Opening Theme Song Male Vocal Ralsei Renumi Shunao shogunmoon Realazy Nevo -Harpuia- A r M i N Mismagius Blue Dragon
BeatmapID:1828339
BeatmapSetID:874835

[Difficulty]
HPDrainRate:5
CircleSize:3.8
OverallDifficulty:9
ApproachRate:9.2
SliderMultiplier:1.8
SliderTickRate:1

[Events]
//Background and Video events
0,0,"BG.png",0,0
Video,-250,"video.avi"
//Break Periods
//Storyboard Layer 0 (Background)
//Storyboard Layer 1 (Fail)
//Storyboard Layer 2 (Pass)
//Storyboard Layer 3 (Foreground)
//Storyboard Sound Samples

[TimingPoints]
458,300,4,2,0,50,1,0
458,-125,4,2,0,50,0,0
5258,-100,4,2,1,60,0,0
10358,-100,4,2,1,60,0,0
11258,-100,4,2,1,70,0,0
11483,-100,4,2,1,5,0,0
11558,-100,4,2,1,70,0,0
13883,-100,4,2,1,5,0,0
13958,-100,4,2,1,70,0,0
16283,-100,4,2,1,5,0,0
16358,-100,4,2,1,70,0,0
18458,-111.111111111111,4,2,1,60,0,0
37658,-125,4,2,2,60,0,0
37808,-125,4,2,1,60,0,0
37958,-125,4,2,2,60,0,0
38108,-125,4,2,1,60,0,0
38258,-125,4,2,2,60,0,0
38408,-125,4,2,1,60,0,0
38558,-125,4,2,2,60,0,0
38708,-125,4,2,1,60,0,0
38858,-125,4,2,2,60,0,0
39008,-125,4,2,1,60,0,0
39158,-125,4,2,2,60,0,0
39308,-125,4,2,1,60,0,0
39458,-125,4,2,4,60,0,0
39908,-125,4,2,1,60,0,0
40058,-125,4,2,2,60,0,0
40208,-125,4,2,1,60,0,0
40358,-125,4,2,2,60,0,0
40508,-125,4,2,1,60,0,0
40658,-125,4,2,2,60,0,0
40808,-125,4,2,1,60,0,0
40958,-125,4,2,2,60,0,0
41108,-125,4,2,1,60,0,0
41258,-125,4,2,2,60,0,0
41408,-125,4,2,1,60,0,0
41558,-125,4,2,2,60,0,0
41708,-125,4,2,1,60,0,0
41858,-125,4,2,2,60,0,0
42908,-125,4,2,1,60,0,0
43058,-125,4,2,2,60,0,0
43208,-125,4,2,1,60,0,0
43358,-125,4,2,2,60,0,0
43508,-125,4,2,1,60,0,0
43658,-125,4,2,2,60,0,0
43808,-125,4,2,1,60,0,0
43958,-125,4,2,2,60,0,0
44108,-125,4,2,1,60,0,0
44258,-125,4,2,2,60,0,0
44408,-125,4,2,1,60,0,0
44558,-125,4,2,2,60,0,0
44708,-125,4,2,1,60,0,0
44858,-125,4,2,2,60,0,0
45308,-125,4,2,1,60,0,0
45458,-125,4,2,2,60,0,0
45608,-125,4,2,1,60,0,0
45758,-125,4,2,2,60,0,0
45908,-125,4,2,1,60,0,0
46058,-125,4,2,2,60,0,0
46208,-125,4,2,1,60,0,0
46358,-125,4,2,2,60,0,0
46508,-125,4,2,1,60,0,0
46658,-125,4,2,2,60,0,0
47108,-125,4,2,1,60,0,0
47258,-125,4,2,2,60,0,0
47408,-125,4,2,1,60,0,0
47558,-125,4,2,2,60,0,0
47708,-125,4,2,1,60,0,0
47858,-125,4,2,2,60,0,0
48308,-125,4,2,1,60,0,0
48458,-125,4,2,2,60,0,0
48608,-125,4,2,1,60,0,0
48758,-125,4,2,2,60,0,0
48908,-125,4,2,1,60,0,0
49058,-125,4,2,2,60,0,0
49208,-125,4,2,1,60,0,0
49358,-125,4,2,2,60,0,0
49508,-125,4,2,1,60,0,0
49658,-125,4,2,2,60,0,0
49808,-125,4,2,1,60,0,0
49958,-125,4,2,2,60,0,0
50108,-125,4,2,1,60,0,0
50258,-125,4,2,2,60,0,0
50408,-125,4,2,1,60,0,0
50558,-125,4,2,2,60,0,0
50708,-125,4,2,1,60,0,0
50858,-125,4,2,2,60,0,0
51008,-125,4,2,1,60,0,0
51158,-125,4,2,2,60,0,0
51308,-125,4,2,1,60,0,0
51458,-125,4,2,2,60,0,0
51608,-125,4,2,1,60,0,0
51758,-125,4,2,2,60,0,0
51908,-125,4,2,1,60,0,0
52058,-125,4,2,1,60,0,0
54458,-100,4,2,1,60,0,0
55658,-500,4,2,1,60,0,0
56258,-500,4,2,1,10,0,0
56558,-100,4,2,1,20,0,0
56608,-100,4,2,1,28,0,0
56658,-100,4,2,1,36,0,0
56708,-100,4,2,1,44,0,0
56758,-100,4,2,1,52,0,0
56808,-100,4,2,1,60,0,0
56858,-83.3333333333333,4,2,1,70,0,1
57158,-83.3333333333333,4,2,6,70,0,1
57458,-83.3333333333333,4,2,1,70,0,1
57758,-83.3333333333333,4,2,6,70,0,1
58058,-83.3333333333333,4,2,1,70,0,1
58358,-83.3333333333333,4,2,6,70,0,1
58658,-83.3333333333333,4,2,1,70,0,1
58883,-83.3333333333333,4,2,1,5,0,1
58958,-83.3333333333333,4,2,6,70,0,1
59258,-83.3333333333333,4,2,1,70,0,1
59483,-83.3333333333333,4,2,1,5,0,1
59558,-83.3333333333333,4,2,6,70,0,1
59858,-83.3333333333333,4,2,1,70,0,1
60083,-83.3333333333333,4,2,1,5,0,1
60158,-83.3333333333333,4,2,6,70,0,1
60458,-83.3333333333333,4,2,1,70,0,1
60758,-83.3333333333333,4,2,6,70,0,1
61058,-83.3333333333333,4,2,1,70,0,1
61283,-83.3333333333333,4,2,1,5,0,1
61358,-83.3333333333333,4,2,6,70,0,1
61658,-83.3333333333333,4,2,1,70,0,1
61958,-83.3333333333333,4,2,6,70,0,1
62258,-83.3333333333333,4,2,1,70,0,1
62558,-83.3333333333333,4,2,6,70,0,1
62858,-83.3333333333333,4,2,1,70,0,1
63158,-83.3333333333333,4,2,6,70,0,1
63458,-83.3333333333333,4,2,1,70,0,1
63683,-83.3333333333333,4,2,1,5,0,1
63758,-83.3333333333333,4,2,6,70,0,1
64058,-83.3333333333333,4,2,1,70,0,1
64358,-83.3333333333333,4,2,6,70,0,1
64658,-83.3333333333333,4,2,1,70,0,1
64958,-83.3333333333333,4,2,6,70,0,1
65258,-83.3333333333333,4,2,1,70,0,1
65558,-83.3333333333333,4,2,6,70,0,1
65858,-83.3333333333333,4,2,1,70,0,1
66158,-83.3333333333333,4,2,6,70,0,1
66458,-83.3333333333333,4,2,1,70,0,1
66758,-83.3333333333333,4,2,6,70,0,1
67058,-83.3333333333333,4,2,1,70,0,1
67358,-83.3333333333333,4,2,6,70,0,1
67658,-83.3333333333333,4,2,1,70,0,1
67958,-83.3333333333333,4,2,6,70,0,1
68258,-83.3333333333333,4,2,1,70,0,1
68483,-83.3333333333333,4,2,1,5,0,1
68558,-83.3333333333333,4,2,6,70,0,1
68858,-83.3333333333333,4,2,1,70,0,1
69158,-83.3333333333333,4,2,6,70,0,1
69458,-83.3333333333333,4,2,1,70,0,1
69758,-83.3333333333333,4,2,6,70,0,1
70058,-83.3333333333333,4,2,1,70,0,1
70358,-83.3333333333333,4,2,6,70,0,1
70658,-83.3333333333333,4,2,1,70,0,1
70883,-83.3333333333333,4,2,1,5,0,1
70958,-83.3333333333333,4,2,6,70,0,1
71258,-83.3333333333333,4,2,1,70,0,1
71558,-83.3333333333333,4,2,6,70,0,1
71858,-83.3333333333333,4,2,1,70,0,1
72158,-83.3333333333333,4,2,6,70,0,1
72458,-83.3333333333333,4,2,1,70,0,1
72758,-83.3333333333333,4,2,6,70,0,1
73058,-83.3333333333333,4,2,1,70,0,1
73283,-83.3333333333333,4,2,1,5,0,1
73358,-83.3333333333333,4,2,6,70,0,1
73658,-83.3333333333333,4,2,1,70,0,1
73958,-83.3333333333333,4,2,6,70,0,1
74258,-83.3333333333333,4,2,1,70,0,1
74558,-83.3333333333333,4,2,6,70,0,1
74858,-83.3333333333333,4,2,1,70,0,1
75158,-83.3333333333333,4,2,6,70,0,1
75458,-83.3333333333333,4,2,1,70,0,1
75983,-100,4,2,1,70,0,0
76058,-83.3333333333333,4,2,6,70,0,1
76208,-83.3333333333333,4,2,1,70,0,1
76358,-83.3333333333333,4,2,6,70,0,1
76508,-83.3333333333333,4,2,1,70,0,1
76658,-83.3333333333333,4,2,6,70,0,1
76808,-83.3333333333333,4,2,1,70,0,1
76958,-83.3333333333333,4,2,6,70,0,1
77108,-83.3333333333333,4,2,1,70,0,1
77258,-83.3333333333333,4,2,6,70,0,1
77408,-83.3333333333333,4,2,1,70,0,1
77558,-83.3333333333333,4,2,6,70,0,1
77708,-83.3333333333333,4,2,1,70,0,1
77858,-83.3333333333333,4,2,6,70,0,1
78008,-83.3333333333333,4,2,1,70,0,1
78158,-83.3333333333333,4,2,6,70,0,1
78308,-83.3333333333333,4,2,1,70,0,1
78458,-83.3333333333333,4,2,6,70,0,1
78608,-83.3333333333333,4,2,1,70,0,1
78758,-83.3333333333333,4,2,6,70,0,1
78908,-83.3333333333333,4,2,1,70,0,1
79058,-83.3333333333333,4,2,6,70,0,1
79208,-83.3333333333333,4,2,1,70,0,1
79358,-83.3333333333333,4,2,6,70,0,1
79508,-83.3333333333333,4,2,1,70,0,1
79658,-83.3333333333333,4,2,6,70,0,1
79808,-83.3333333333333,4,2,1,70,0,1
79958,-83.3333333333333,4,2,6,70,0,1
80108,-83.3333333333333,4,2,1,70,0,1
80258,-83.3333333333333,4,2,6,70,0,1
80408,-83.3333333333333,4,2,1,70,0,1
80558,-83.3333333333333,4,2,6,70,0,1
80708,-83.3333333333333,4,2,1,70,0,1
80858,-83.3333333333333,4,2,6,70,0,1
81008,-83.3333333333333,4,2,1,70,0,1
81158,-83.3333333333333,4,2,6,70,0,1
81308,-83.3333333333333,4,2,1,70,0,1
81458,-83.3333333333333,4,2,6,70,0,1
81608,-83.3333333333333,4,2,1,70,0,1
81758,-83.3333333333333,4,2,6,70,0,1
81908,-83.3333333333333,4,2,1,70,0,1
82058,-83.3333333333333,4,2,6,70,0,1
82208,-83.3333333333333,4,2,1,70,0,1
82358,-83.3333333333333,4,2,6,70,0,1
82508,-83.3333333333333,4,2,1,70,0,1
82658,-83.3333333333333,4,2,6,70,0,1
82808,-83.3333333333333,4,2,1,70,0,1
82958,-83.3333333333333,4,2,6,70,0,1
83108,-83.3333333333333,4,2,1,70,0,1
83258,-83.3333333333333,4,2,6,70,0,1
83408,-83.3333333333333,4,2,1,70,0,1
83558,-83.3333333333333,4,2,6,70,0,1
83708,-83.3333333333333,4,2,1,70,0,1
83858,-83.3333333333333,4,2,6,70,0,1
84008,-83.3333333333333,4,2,1,70,0,1
84158,-83.3333333333333,4,2,6,70,0,1
84308,-83.3333333333333,4,2,1,70,0,1
84458,-83.3333333333333,4,2,6,70,0,1
84608,-83.3333333333333,4,2,1,70,0,1
84758,-83.3333333333333,4,2,6,70,0,1
84908,-83.3333333333333,4,2,1,70,0,1
85058,-83.3333333333333,4,2,6,70,0,1
85208,-83.3333333333333,4,2,1,70,0,1
85358,-83.3333333333333,4,2,6,70,0,1
85433,-83.3333333333333,4,2,1,70,0,1
85658,-100,4,2,1,70,0,0

[Colours]
Combo1 : 182,38,31
Combo2 : 241,237,56
Combo3 : 232,176,49
Combo4 : 240,129,74

[HitObjects]
118,376,458,5,2,0:0:0:0:
30,255,608,1,2,0:0:0:0:
172,301,758,1,2,0:0:0:0:
30,347,908,1,2,0:0:0:0:
118,227,1058,1,2,0:0:0:0:
118,227,1508,6,0,P|181:209|245:247,1,144,2|2,0:0|0:0,0:0:0:0:
255,338,1958,1,2,0:0:0:0:
171,301,2108,1,2,0:0:0:0:
330,285,2258,2,0,P|345:320|345:353,1,72,2|0,0:0|0:0,0:0:0:0:
245,247,2558,2,0,P|245:211|259:178,1,72,2|0,0:0|0:0,0:0:0:0:
409,148,2858,6,0,L|338:131,1,72,2|0,0:0|0:0,0:0:0:0:
188,102,3158,2,0,L|258:85,1,72,2|0,0:0|0:0,0:0:0:0:
409,239,3458,2,0,L|339:223,1,72,2|0,0:0|0:0,0:0:0:0:
189,195,3758,2,0,L|259:178,1,72,2|0,0:0|0:0,0:0:0:0:
409,330,4058,6,0,B|320:308|320:308|273:330,1,144,2|0,0:0|0:0,0:0:0:0:
68,148,4658,2,0,P|138:145|188:194,1,144,2|0,0:0|0:0,0:0:0:0:
97,362,5258,6,0,L|111:274,1,90,2|0,0:0|0:0,0:0:0:0:
202,283,5558,1,8,0:0:0:0:
202,283,5708,2,0,L|188:194,1,90,0|0,0:0|0:0,0:0:0:0:
279,199,6008,2,0,L|292:110,1,90,0|8,0:0|0:0,0:0:0:0:
471,81,6308,6,0,L|383:95,1,90,0|0,0:0|0:0,0:0:0:0:
203,124,6608,1,0,0:0:0:0:
326,24,6758,1,8,0:0:0:0:
351,182,6908,1,0,0:0:0:0:
236,38,7058,2,0,P|187:33|151:48,1,90,2|0,0:0|0:0,0:0:0:0:
351,182,7358,2,0,P|400:187|436:172,1,90,8|0,0:0|0:0,0:0:0:0:
203,124,7658,6,0,L|184:212,1,90,2|0,0:0|0:0,0:0:0:0:
383,95,7958,2,0,L|364:7,1,90,8|0,0:0|0:0,0:0:0:0:
279,184,8258,1,2,0:0:0:0:
469,127,8408,1,0,0:0:0:0:
290,92,8558,1,8,0:0:0:0:
365,245,8708,1,0,0:0:0:0:
454,36,8858,5,4,0:0:0:0:
454,36,10358,5,0,3:2:0:0:
440,39,10433,1,0,3:2:0:0:
428,44,10508,1,0,3:2:0:0:
416,51,10583,1,0,3:2:0:0:
406,60,10658,1,0,3:2:0:0:
397,70,10733,1,0,3:2:0:0:
389,81,10808,1,0,3:2:0:0:
384,93,10883,1,0,3:2:0:0:
380,106,10958,1,0,3:2:0:0:
380,106,11258,6,0,P|333:64|265:66,1,135,6|0,0:0|0:0,0:0:0:0:
202,134,11558,2,0,L|221:222,1,90,0|2,0:0|0:0,0:0:0:0:
409,256,11858,1,8,0:0:0:0:
300,152,12008,2,0,L|319:240,1,90,2|0,0:0|0:0,0:0:0:0:
499,270,12308,6,0,P|495:223|471:188,1,90,8|2,0:0|0:0,0:0:0:0:
351,327,12608,2,0,P|393:347|435:344,1,90,8|2,0:0|0:0,0:0:0:0:
300,152,12908,2,0,P|255:149|215:168,1,90,2|8,0:0|0:0,0:0:0:0:
106,304,13208,1,2,0:0:0:0:
273,240,13358,1,0,0:0:0:0:
134,127,13508,1,8,0:0:0:0:
296,48,13658,6,0,B|358:32|356:89|424:72,1,135,2|0,0:0|0:0,0:0:0:0:
506,33,13958,2,0,P|514:84|501:121,1,90,0|2,0:0|0:0,0:0:0:0:
444,191,14183,1,2,0:0:0:0:
451,216,14258,1,10,0:0:0:0:
289,184,14408,2,0,P|322:154|366:144,1,90,2|0,0:0|0:0,0:0:0:0:
452,308,14708,6,0,P|408:297|375:267,1,90,8|2,0:0|0:0,0:0:0:0:
470,128,15008,2,0,L|451:216,1,90,8|2,0:0|0:0,0:0:0:0:
394,76,15308,2,0,P|427:46|470:35,1,90,2|8,0:0|0:0,0:0:0:0:
370,175,15608,1,2,0:0:0:0:
264,21,15758,1,0,0:0:0:0:
174,210,15908,1,8,0:0:0:0:
35,13,16058,6,0,P|66:71|70:138,1,135,2|0,0:0|0:0,0:0:0:0:
39,225,16358,2,0,L|58:313,1,90,0|2,0:0|0:0,0:0:0:0:
138,358,16583,1,2,0:0:0:0:
131,383,16658,1,8,0:0:0:0:
174,210,16808,2,0,P|207:180|250:169,1,90,2|0,0:0|0:0,0:0:0:0:
353,377,17108,6,0,P|309:366|276:336,1,90,8|2,0:0|0:0,0:0:0:0:
276,80,17408,1,8,0:0:0:0:
352,285,17558,1,2,0:0:0:0:
352,29,17708,1,2,0:0:0:0:
276,336,17858,1,8,0:0:0:0:
200,29,18008,1,2,0:0:0:0:
69,314,18158,1,8,0:0:0:0:
101,306,18233,1,8,0:0:0:0:
134,299,18308,1,8,0:0:0:0:
167,292,18383,1,8,0:0:0:0:
200,285,18458,6,0,L|219:197,1,80.9999975280763,6|0,0:0|0:0,0:0:0:0:
352,285,18758,1,8,0:0:0:0:
276,336,18908,1,0,0:0:0:0:
308,205,19058,2,0,L|290:125,1,80.9999975280763,2|0,0:0|0:0,0:0:0:0:
217,205,19358,1,8,0:0:0:0:
389,146,19508,2,0,L|406:66,1,80.9999975280763,0|2,0:0|0:0,0:0:0:0:
393,238,19808,5,0,0:0:0:0:
290,125,19958,1,8,0:0:0:0:
470,189,20108,1,0,0:0:0:0:
316,287,20258,1,2,0:0:0:0:
389,146,20408,1,0,0:0:0:0:
474,282,20558,1,8,0:0:0:0:
466,97,20708,1,0,0:0:0:0:
393,238,20858,5,2,0:0:0:0:
389,146,21008,1,0,0:0:0:0:
316,287,21158,1,8,0:0:0:0:
312,195,21308,1,0,0:0:0:0:
397,330,21458,1,2,0:0:0:0:
235,330,21608,2,0,L|155:347,2,80.9999975280763,0|8|0,0:0|0:0|0:0,0:0:0:0:
393,238,22058,5,2,0:0:0:0:
393,238,22208,1,0,0:0:0:0:
233,161,22358,1,8,0:0:0:0:
233,161,22508,1,0,0:0:0:0:
406,144,22658,5,2,0:0:0:0:
256,249,22808,1,0,0:0:0:0:
410,148,22958,1,8,0:0:0:0:
260,253,23108,1,0,0:0:0:0:
410,317,23258,6,0,L|392:237,1,80.9999975280763,6|0,0:0|0:0,0:0:0:0:
306,92,23558,1,8,0:0:0:0:
256,249,23708,1,0,0:0:0:0:
225,51,23858,1,2,0:0:0:0:
319,183,24008,1,0,0:0:0:0:
164,224,24158,1,8,0:0:0:0:
306,92,24308,1,0,0:0:0:0:
345,272,24458,6,0,L|362:351,1,80.9999975280763,2|0,0:0|0:0,0:0:0:0:
256,249,24758,1,8,0:0:0:0:
182,303,24908,2,0,L|164:382,1,80.9999975280763,0|2,0:0|0:0,0:0:0:0:
125,231,25208,2,0,L|107:151,1,80.9999975280763,0|8,0:0|0:0,0:0:0:0:
68,303,25508,1,0,0:0:0:0:
215,217,25658,6,0,P|254:215|292:231,1,80.9999975280763,2|0,0:0|0:0,0:0:0:0:
278,373,25958,2,0,P|267:334|240:305,1,80.9999975280763,8|0,0:0|0:0,0:0:0:0:
383,222,26258,2,0,P|377:261|355:295,1,80.9999975280763,2|0,0:0|0:0,0:0:0:0:
330,147,26558,2,0,P|369:142|403:120,1,80.9999975280763,8|0,0:0|0:0,0:0:0:0:
255,93,26858,6,0,P|241:170|292:231,1,161.999995056153,2|8,0:0|0:0,0:0:0:0:
383,222,27308,1,0,0:0:0:0:
406,132,27458,2,0,P|366:130|330:147,1,80.9999975280763,2|0,0:0|0:0,0:0:0:0:
360,311,27758,2,0,P|400:312|436:296,1,80.9999975280763,8|0,0:0|0:0,0:0:0:0:
292,231,28058,6,0,B|197:260|197:260|138:230,1,161.999995056153,6|8,0:0|0:0,0:0:0:0:
63,181,28508,1,0,0:0:0:0:
60,273,28658,1,2,0:0:0:0:
145,140,28808,2,0,L|127:60,1,80.9999975280763,0|8,0:0|0:0,0:0:0:0:
328,93,29108,6,0,P|342:170|292:231,1,161.999995056153,0|0,0:0|0:0,0:0:0:0:
254,41,29558,2,0,P|286:12|339:3,1,80.9999975280763,8|0,0:0|0:0,0:0:0:0:
254,147,29858,1,2,0:0:0:0:
180,94,30008,1,0,0:0:0:0:
329,93,30158,1,8,0:0:0:0:
254,41,30308,1,0,0:0:0:0:
171,186,30458,5,2,0:0:0:0:
254,147,30608,1,0,0:0:0:0:
97,132,30758,2,0,P|85:216|133:269,2,161.999995056153,8|2|8,0:0|0:0|0:0,0:0:0:0:
337,186,31658,5,2,0:0:0:0:
254,147,31808,1,0,0:0:0:0:
411,132,31958,2,0,P|423:216|374:269,2,161.999995056153,8|2|8,0:0|0:0|0:0,0:0:0:0:
328,91,32708,1,0,0:0:0:0:
254,147,32858,6,0,L|271:226,1,80.9999975280763,2|0,0:0|0:0,0:0:0:0:
167,174,33158,2,0,L|184:253,1,80.9999975280763,8|0,0:0|0:0,0:0:0:0:
136,331,33458,1,2,0:0:0:0:
91,251,33608,1,0,0:0:0:0:
45,331,33758,1,8,0:0:0:0:
0,251,33908,1,0,0:0:0:0:
136,331,34058,6,0,L|215:348,1,80.9999975280763,2|0,0:0|0:0,0:0:0:0:
201,173,34358,2,0,L|184:253,1,80.9999975280763,8|0,0:0|0:0,0:0:0:0:
272,277,34658,2,0,L|351:294,1,80.9999975280763,2|0,0:0|0:0,0:0:0:0:
337,119,34958,2,0,L|319:198,1,80.9999975280763,8|0,0:0|0:0,0:0:0:0:
420,81,35258,6,0,P|342:95|282:44,1,161.999995056153,2|8,0:0|0:0,0:0:0:0:
366,6,35708,1,0,0:0:0:0:
444,170,35858,2,0,B|472:225|472:225|443:320,1,161.999995056153,2|8,0:0|0:0,0:0:0:0:
361,280,36308,1,0,0:0:0:0:
279,320,36458,2,0,L|199:302,1,80.9999975280763,2|0,0:0|0:0,0:0:0:0:
206,210,36758,2,0,L|286:228,1,80.9999975280763,8|0,0:0|0:0,0:0:0:0:
125,250,37058,5,4,3:3:0:0:
180,91,37208,1,4,3:3:0:0:
89,165,37358,1,4,3:3:0:0:
53,80,37508,1,4,3:3:0:0:
206,210,37658,6,0,L|276:194,1,72,6|0,0:0|0:0,0:0:0:0:
282,286,37958,2,0,L|211:301,1,72,0|0,0:0|0:0,0:0:0:0:
358,235,38258,2,0,L|428:250,1,72,8|0,0:0|0:0,0:0:0:0:
423,158,38558,2,0,L|353:143,1,72,0|8,0:0|0:0,0:0:0:0:
276,194,38858,5,2,0:0:0:0:
271,102,39008,1,8,0:0:0:0:
358,235,39158,2,0,P|335:265|304:282,1,72,2|0,0:0|0:0,0:0:0:0:
135,225,39458,2,0,L|275:193,1,144,8|0,0:0|0:0,0:0:0:0:
425,159,39908,1,8,0:0:0:0:
286,31,40058,6,0,L|270:101,1,72,2|0,0:0|0:0,0:0:0:0:
189,45,40358,2,0,L|173:115,1,72,0|0,0:0|0:0,0:0:0:0:
83,98,40658,2,0,L|98:168,1,72,8|0,0:0|0:0,0:0:0:0:
0,154,40958,2,0,L|15:224,1,72,0|8,0:0|0:0,0:0:0:0:
44,312,41258,5,2,0:0:0:0:
105,244,41408,1,8,0:0:0:0:
181,374,41558,2,0,L|251:358,1,72,2|0,0:0|0:0,0:0:0:0:
393,227,41858,2,0,P|323:222|269:267,1,144,8|2,0:0|0:0,0:0:0:0:
435,309,42458,6,0,P|479:254|474:184,1,144,6|0,0:0|0:0,0:0:0:0:
317,84,43058,1,8,0:0:0:0:
269,267,43358,1,0,0:0:0:0:
323,193,43508,6,0,L|393:208,1,72,8|2,0:0|0:0,0:0:0:0:
248,142,43808,2,0,L|177:157,1,72,8|2,0:0|0:0,0:0:0:0:
70,27,44258,2,0,B|89:95|89:95|70:164,1,144,8|0,0:0|0:0,0:0:0:0:
42,254,44708,1,8,0:0:0:0:
121,300,44858,6,0,P|175:255|245:260,1,144,2|0,0:0|0:0,0:0:0:0:
284,343,45308,2,0,P|279:272|323:218,1,144,0|0,0:0|0:0,0:0:0:0:
413,202,45758,2,0,L|428:272,1,72,0|8,0:0|0:0,0:0:0:0:
353,132,46058,5,2,0:0:0:0:
443,115,46208,1,8,0:0:0:0:
324,219,46358,2,0,L|253:203,1,72,2|0,0:0|0:0,0:0:0:0:
139,71,46658,2,0,P|209:66|264:111,1,144,8|2,0:0|0:0,0:0:0:0:
253,203,47108,1,8,0:0:0:0:
192,271,47258,6,0,L|121:255,1,72,6|0,0:0|0:0,0:0:0:0:
85,340,47558,2,0,L|155:355,1,72,0|0,0:0|0:0,0:0:0:0:
31,266,47858,2,0,L|0:125,1,144,8|0,0:0|0:0,0:0:0:0:
48,47,48308,1,8,0:0:0:0:
128,92,48458,6,0,P|169:78|198:69,1,72,2|8,0:0|0:0,0:0:0:0:
341,135,48758,1,2,0:0:0:0:
257,170,48908,1,0,0:0:0:0:
326,37,49058,2,0,L|396:52,1,72,8|0,0:0|0:0,0:0:0:0:
411,150,49358,2,0,L|340:134,1,72,0|8,0:0|0:0,0:0:0:0:
480,89,49658,6,0,P|498:121|502:157,1,72,2|0,0:0|0:0,0:0:0:0:
405,285,49958,2,0,P|423:254|452:233,1,72,0|0,0:0|0:0,0:0:0:0:
423,376,50258,2,0,P|387:376|354:362,1,72,8|0,0:0|0:0,0:0:0:0:
292,212,50558,2,0,P|310:243|315:279,1,72,0|8,0:0|0:0,0:0:0:0:
264,356,50858,5,2,0:0:0:0:
224,273,51008,1,8,0:0:0:0:
173,350,51158,2,0,L|102:334,1,72,2|0,0:0|0:0,0:0:0:0:
120,178,51458,2,0,L|136:249,1,72,8|0,0:0|0:0,0:0:0:0:
46,262,51758,2,0,L|30:191,1,72,2|0,0:0|0:0,0:0:0:0:
224,273,52058,5,14,0:0:0:0:
120,178,52358,1,10,0:0:0:0:
72,372,52658,5,10,0:0:0:0:
212,182,52958,1,10,0:0:0:0:
365,347,53258,5,10,0:0:0:0:
224,273,53408,1,2,0:0:0:0:
446,237,53558,5,10,0:0:0:0:
274,351,53708,1,2,0:0:0:0:
485,357,53858,5,10,0:0:0:0:
224,273,54008,1,2,0:0:0:0:
510,172,54158,5,10,0:0:0:0:
274,351,54308,1,2,0:0:0:0:
297,137,54458,6,0,L|287:93,3,45,8|8|8|8,3:2|3:2|3:2|3:2,0:0:0:0:
196,95,54758,2,0,L|205:138,3,45,8|8|8|8,3:2|3:2|3:2|3:2,0:0:0:0:
114,140,55058,2,0,L|104:96,3,45,8|8|8|8,3:2|3:2|3:2|3:2,0:0:0:0:
13,98,55358,1,8,3:2:0:0:
20,130,55433,1,8,3:2:0:0:
27,163,55508,1,8,3:2:0:0:
35,196,55583,1,8,3:2:0:0:
41,228,55658,6,0,L|57:302,1,72,12|0,0:0|0:0,0:0:0:0:
275,139,56558,6,0,L|304:145,5,30
185,120,56858,5,6,0:0:0:0:
378,269,57008,1,0,0:0:0:0:
173,211,57158,1,10,0:0:0:0:
325,62,57308,1,0,0:0:0:0:
199,301,57458,2,0,P|147:300|100:266,1,107.999996704102,2|0,0:0|0:0,0:0:0:0:
275,139,57758,1,10,0:0:0:0:
353,358,57908,6,0,P|405:357|452:323,1,107.999996704102,0|2,0:0|0:0,0:0:0:0:
325,62,58208,1,0,0:0:0:0:
199,301,58358,1,10,0:0:0:0:
467,199,58508,1,0,0:0:0:0:
200,65,58658,2,0,L|175:170,1,107.999996704102,2|0,0:0|0:0,0:0:0:0:
353,358,58958,2,0,L|328:253,1,107.999996704102,10|0,0:0|0:0,0:0:0:0:
102,268,59258,6,0,P|145:298|198:300,1,107.999996704102,2|0,0:0|0:0,0:0:0:0:
316,104,59558,2,0,P|267:126|239:171,1,107.999996704102,10|0,0:0|0:0,0:0:0:0:
353,358,59858,2,0,L|379:254,1,107.999996704102,2|0,0:0|0:0,0:0:0:0:
448,38,60158,2,0,L|474:142,1,107.999996704102,10|0,0:0|0:0,0:0:0:0:
268,113,60458,6,0,L|164:87,1,107.999996704102,2|0,0:0|0:0,0:0:0:0:
256,310,60758,1,10,0:0:0:0:
358,95,60908,1,0,0:0:0:0:
445,317,61058,2,0,L|341:343,1,107.999996704102,2|0,0:0|0:0,0:0:0:0:
149,178,61358,2,0,L|253:204,1,107.999996704102,10|0,0:0|0:0,0:0:0:0:
89,306,61658,6,0,B|53:172|53:172|59:136|89:103,1,215.999993408203,6|10,0:0|0:0,0:0:0:0:
267,9,62108,2,0,B|251:61|251:61|267:112,1,107.999996704102,0|2,0:0|0:0,0:0:0:0:
483,187,62408,2,0,B|445:147|445:147|393:135,1,107.999996704102,0|10,0:0|0:0,0:0:0:0:
220,285,62708,6,0,B|273:272|273:272|309:233,1,107.999996704102,0|2,0:0|0:0,0:0:0:0:
184,75,63008,1,0,0:0:0:0:
138,326,63158,1,10,0:0:0:0:
267,112,63308,1,0,0:0:0:0:
319,350,63458,2,0,L|215:376,1,107.999996704102,2|0,0:0|0:0,0:0:0:0:
90,141,63758,2,0,L|194:167,1,107.999996704102,10|0,0:0|0:0,0:0:0:0:
426,12,64058,6,0,P|373:14|330:45,1,107.999996704102,6|0,0:0|0:0,0:0:0:0:
398,249,64358,2,0,P|423:202|418:149,1,107.999996704102,10|0,0:0|0:0,0:0:0:0:
215,16,64658,2,0,L|241:120,1,107.999996704102,2|0,0:0|0:0,0:0:0:0:
63,245,64958,2,0,L|89:141,1,107.999996704102,10|0,0:0|0:0,0:0:0:0:
230,295,65258,6,0,B|119:265|135:360|25:331,1,215.999993408203,2|10,0:0|0:0,0:0:0:0:
159,200,65708,1,0,0:0:0:0:
278,373,65858,2,0,L|382:347,1,107.999996704102,2|0,0:0|0:0,0:0:0:0:
159,200,66158,2,0,L|55:174,1,107.999996704102,10|0,0:0|0:0,0:0:0:0:
216,17,66458,5,6,0:0:0:0:
285,232,66608,1,0,0:0:0:0:
432,27,66758,1,10,0:0:0:0:
501,242,66908,1,0,0:0:0:0:
310,143,67058,2,0,P|258:144|211:178,1,107.999996704102,2|0,0:0|0:0,0:0:0:0:
96,329,67358,1,10,0:0:0:0:
317,328,67508,6,0,P|316:276|282:229,1,107.999996704102,0|2,0:0|0:0,0:0:0:0:
113,118,67808,1,0,0:0:0:0:
229,304,67958,1,10,0:0:0:0:
326,65,68108,1,0,0:0:0:0:
458,286,68258,2,0,L|484:182,1,107.999996704102,2|0,0:0|0:0,0:0:0:0:
258,126,68558,2,0,L|284:230,1,107.999996704102,10|0,0:0|0:0,0:0:0:0:
509,93,68858,6,0,P|455:94|412:125,1,107.999996704102,2|0,0:0|0:0,0:0:0:0:
352,350,69158,2,0,P|377:304|373:251,1,107.999996704102,10|0,0:0|0:0,0:0:0:0:
208,86,69458,2,0,P|235:131|284:153,1,107.999996704102,2|0,0:0|0:0,0:0:0:0:
400,36,69758,2,0,L|296:62,1,107.999996704102,10|0,0:0|0:0,0:0:0:0:
178,272,70058,6,0,L|282:246,1,107.999996704102,2|0,0:0|0:0,0:0:0:0:
86,90,70358,1,10,0:0:0:0:
45,318,70508,1,0,0:0:0:0:
167,142,70658,2,0,B|183:91|183:91|167:39,1,107.999996704102,2|0,0:0|0:0,0:0:0:0:
282,245,70958,2,0,B|266:297|266:297|282:348,1,107.999996704102,10|0,0:0|0:0,0:0:0:0:
509,163,71258,6,0,B|460:118|460:118|383:112|322:162,1,215.999993408203,6|10,0:0|0:0,0:0:0:0:
282,348,71708,2,0,L|386:322,1,107.999996704102,0|2,0:0|0:0,0:0:0:0:
230,160,72008,1,0,0:0:0:0:
194,374,72158,1,10,0:0:0:0:
71,175,72308,6,0,L|45:279,1,107.999996704102,0|2,0:0|0:0,0:0:0:0:
230,160,72608,1,0,0:0:0:0:
82,36,72758,1,10,0:0:0:0:
155,212,72908,1,0,0:0:0:0:
316,40,73058,2,0,P|369:41|412:72,1,107.999996704102,2|0,0:0|0:0,0:0:0:0:
333,285,73358,2,0,P|280:283|237:253,1,107.999996704102,10|0,0:0|0:0,0:0:0:0:
466,147,73658,6,0,B|509:212|509:212|465:342,1,215.999993408203,2|10,0:0|0:0,0:0:0:0:
237,253,74108,2,0,P|181:246|212:354,1,215.999993408203,0|0,0:0|0:0,0:0:0:0:
354,208,74558,2,0,L|328:104,1,107.999996704102,10|0,0:0|0:0,0:0:0:0:
92,36,74858,6,0,B|88:76|103:109|103:109|96:144|80:171|80:171|116:188|140:220,1,215.999993408203,2|10,0:0|0:0,0:0:0:0:
204,354,75308,1,0,0:0:0:0:
354,208,75458,1,8,3:2:0:0:
380,201,75533,1,8,3:2:0:0:
406,194,75608,6,0,L|458:207,1,53.9999983520508,8|8,3:2|3:2,0:0:0:0:
368,110,75758,2,0,L|316:123,1,53.9999983520508,8|8,3:2|3:2,0:0:0:0:
406,26,75908,2,0,L|458:39,1,53.9999983520508,8|8,3:2|3:2,0:0:0:0:
402,286,76058,5,14,0:0:0:0:
459,118,76208,1,2,0:0:0:0:
225,121,76358,5,10,0:0:0:0:
406,194,76508,1,2,0:0:0:0:
273,43,76658,5,10,0:0:0:0:
191,246,76808,1,2,0:0:0:0:
368,110,76958,5,10,0:0:0:0:
182,39,77108,1,2,0:0:0:0:
327,242,77258,5,10,0:0:0:0:
398,23,77408,1,2,0:0:0:0:
418,247,77558,5,10,0:0:0:0:
309,40,77708,1,2,0:0:0:0:
276,318,77858,5,10,0:0:0:0:
368,110,78008,1,2,0:0:0:0:
367,324,78158,5,10,0:0:0:0:
279,127,78308,1,2,0:0:0:0:
192,354,78458,6,0,L|88:328,1,107.999996704102,10|2,0:0|0:0,0:0:0:0:
189,109,78758,5,10,0:0:0:0:
276,318,78908,1,2,0:0:0:0:
249,40,79058,5,10,0:0:0:0:
141,253,79208,1,2,0:0:0:0:
160,22,79358,5,10,0:0:0:0:
231,237,79508,1,2,0:0:0:0:
25,118,79658,5,10,0:0:0:0:
249,40,79808,1,2,0:0:0:0:
91,181,79958,5,10,0:0:0:0:
315,259,80108,1,2,0:0:0:0:
112,92,80258,5,10,0:0:0:0:
336,14,80408,1,2,0:0:0:0:
178,155,80558,5,10,0:0:0:0:
402,233,80708,1,2,0:0:0:0:
249,40,80858,6,0,L|275:144,1,107.999996704102,14|2,0:0|0:0,0:0:0:0:
92,270,81158,5,10,0:0:0:0:
161,64,81308,1,2,0:0:0:0:
220,337,81458,5,10,0:0:0:0:
119,146,81608,1,2,0:0:0:0:
130,354,81758,5,10,0:0:0:0:
276,144,81908,1,2,0:0:0:0:
92,234,82058,5,10,0:0:0:0:
310,320,82208,1,2,0:0:0:0:
197,99,82358,5,10,0:0:0:0:
220,337,82508,1,2,0:0:0:0:
363,115,82658,5,10,0:0:0:0:
119,146,82808,1,2,0:0:0:0:
368,259,82958,5,10,0:0:0:0:
322,8,83108,1,2,0:0:0:0:
171,222,83258,5,10,0:0:0:0:
424,185,83408,1,2,0:0:0:0:
119,146,83558,5,10,0:0:0:0:
368,259,83708,1,2,0:0:0:0:
79,230,83858,5,10,0:0:0:0:
333,173,84008,1,2,0:0:0:0:
27,154,84158,5,10,0:0:0:0:
250,335,84308,1,2,0:0:0:0:
271,51,84458,6,0,B|140:18|140:18|64:52,1,215.999993408203,10|10,0:0|0:0,0:0:0:0:
237,248,84908,2,0,B|348:218|332:313|442:284,1,215.999993408203,2|10,0:0|3:2,0:0:0:0:
510,223,85283,1,8,3:2:0:0:
505,191,85358,1,10,3:2:0:0:
483,168,85433,1,8,3:2:0:0:
452,160,85508,1,10,3:2:0:0:
422,171,85583,1,8,3:2:0:0:
403,196,85658,5,12,3:2:0:0:
256,192,85733,12,2,86858,0:0:0:0:
