osu file format v14

[General]
AudioFilename: audio.mp3
AudioLeadIn: 0
PreviewTime: 56483
Countdown: 0
SampleSet: Soft
StackLeniency: 0.3
Mode: 0
LetterboxInBreaks: 0
WidescreenStoryboard: 1

[Editor]
Bookmarks: 76058,77858,80858
DistanceSpacing: 1
BeatDivisor: 4
GridSize: 16
TimelineZoom: 3.899998

[Metadata]
Title:Kimi no Bouken (TV Size)
TitleUnicode:キミの冒険 (TV Size)
Artist:Okazaki Taiiku
ArtistUnicode:岡崎体育
Creator:DarausFuigt
Version:Normal
Source:ポケットモンスター サン&ムーン
Tags:pokemon pocket monsters pokemon sun and moon opening op your adventure nintendo game freak alola ultra sun ultra moon DarausFuigt Nikakis
BeatmapID:1859070
BeatmapSetID:888543

[Difficulty]
HPDrainRate:3
CircleSize:3
OverallDifficulty:5
ApproachRate:5
SliderMultiplier:0.999999999999999
SliderTickRate:1

[Events]
//Background and Video events
0,0,"BG.png",0,0
//Break Periods
//Storyboard Layer 0 (Background)
//Storyboard Layer 1 (Fail)
//Storyboard Layer 2 (Pass)
//Storyboard Layer 3 (Foreground)
//Storyboard Sound Samples

[TimingPoints]
458,300,4,2,1,50,1,0
458,-100,4,2,1,50,0,0
5258,-100,4,2,1,40,0,0
11258,-100,4,2,1,50,0,0
18458,-100,4,2,1,60,0,0
27983,-100,4,2,1,5,0,0
28058,-100,4,2,1,60,0,0
37658,-100,4,2,1,50,0,0
43883,-100,4,2,1,5,0,0
43958,-100,4,2,1,50,0,0
56558,-100,4,2,1,50,0,0
56858,-100,4,2,1,70,0,1
63683,-100,4,2,1,70,0,1
63758,-100,4,2,1,70,0,1
66083,-100,4,2,1,70,0,1
66158,-100,4,2,1,70,0,1
70283,-100,4,2,1,70,0,1
70358,-100,4,2,1,70,0,1
73283,-100,4,2,1,70,0,1
73358,-100,4,2,1,70,0,1
85733,-100,4,2,1,50,0,0

[Colours]
Combo1 : 182,38,31
Combo2 : 241,237,56
Combo3 : 232,176,49
Combo4 : 240,129,74

[HitObjects]
138,87,458,6,0,L|132:151,1,50,2|2,0:0|0:0,0:0:0:0:
178,157,758,2,0,L|172:221,1,50,2|2,0:0|0:0,0:0:0:0:
192,253,1058,1,2,0:0:0:0:
326,318,1508,6,0,P|373:331|422:321,1,99.9999999999999,2|2,0:0|0:0,0:0:0:0:
450,279,1958,2,0,L|455:210,1,50,2|2,0:0|0:0,0:0:0:0:
439,180,2258,6,0,P|392:197|342:197,2,99.9999999999999,2|2|2,0:0|0:0|0:0,0:0:0:0:
456,81,3158,1,2,0:0:0:0:
364,41,3458,1,2,0:0:0:0:
295,114,3758,1,2,0:0:0:0:
210,60,4058,2,0,P|180:99|174:148,1,99.9999999999999,2|0,0:0|0:0,0:0:0:0:
132,239,4658,2,0,P|180:249|227:233,1,99.9999999999999,2|2,0:0|0:0,0:0:0:0:
306,172,5258,6,0,L|317:283,1,99.9999999999999,6|10,1:2|0:0,0:0:0:0:
331,319,5708,2,0,P|380:310|429:313,1,99.9999999999999,2|2,0:0|0:0,0:0:0:0:
484,228,6308,6,0,P|493:178|487:129,1,99.9999999999999,2|2,0:0|0:0,0:0:0:0:
441,109,6758,2,0,L|451:-13,2,99.9999999999999,10|2|10,0:0|0:0|0:0,0:0:0:0:
383,191,7658,6,0,P|337:205|285:204,1,99.9999999999999,2|10,0:0|0:0,0:0:0:0:
211,136,8258,2,0,L|105:146,1,99.9999999999999,2|10,0:0|0:0,0:0:0:0:
12,156,8858,5,6,1:2:0:0:
256,192,8933,12,0,10358,0:0:0:0:
330,322,11258,6,0,P|287:347|238:350,1,99.9999999999999,6|2,1:2|1:2,0:0:0:0:
153,290,11858,1,10,0:0:0:0:
153,290,12008,2,0,L|38:279,1,99.9999999999999,2|10,1:2|0:0,0:0:0:0:
0,196,12608,1,10,0:0:0:0:
72,126,12908,2,0,P|121:118|180:130,1,99.9999999999999,2|2,1:2|1:2,0:0:0:0:
213,152,13358,2,0,L|220:224,1,50,2|10,0:0|0:0,0:0:0:0:
231,250,13658,6,0,P|280:247|322:221,1,99.9999999999999,2|2,1:2|0:0,0:0:0:0:
375,136,14258,1,10,0:0:0:0:
375,136,14408,2,0,L|485:144,1,99.9999999999999,2|10,1:2|0:0,0:0:0:0:
473,243,15008,1,10,0:0:0:0:
469,342,15308,2,0,P|420:352|370:349,1,99.9999999999999,2|2,1:2|1:2,0:0:0:0:
321,337,15758,2,0,L|316:269,1,50,2|10,0:0|0:0,0:0:0:0:
272,263,16058,6,0,L|263:147,1,99.9999999999999,2|2,1:2|0:0,0:0:0:0:
256,63,16658,2,0,L|207:58,1,50,10|2,0:0|1:2,0:0:0:0:
150,142,17108,6,0,L|140:255,1,99.9999999999999,10|10,0:0|0:0,0:0:0:0:
136,285,17558,1,2,1:2:0:0:
215,345,17858,1,10,0:0:0:0:
295,286,18158,2,0,L|301:216,1,50,10|10,0:0|0:0,0:0:0:0:
348,228,18458,6,0,L|357:108,1,99.9999999999999,6|10,1:2|0:0,0:0:0:0:
311,38,19058,2,0,P|372:27|421:49,1,99.9999999999999,2|10,1:2|0:0,0:0:0:0:
444,72,19508,2,0,B|476:112|476:112|474:229,1,150,2|10,0:0|0:0,0:0:0:0:
473,310,20258,1,2,1:2:0:0:
388,256,20558,1,10,0:0:0:0:
308,313,20858,6,0,P|259:323|211:308,1,99.9999999999999,2|10,1:2|0:0,0:0:0:0:
263,226,21458,2,0,L|273:117,1,99.9999999999999,2|8,1:2|0:0,0:0:0:0:
281,26,22058,5,0,1:0:0:0:
190,67,22358,1,8,0:0:0:0:
106,121,22658,2,0,L|98:191,1,50,2|2,1:2|0:0,0:0:0:0:
96,220,22958,1,10,0:0:0:0:
41,304,23258,6,0,P|87:320|136:313,1,99.9999999999999,6|10,1:2|0:0,0:0:0:0:
197,232,23858,2,0,P|245:224|292:240,1,99.9999999999999,2|10,1:2|0:0,0:0:0:0:
378,291,24458,6,0,L|387:174,1,99.9999999999999,2|10,1:2|0:0,0:0:0:0:
427,163,24908,2,0,L|437:2,1,150,2|8,0:0|0:0,0:0:0:0:
347,55,25658,6,0,P|299:70|249:67,1,99.9999999999999,2|10,1:2|0:0,0:0:0:0:
157,28,26258,2,0,L|145:143,1,99.9999999999999,2|10,1:2|0:0,0:0:0:0:
184,218,26858,6,0,P|135:225|89:208,2,99.9999999999999,2|8|2,1:2|0:0|1:2,0:0:0:0:
248,141,27758,2,0,L|314:146,1,50,8|0,0:0|0:0,0:0:0:0:
347,151,28058,6,0,L|336:268,1,99.9999999999999,6|10,1:2|0:0,0:0:0:0:
287,337,28658,1,2,1:2:0:0:
228,256,28958,1,8,0:0:0:0:
228,256,29108,6,0,B|176:236|176:236|81:236,1,150,2|10,0:0|0:0,0:0:0:0:
25,318,29858,2,0,P|72:332|121:323,1,99.9999999999999,2|10,1:2|0:0,0:0:0:0:
215,290,30458,6,0,L|336:302,1,99.9999999999999,2|8,1:2|0:0,0:0:0:0:
414,307,31058,1,0,1:0:0:0:
414,207,31358,1,8,0:0:0:0:
314,202,31658,6,0,L|193:190,1,99.9999999999999,2|8,1:2|0:0,0:0:0:0:
115,185,32258,1,0,1:0:0:0:
169,101,32558,1,10,0:0:0:0:
235,26,32858,6,0,P|283:37|320:69,1,99.9999999999999,2|10,1:2|0:0,0:0:0:0:
333,169,33458,1,2,1:2:0:0:
414,111,33758,1,10,0:0:0:0:
431,209,34058,6,0,L|422:327,2,99.9999999999999,2|10|2,1:2|0:0|1:2,0:0:0:0:
414,111,34958,1,10,0:0:0:0:
333,169,35258,6,0,P|285:184|236:180,1,99.9999999999999,2|8,1:2|0:0,0:0:0:0:
151,128,35858,2,0,L|50:137,1,99.9999999999999,2|8,1:2|0:0,0:0:0:0:
6,227,36458,5,0,1:0:0:0:
88,283,36758,1,8,0:0:0:0:
170,225,37058,2,0,L|223:229,1,50,8|8,0:3|0:3,0:0:0:0:
251,268,37358,2,0,L|309:273,1,50,8|8,0:3|0:3,0:0:0:0:
350,272,37658,6,0,B|315:171|373:172|341:75,1,200,6|10,1:2|0:0,0:0:0:0:
247,34,38558,2,0,L|182:26,1,50,2|10,0:0|0:0,0:0:0:0:
148,36,38858,6,0,B|97:64|97:64|99:215,1,200,2|8,1:2|0:0,0:0:0:0:
244,343,40058,6,0,P|338:366|427:321,1,200,2|10,1:2|0:0,0:0:0:0:
366,241,40958,2,0,L|371:171,1,50,2|8,0:0|0:0,0:0:0:0:
370,141,41258,6,0,B|263:131|304:80|181:87,1,200,2|8,1:2|0:0,0:0:0:0:
109,156,42158,1,2,1:2:0:0:
127,254,42458,6,0,P|214:298|312:283,2,200,6|10|2,1:2|0:0|1:2,0:0:0:0:
99,157,43958,2,0,L|108:38,1,99.9999999999999,2|10,1:2|0:0,0:0:0:0:
199,19,44558,1,0,0:0:0:0:
199,119,44858,6,0,P|290:152|376:108,1,200,2|8,1:2|0:0,0:0:0:0:
488,8,45908,1,10,0:0:0:0:
488,8,46058,2,0,L|467:222,1,200,0|8,1:0|0:0,0:0:0:0:
373,236,46958,2,0,L|377:183,1,50,0|8,1:0|0:0,0:0:0:0:
387,137,47258,6,0,B|400:94|400:94|244:94,2,200,6|10|2,1:2|0:0|1:2,0:0:0:0:
295,177,48758,2,0,L|287:279,1,99.9999999999999,2|10,1:2|0:0,0:0:0:0:
285,376,49358,1,2,0:0:0:0:
375,333,49658,6,0,L|483:343,2,99.9999999999999,2|2|10,1:2|0:0|0:0,0:0:0:0:
287,276,50558,1,2,0:0:0:0:
348,197,50858,6,0,L|358:75,1,99.9999999999999,2|0,1:2|1:0,0:0:0:0:
358,3,51458,1,10,0:0:0:0:
266,30,51758,1,2,1:2:0:0:
176,74,52058,6,0,L|165:191,1,99.9999999999999,6|8,1:2|0:0,0:0:0:0:
156,273,52658,1,10,0:0:0:0:
250,240,52958,1,8,0:0:0:0:
344,207,53258,6,0,L|454:217,2,99.9999999999999,10|10|10,0:0|0:0|0:0,0:0:0:0:
269,140,54158,1,10,0:0:0:0:
256,192,54458,12,6,55658,1:2:0:0:
138,90,56858,6,0,P|145:139|130:186,1,99.9999999999999,6|10,1:2|0:0,0:0:0:0:
61,258,57458,2,0,P|102:285|151:285,1,99.9999999999999,2|8,1:2|0:0,0:0:0:0:
190,254,57908,2,0,L|296:264,1,99.9999999999999,2|2,0:0|0:0,0:0:0:0:
339,268,58358,1,10,0:2:0:0:
395,185,58658,1,2,1:2:0:0:
345,98,58958,1,10,0:0:0:0:
248,73,59258,6,0,L|141:82,2,99.9999999999999,2|10|2,1:2|0:0|1:2,0:0:0:0:
321,5,60158,1,10,0:2:0:0:
345,97,60458,6,0,P|322:142|280:169,1,99.9999999999999,2|8,1:2|0:0,0:0:0:0:
184,142,61058,1,2,1:2:0:0:
136,230,61358,1,10,0:0:0:0:
196,307,61658,6,0,P|245:299|286:271,1,99.9999999999999,6|10,1:2|0:0,0:0:0:0:
316,231,62108,1,2,0:0:0:0:
363,142,62408,2,0,L|359:73,1,50,2|8,0:0|0:0,0:0:0:0:
354,40,62708,6,0,P|305:32|254:44,1,99.9999999999999,2|2,0:0|0:0,0:0:0:0:
217,75,63158,1,10,0:0:0:0:
160,157,63458,1,2,1:2:0:0:
217,238,63758,1,10,0:0:0:0:
306,193,64058,6,0,L|427:202,1,99.9999999999999,6|10,1:2|0:0,0:0:0:0:
461,283,64658,2,0,L|339:292,1,99.9999999999999,2|10,1:2|0:0,0:0:0:0:
275,342,65258,6,0,P|226:351|176:344,1,99.9999999999999,2|8,1:2|0:0,0:0:0:0:
136,315,65708,1,2,0:0:0:0:
136,315,65858,2,0,L|146:197,1,99.9999999999999,2|8,1:2|0:0,0:0:0:0:
155,115,66458,6,0,L|162:48,2,50,6|2|10,1:2|0:0|0:0,0:0:0:0:
236,173,67058,2,0,L|353:182,1,99.9999999999999,2|8,1:2|0:0,0:0:0:0:
435,187,67658,5,0,1:0:0:0:
414,284,67958,1,10,0:0:0:0:
337,348,68258,1,2,1:2:0:0:
257,287,68558,1,10,0:0:0:0:
235,189,68858,6,0,P|191:210|163:251,1,99.9999999999999,2|10,1:2|0:0,0:0:0:0:
149,350,69458,2,0,P|104:328|76:287,1,99.9999999999999,2|10,1:2|0:0,0:0:0:0:
87,188,70058,6,0,L|98:68,1,99.9999999999999,2|8,1:2|0:0,0:0:0:0:
166,17,70658,1,2,1:2:0:0:
250,70,70958,1,8,0:0:0:0:
181,143,71258,6,0,L|191:259,1,99.9999999999999,6|10,1:2|0:0,0:0:0:0:
202,290,71708,2,0,P|251:296|300:287,1,99.9999999999999,2|2,0:0|0:0,0:0:0:0:
327,244,72158,1,10,0:0:0:0:
327,244,72308,6,0,L|338:121,1,99.9999999999999,2|2,0:0|0:0,0:0:0:0:
341,94,72758,1,10,0:0:0:0:
248,56,73058,2,0,L|144:65,1,99.9999999999999,2|10,1:2|0:0,0:0:0:0:
48,75,73658,6,0,P|61:125|99:158,1,99.9999999999999,2|8,1:2|0:0,0:0:0:0:
142,174,74108,2,0,L|131:296,1,99.9999999999999,2|0,0:0|0:0,0:0:0:0:
129,323,74558,1,10,0:0:0:0:
226,308,74858,6,0,L|234:208,1,99.9999999999999,2|8,1:2|0:0,0:0:0:0:
272,115,75458,2,0,L|339:120,1,50,8|10,0:0|0:0,0:0:0:0:
330,167,75758,2,0,L|397:172,1,50,10|10,0:0|0:0,0:0:0:0:
429,175,76058,6,0,P|432:229|420:284,2,99.9999999999999,6|8|8,1:2|0:0|0:0,0:0:0:0:
391,82,76958,1,10,0:0:0:0:
296,49,77258,6,0,L|239:53,1,50,10|2,0:0|0:0,0:0:0:0:
198,65,77558,2,0,P|190:115|197:164,1,99.9999999999999,10|8,0:0|0:0,0:0:0:0:
253,246,78158,2,0,L|318:251,1,50,10|2,0:0|1:2,0:0:0:0:
352,256,78458,6,0,P|360:306|353:355,1,99.9999999999999,10|8,0:0|0:0,0:0:0:0:
253,361,79058,1,8,0:0:0:0:
166,310,79358,1,10,0:0:0:0:
165,210,79658,6,0,L|64:219,1,99.9999999999999,10|8,0:0|0:0,0:0:0:0:
16,227,80108,1,2,0:0:0:0:
16,227,80258,1,8,0:0:0:0:
39,129,80558,1,10,0:0:0:0:
134,66,80858,6,0,L|252:74,1,99.9999999999999,14|8,0:0|0:0,0:0:0:0:
308,140,81458,2,0,L|317:260,1,99.9999999999999,8|8,0:0|0:0,0:0:0:0:
275,331,82058,2,0,P|324:340|371:321,1,99.9999999999999,8|8,0:0|0:0,0:0:0:0:
434,245,82658,2,0,L|426:145,1,99.9999999999999,8|8,0:0|0:0,0:0:0:0:
368,63,83258,5,8,0:0:0:0:
269,80,83558,1,8,0:0:0:0:
328,160,83858,1,8,0:0:0:0:
228,164,84158,1,10,0:0:0:0:
280,249,84458,6,0,L|272:358,1,99.9999999999999,10|8,0:0|0:0,0:0:0:0:
177,378,85058,2,0,L|109:372,1,50,8|8,0:0|0:0,0:0:0:0:
91,337,85358,2,0,L|23:331,1,50,10|8,0:0|0:0,0:0:0:0:
25,284,85658,6,0,B|253:203|215:342|414:254,1,400,6|0,1:2|0:0,0:0:0:0:
