osu file format v14

[General]
AudioFilename: audio.mp3
AudioLeadIn: 0
PreviewTime: -1
Countdown: 0
SampleSet: Soft
StackLeniency: 0.7
Mode: 0
LetterboxInBreaks: 0
WidescreenStoryboard: 0

[Editor]
DistanceSpacing: 0.5
BeatDivisor: 4
GridSize: 4
TimelineZoom: 2.6

[Metadata]
Title:Kimi no Bouken (TV Size)
TitleUnicode:Kimi no Bouken (TV Size)
Artist:Okazaki Taiiku
ArtistUnicode:Okazaki Taiiku
Creator:Arkisol
Version:anime.jpg
Source:
Tags:
BeatmapID:1841755
BeatmapSetID:880754

[Difficulty]
HPDrainRate:3
CircleSize:3.7
OverallDifficulty:9.8
ApproachRate:9.6
SliderMultiplier:2
SliderTickRate:1

[Events]
//Background and Video events
0,0,"weebshit.jpg",0,0
//Break Periods
//Storyboard Layer 0 (Background)
//Storyboard Layer 1 (Fail)
//Storyboard Layer 2 (Pass)
//Storyboard Layer 3 (Foreground)
//Storyboard Sound Samples

[TimingPoints]
450,300,4,2,0,100,1,0
450,-133.333333333333,4,2,0,100,0,0
5250,-100,4,2,0,100,0,0
8550,-142.857142857143,4,2,0,100,0,0
10950,-200,4,2,0,100,0,0
11250,-100,4,2,0,100,0,0
18450,-133.333333333333,4,2,0,100,0,0
56850,-80,4,2,0,100,0,0

[HitObjects]
211,270,450,6,0,P|259:283|312:261,1,75.0000028610231,0|0,0:0|0:0,0:0:0:0:
373,215,750,1,0,0:0:0:0:
149,353,900,1,0,0:0:0:0:
259,202,1050,2,0,P|181:193|132:247,1,150.000005722046,0|0,0:0|0:0,0:0:0:0:
330,114,1500,6,0,L|403:68,1,75.0000028610231,0|0,0:0|0:0,0:0:0:0:
418,194,1800,1,0,0:0:0:0:
194,87,1950,1,0,0:0:0:0:
506,78,2100,1,0,0:0:0:0:
256,205,2250,2,0,P|230:244|258:319,1,112.500004291535,0|0,0:0|0:0,0:0:0:0:
390,327,2550,2,0,P|369:284|290:271,1,112.500004291535
155,357,2850,5,0,0:0:0:0:
242,166,3000,1,0,0:0:0:0:
243,305,3150,1,0,0:0:0:0:
348,182,3300,1,0,0:0:0:0:
111,184,3450,2,0,P|170:206|220:177,1,112.500004291535,0|0,0:0|0:0,0:0:0:0:
239,171,3750,2,0,P|285:147|335:160,1,75.0000028610231,0|0,0:0|0:0,0:0:0:0:
165,123,4050,1,0,0:0:0:0:
24,234,4650,2,0,B|52:209|94:216|85:224|132:234|164:202,1,150.000005722046,0|0,0:0|0:0,0:0:0:0:
284,109,5100,1,0,0:0:0:0:
411,344,5250,6,0,B|381:290|381:290|322:246,1,100,0|0,0:0|0:0,0:0:0:0:
212,295,5550,1,0,0:0:0:0:
448,173,5700,1,0,0:0:0:0:
313,356,5850,1,0,0:0:0:0:
222,147,6000,1,0,0:0:0:0:
441,262,6150,1,0,0:0:0:0:
140,212,6300,1,0,0:0:0:0:
432,80,6450,6,0,P|375:109|351:160,1,100,0|0,0:0|0:0,0:0:0:0:
299,347,6750,1,0,0:0:0:0:
183,106,6900,1,0,0:0:0:0:
201,352,7050,1,0,0:0:0:0:
292,72,7200,1,0,0:0:0:0:
94,277,7350,2,0,B|127:266|146:249|146:249|245:239,1,150,0|0,0:0|0:0,0:0:0:0:
76,196,7650,6,0,P|28:225|16:275,1,100,0|0,0:0|0:0,0:0:0:0:
387,371,7950,2,0,P|385:314|348:279,1,100,0|0,0:0|0:0,0:0:0:0:
122,104,8250,2,0,P|171:131|220:116,1,100,0|0,0:0|0:0,0:0:0:0:
341,37,8550,2,0,L|317:192,1,139.999995727539,0|0,0:0|0:0,0:0:0:0:
256,192,8925,12,0,10275,0:0:0:0:
253,195,10350,5,0,0:0:0:0:
284,179,10425,1,0,0:0:0:0:
286,140,10500,1,0,0:0:0:0:
243,128,10575,1,0,0:0:0:0:
217,168,10650,1,0,0:0:0:0:
253,195,10725,1,0,0:0:0:0:
288,220,10800,1,0,0:0:0:0:
314,237,10875,1,0,0:0:0:0:
351,262,10950,2,0,L|426:312,1,75,0|0,0:0|0:0,0:0:0:0:
495,347,11250,6,0,B|497:296|497:296|476:213,1,100,6|0,0:0|0:0,0:0:0:0:
428,138,11550,1,2,0:0:0:0:
343,343,11700,1,0,0:0:0:0:
208,166,11850,2,0,B|244:193|244:193|323:211,1,100,10|0,0:0|0:0,0:0:0:0:
506,173,12150,1,2,0:0:0:0:
211,263,12300,6,0,L|75:317,1,100,12|0,0:0|0:0,0:0:0:0:
293,118,12600,2,0,L|429:64,1,100,12|0,0:0|0:0,0:0:0:0:
115,117,12900,2,0,B|109:161|109:161|133:239,1,100,12|0,0:0|0:0,0:0:0:0:
206,356,13200,1,2,0:0:0:0:
335,209,13350,1,10,0:0:0:0:
405,339,13500,1,2,0:0:0:0:
200,93,13650,6,0,B|248:92|248:92|319:57,1,100,6|0,0:0|0:0,0:0:0:0:
431,196,13950,2,0,L|485:309,1,100,10|0,0:0|0:0,0:0:0:0:
474,286,14175,1,0,0:0:0:0:
474,286,14250,1,8,0:0:0:0:
210,313,14400,1,2,0:0:0:0:
375,277,14550,1,10,0:0:0:0:
152,160,14700,6,0,B|170:188|170:188|260:230,1,100,12|0,0:0|0:0,0:0:0:0:
51,217,15000,2,0,L|4:108,1,100,12|0,0:0|0:0,0:0:0:0:
287,282,15300,2,0,L|326:373,1,100,12|0,0:0|0:0,0:0:0:0:
230,127,15600,1,2,0:0:0:0:
165,276,15750,1,8,0:0:0:0:
351,83,15900,1,2,0:0:0:0:
386,305,16050,6,0,B|413:260|413:260|395:188,1,100,6|0,0:0|0:0,0:0:0:0:
505,75,16350,2,0,B|499:111|499:111|426:179,1,100,10|0,0:0|0:0,0:0:0:0:
453,155,16575,1,0,0:0:0:0:
453,155,16650,1,8,0:0:0:0:
259,26,16800,1,2,0:0:0:0:
230,213,16950,1,8,0:0:0:0:
94,113,17100,2,2,B|136:102|136:102|94:227,1,150,6|0,0:0|0:0,0:0:0:0:
87,252,17400,5,0,1:0:0:0:
346,101,17550,1,8,1:0:0:0:
223,304,17700,1,0,1:0:0:0:
150,29,17850,1,8,1:0:0:0:
230,213,18000,1,0,1:0:0:0:
280,22,18150,1,8,1:0:0:0:
280,22,18225,1,0,1:0:0:0:
280,22,18300,1,0,1:0:0:0:
280,22,18375,1,0,1:0:0:0:
280,22,18450,6,0,P|333:47|377:39,1,75.0000028610231,8|0,0:0|0:0,0:0:0:0:
461,28,18750,1,0,2:0:0:0:
322,134,18900,1,0,0:0:0:0:
453,145,19050,2,0,P|434:201|401:232,1,75.0000028610231,8|0,0:0|0:0,0:0:0:0:
230,213,19350,2,8,P|287:201|331:214,1,75.0000028610231,0|0,0:0|0:0,0:0:0:0:
388,322,19650,5,8,0:0:0:0:
271,302,19800,1,0,0:0:0:0:
424,212,19950,1,0,0:0:0:0:
230,213,20100,1,0,0:0:0:0:
452,283,20250,2,0,P|421:305|363:329,1,75.0000028610231,8|0,0:0|0:0,0:0:0:0:
111,241,20550,2,0,P|142:263|200:287,1,75.0000028610231,0|0,0:0|0:0,0:0:0:0:
98,112,20850,5,8,0:0:0:0:
10,191,21000,1,0,0:0:0:0:
176,164,21150,1,0,0:0:0:0:
41,289,21300,1,0,0:0:0:0:
188,81,21450,2,0,P|238:105|254:137,1,75.0000028610231,8|0,0:0|0:0,0:0:0:0:
262,298,21750,2,0,L|254:194,1,75.0000028610231
254,42,22050,5,8,0:0:0:0:
362,150,22200,1,0,0:0:0:0:
232,14,22350,1,0,0:0:0:0:
174,197,22500,1,0,0:0:0:0:
276,8,22650,5,8,0:0:0:0:
321,229,22800,1,0,0:0:0:0:
490,80,22950,1,0,0:0:0:0:
414,320,23100,1,0,0:0:0:0:
302,151,23250,6,0,P|262:175|248:234,1,75.0000028610231,8|0,0:0|0:0,0:0:0:0:
269,337,23550,2,0,L|191:280,1,75.0000028610231,0|0,0:0|0:0,0:0:0:0:
86,216,23850,1,8,0:0:0:0:
321,229,24000,1,0,0:0:0:0:
61,303,24150,1,0,0:0:0:0:
379,167,24300,1,0,0:0:0:0:
125,124,24450,6,0,L|199:187,1,75.0000028610231,8|0,0:0|0:0,0:0:0:0:
179,60,24750,2,0,P|128:38|83:53,1,75.0000028610231,0|0,0:0|0:0,0:0:0:0:
7,164,25050,2,0,L|52:83,1,75.0000028610231,8|0,0:0|0:0,0:0:0:0:
97,208,25350,1,0,0:0:0:0:
265,105,25500,1,0,0:0:0:0:
374,166,25650,6,0,P|350:220|351:266,1,75.0000028610231,8|0,0:0|0:0,0:0:0:0:
272,314,25950,2,0,P|248:260|249:214,1,75.0000028610231,0|0,0:0|0:0,0:0:0:0:
147,289,26250,2,0,P|123:343|124:389,1,75.0000028610231,8|0,0:0|0:0,0:0:0:0:
162,190,26550,2,0,P|186:136|185:90,1,75.0000028610231,0|0,0:0|0:0,0:0:0:0:
142,1,26850,6,0,L|227:25,1,75.0000028610231,8|0,0:0|0:0,0:0:0:0:
359,71,27150,2,0,L|274:95,1,75.0000028610231,0|0,0:0|0:0,0:0:0:0:
399,211,27450,2,0,L|335:138,1,75.0000028610231,8|0,0:0|0:0,0:0:0:0:
291,300,27750,1,0,0:0:0:0:
441,119,27900,1,0,0:0:0:0:
436,354,28050,6,0,P|383:301|359:300,1,75.0000028610231,8|0,0:0|0:0,0:0:0:0:
200,324,28350,1,0,0:0:0:0:
489,256,28500,1,0,0:0:0:0:
363,373,28650,1,8,0:0:0:0:
349,154,28800,1,0,0:0:0:0:
200,324,28950,2,0,B|173:336|173:336|106:331,1,75.0000028610231
34,326,29250,5,8,0:0:0:0:
229,212,29400,1,0,0:0:0:0:
63,176,29550,2,0,P|101:211|147:235,1,75.0000028610231
367,269,29850,2,0,P|329:234|283:210,1,75.0000028610231,8|0,0:0|0:0,0:0:0:0:
63,175,30150,1,0,0:0:0:0:
274,98,30300,1,0,0:0:0:0:
163,349,30450,6,0,L|198:271,1,75.0000028610231,8|0,3:0|0:0,0:0:0:0:
248,167,30750,1,0,0:0:0:0:
89,311,30900,1,0,0:0:0:0:
377,193,31050,1,8,3:0:0:0:
141,145,31200,1,0,0:0:0:0:
420,322,31350,1,0,0:0:0:0:
248,167,31500,1,0,0:0:0:0:
246,354,31650,6,0,P|276:323|340:323,1,75.0000028610231,8|0,3:0|0:0,0:0:0:0:
420,322,31950,1,0,2:0:0:0:
194,281,32100,1,0,2:0:0:0:
475,200,32250,1,8,3:0:0:0:
248,167,32400,1,0,2:0:0:0:
504,87,32550,1,0,2:0:0:0:
379,152,32700,1,0,2:0:0:0:
315,47,32850,6,0,P|259:21|196:48,1,112.500004291535,8|0,0:0|0:0,0:0:0:0:
181,59,33150,2,0,B|166:105|166:105|128:147,1,75.0000028610231,0|0,0:0|0:0,0:0:0:0:
102,289,33450,2,0,L|180:215,1,75.0000028610231,8|0,0:0|0:0,0:0:0:0:
268,142,33750,1,0,0:0:0:0:
241,333,33900,1,0,0:0:0:0:
80,220,34050,6,0,P|86:268|114:299,1,75.0000028610231,8|0,0:0|0:0,0:0:0:0:
79,99,34350,2,0,P|40:128|27:167,1,75.0000028610231,0|0,0:0|0:0,0:0:0:0:
183,37,34650,2,0,P|138:18|97:26,1,75.0000028610231,8|0,0:0|0:0,0:0:0:0:
288,132,34950,1,0,0:0:0:0:
79,99,35100,1,0,0:0:0:0:
287,46,35250,6,0,P|333:54|368:97,1,75.0000028610231,8|0,0:0|0:0,0:0:0:0:
396,234,35550,1,0,0:0:0:0:
260,214,35700,1,0,0:0:0:0:
498,100,35850,1,8,0:0:0:0:
340,153,36000,1,0,0:0:0:0:
501,319,36150,1,0,0:0:0:0:
317,301,36300,1,0,0:0:0:0:
490,176,36450,6,0,P|472:219|476:264,1,75.0000028610231,8|0,0:0|0:0,0:0:0:0:
410,353,36750,2,0,L|384:248,1,75.0000028610231,0|0,0:0|0:0,0:0:0:0:
339,56,37050,1,8,3:0:0:0:
245,328,37200,1,8,3:0:0:0:
218,145,37350,1,8,3:0:0:0:
136,283,37500,1,8,3:0:0:0:
73,216,37650,6,0,P|47:261|82:359,1,150.000005722046,0|0,3:0|3:0,3:0:0:0:
70,215,38250,2,0,B|123:196|152:208|142:213|182:224|237:200,1,150.000005722046,0|0,3:0|3:0,3:0:0:0:
299,182,38700,1,0,3:0:0:0:
234,115,38850,1,0,3:0:0:0:
374,277,39000,1,0,3:0:0:0:
276,278,39150,2,0,P|299:340|393:370,1,150.000005722046,0|0,3:0|3:0,3:0:0:0:
372,373,39750,1,0,3:0:0:0:
456,331,39900,1,0,3:0:0:0:
467,243,40050,6,0,B|438:195|438:195|466:98,1,150.000005722046,0|0,3:0|3:0,3:0:0:0:
323,133,40650,2,0,L|267:285,1,150.000005722046,0|0,3:0|3:0,3:0:0:0:
246,354,41100,1,0,3:0:0:0:
175,234,41250,1,0,3:0:0:0:
141,331,41400,1,0,3:0:0:0:
201,145,41550,2,0,P|129:153|81:232,1,150.000005722046,0|0,3:0|3:0,3:0:0:0:
272,274,42150,2,0,B|231:247|227:205|236:208|233:168|187:129,1,150.000005722046,0|0,3:0|3:0,3:0:0:0:
162,72,43050,6,0,P|206:62|287:147,1,150.000005722046,0|0,3:0|3:0,3:0:0:0:
281,209,43500,1,0,3:0:0:0:
396,46,43650,1,0,3:0:0:0:
381,150,43800,1,0,3:0:0:0:
479,217,43950,2,0,P|436:234|406:339,1,150.000005722046,0|0,3:0|3:0,3:0:0:0:
490,303,44700,1,0,3:0:0:0:
273,298,44850,6,0,B|250:284|229:280|229:280|240:216|201:179|172:165,1,150.000005722046,0|0,3:0|3:0,3:0:0:0:
131,259,45450,2,0,P|133:319|201:389,1,150.000005722046,0|0,3:0|3:0,3:0:0:0:
298,373,45900,1,0,3:0:0:0:
372,276,46050,1,0,3:0:0:0:
246,292,46200,1,0,3:0:0:0:
406,358,46350,2,0,P|451:318|441:227,1,150.000005722046,0|0,3:0|3:0,3:0:0:0:
376,163,46950,1,0,3:0:0:0:
297,98,47100,1,0,3:0:0:0:
215,28,47250,6,0,B|217:94|217:94|215:102|215:102|220:196,1,150.000005722046,0|0,3:0|3:0,3:0:0:0:
100,180,47850,2,0,P|119:252|196:300,1,150.000005722046,0|0,3:0|3:0,3:0:0:0:
273,261,48300,1,0,3:0:0:0:
32,293,48450,1,0,3:0:0:0:
220,178,48600,1,0,3:0:0:0:
252,359,48750,2,0,B|297:345|338:349|330:358|361:370|406:350,1,150.000005722046,0|0,3:0|3:0,3:0:0:0:
466,306,49350,1,0,3:0:0:0:
398,351,49500,1,0,3:0:0:0:
438,229,49650,6,0,P|395:261|411:365,1,150.000005722046,0|0,3:0|3:0,3:0:0:0:
283,246,50250,2,0,B|251:217|251:217|202:194|202:194|159:156,1,150.000005722046,0|0,3:0|3:0,3:0:0:0:
75,79,50700,1,0,3:0:0:0:
101,212,50850,1,0,3:0:0:0:
240,129,51000,1,0,3:0:0:0:
184,282,51150,2,0,P|243:279|292:225,1,112.500004291535,0|0,3:0|2:0,3:0:0:0:
282,245,51450,1,0,3:0:0:0:
363,282,51750,1,0,3:0:0:0:
441,192,52050,5,2,3:0:0:0:
441,192,52350,1,0,3:0:0:0:
441,192,52650,1,2,3:0:0:0:
441,192,52950,1,0,3:0:0:0:
404,197,53250,5,10,0:0:0:0:
345,154,53400,1,2,0:0:0:0:
334,229,53550,1,10,0:0:0:0:
397,92,53700,1,2,0:0:0:0:
200,167,53850,1,10,0:0:0:0:
406,278,54000,1,2,0:0:0:0:
302,80,54150,1,10,0:0:0:0:
240,298,54300,1,2,0:0:0:0:
157,103,54450,6,0,P|174:95|192:91,3,37.5000014305115,8|0|0|0,0:0|0:0|0:0|0:0,0:0:0:0:
227,192,54750,2,0,P|198:165|168:156,3,37.5000014305115,8|0|0|0,0:0|0:0|0:0|0:0,0:0:0:0:
155,240,55050,1,8,0:0:0:0:
142,256,55125,1,0,0:0:0:0:
144,279,55200,1,0,0:0:0:0:
154,296,55275,1,0,0:0:0:0:
166,305,55350,1,8,0:0:0:0:
201,300,55425,1,0,0:0:0:0:
242,288,55500,1,0,0:0:0:0:
286,296,55575,1,0,0:0:0:0:
321,319,55650,5,10,0:0:0:0:
263,186,56850,5,6,3:0:0:0:
140,293,57000,1,0,3:0:0:0:
407,209,57150,1,0,3:0:0:0:
105,150,57300,1,0,3:0:0:0:
411,319,57450,2,0,P|333:291|308:229,1,125,8|0,0:0|0:0,0:0:0:0:
394,84,57750,2,0,L|408:219,1,125,8|0,0:0|0:0,0:0:0:0:
315,363,58050,5,6,3:0:0:0:
263,143,58200,1,0,3:0:0:0:
493,209,58350,1,0,3:0:0:0:
213,273,58500,1,0,3:0:0:0:
298,21,58650,2,0,P|234:59|130:37,1,125,0|0,3:0|3:0,3:0:0:0:
80,207,58950,2,0,B|138:169|138:169|194:39,1,187.5,0|0,3:0|0:0,0:0:0:0:
38,133,59250,6,2,P|-1:189|16:259,1,125,0|2,1:0|0:0,0:0:0:0:
300,276,59550,2,2,P|271:214|201:193,1,125,0|2,1:0|0:0,0:0:0:0:
137,383,59850,2,2,L|214:280,1,125,0|2,1:0|0:0,0:0:0:0:
440,118,60150,2,2,L|365:218,1,125,0|2,1:0|0:0,0:0:0:0:
76,155,60450,6,0,B|118:167|134:203|134:203|126:153|166:107|221:103|254:121,1,250,10|8,1:0|0:0,3:0:0:0:
329,318,60900,1,2,0:0:0:0:
326,52,61050,1,8,0:0:0:0:
446,320,61200,1,2,0:0:0:0:
443,36,61350,2,10,L|444:194,1,125
144,221,61650,6,0,B|204:242|204:242|281:220,1,125,10|0,3:0|3:0,3:0:0:0:
443,160,61950,1,2,3:0:0:0:
47,57,62100,2,0,B|88:105|88:105|166:124,1,125,10|0,3:0|3:0,3:0:0:0:
336,153,62400,1,2,3:0:0:0:
61,203,62550,2,0,P|76:278|146:303,1,125,0|0,3:0|3:0,3:0:0:0:
373,293,62850,5,6,3:0:0:0:
144,382,63000,1,0,3:0:0:0:
399,373,63150,1,2,3:0:0:0:
176,250,63300,1,2,3:0:0:0:
460,297,63450,2,0,P|444:240|365:207,1,125,8|0,3:0|3:0,3:0:0:0:
156,142,63750,2,0,L|305:183,1,125,8|0,3:0|3:0,3:0:0:0:
195,60,64050,5,10,0:0:0:0:
325,289,64200,1,2,0:0:0:0:
288,32,64350,1,10,0:0:0:0:
127,319,64500,1,2,0:0:0:0:
91,47,64650,1,10,0:0:0:0:
236,339,64800,1,2,0:0:0:0:
372,54,64950,2,10,P|330:108|260:111,1,125,10|2,0:0|0:0,0:0:0:0:
134,149,65250,6,0,B|188:186|188:186|285:203,1,125,6|0,0:0|0:0,0:0:0:0:
414,219,65550,1,8,0:0:0:0:
70,258,65700,1,2,0:0:0:0:
414,316,65850,1,8,0:0:0:0:
134,149,66000,1,2,0:0:0:0:
257,354,66150,6,0,P|320:284|307:226,1,125,0|0,0:0|0:0,0:0:0:0:
186,51,66450,1,10,0:0:0:0:
233,269,66600,1,2,0:0:0:0:
333,39,66750,1,10,0:0:0:0:
403,313,66900,1,0,0:0:0:0:
255,2,67050,2,0,B|260:80|260:80|222:163,1,125,10|0,0:0|0:0,0:0:0:0:
62,258,67350,2,0,L|168:182,1,125,10|0,0:0|0:0,0:0:0:0:
343,136,67650,5,10,3:0:0:0:
176,341,67800,1,0,3:0:0:0:
383,106,67950,1,0,3:0:0:0:
62,152,68100,1,0,3:0:0:0:
421,78,68250,2,0,B|394:133|411:182|423:174|435:217|415:285,1,187.5,8|0,3:0|0:0,0:0:0:0:
411,296,68550,2,0,P|355:236|329:322,1,187.5,8|0,3:0|0:0,0:0:0:0:
320,343,68850,6,0,B|237:316|237:316|169:262,1,125,0|0,1:0|3:0,1:0:0:0:
252,53,69150,2,0,B|270:138|270:138|257:224,1,125,0|0,1:0|3:0,1:0:0:0:
34,256,69450,2,0,B|98:197|98:197|179:165,1,125,0|0,1:0|3:0,1:0:0:0:
387,150,69750,2,0,L|240:180,1,125,0|0,1:0|3:0,1:0:0:0:
394,69,70050,6,0,P|459:106|420:226,1,187.5,8|0,3:0|0:0,0:0:0:0:
430,236,70350,1,8,0:0:0:0:
503,26,70500,1,2,0:0:0:0:
332,286,70650,1,8,0:0:0:0:
250,78,70800,1,2,0:0:0:0:
162,326,70950,2,0,P|219:267|281:234,1,125,8|0,0:0|0:0,0:0:0:0:
391,157,71250,6,0,L|221:162,1,125,6|0,3:0|3:0,3:0:0:0:
112,191,71550,1,2,3:0:0:0:
436,19,71700,2,0,L|291:108,1,125,6|0,3:0|3:0,3:0:0:0:
182,199,72000,1,2,3:0:0:0:
210,12,72150,2,0,P|164:81|169:144,1,125,6|0,3:0|3:0,3:0:0:0:
194,373,72450,6,0,P|240:304|235:241,1,125,10|0,0:0|0:0,0:0:0:0:
162,120,72750,2,0,B|239:117|259:180|259:180|281:198|319:200,1,187.5,12|0,0:0|0:0,0:0:0:0:
413,193,73050,2,0,P|388:266|336:293,1,125,2|0,0:0|0:0,0:0:0:0:
512,151,73350,2,0,P|461:92|463:34,1,125,2|0,0:0|0:0,0:0:0:0:
468,293,73650,5,10,0:0:0:0:
322,74,73800,1,2,0:0:0:0:
285,315,73950,1,10,0:0:0:0:
396,110,74100,1,2,0:0:0:0:
356,366,74250,1,10,0:0:0:0:
194,97,74400,1,2,0:0:0:0:
143,344,74550,1,10,0:0:0:0:
258,144,74700,1,2,0:0:0:0:
221,369,74850,6,0,B|215:283|215:283|173:226,1,125,10|0,0:0|0:0,0:0:0:0:
65,158,75150,1,10,0:0:0:0:
334,276,75300,1,0,0:0:0:0:
0,309,75450,1,8,3:0:0:0:
40,278,75525,1,0,3:0:0:0:
81,276,75600,1,0,3:0:0:0:
122,290,75675,1,0,3:0:0:0:
160,318,75750,1,8,3:0:0:0:
203,328,75825,1,0,3:0:0:0:
249,307,75900,1,0,3:0:0:0:
171,115,76050,5,10,0:0:0:0:
249,307,76200,1,2,0:0:0:0:
293,91,76350,1,10,0:0:0:0:
122,290,76500,1,2,0:0:0:0:
219,22,76650,1,10,0:0:0:0:
353,263,76800,1,2,0:0:0:0:
77,178,76950,1,10,0:0:0:0:
388,68,77100,1,2,0:0:0:0:
202,304,77250,5,10,0:0:0:0:
325,16,77400,1,2,0:0:0:0:
99,93,77550,1,10,0:0:0:0:
417,212,77700,1,2,0:0:0:0:
128,239,77850,1,10,0:0:0:0:
459,126,78000,1,2,0:0:0:0:
54,170,78150,1,10,0:0:0:0:
360,138,78300,1,2,0:0:0:0:
122,321,78450,6,0,P|185:299|212:229,1,125,10|2,0:0|0:0,0:0:0:0:
216,116,78750,1,10,0:0:0:0:
358,313,78900,1,2,0:0:0:0:
173,50,79050,1,10,0:0:0:0:
91,240,79200,1,2,0:0:0:0:
279,30,79350,1,10,0:0:0:0:
358,313,79500,1,2,0:0:0:0:
136,137,79650,6,0,P|180:190|247:196,1,125,10|2,0:0|0:0,0:0:0:0:
391,148,79950,1,10,0:0:0:0:
146,291,80100,1,2,0:0:0:0:
376,41,80250,1,10,0:0:0:0:
274,338,80400,1,2,0:0:0:0:
234,44,80550,2,0,B|234:100|234:100|270:158,1,125,10|2,0:0|0:0,0:0:0:0:
379,287,80850,5,10,0:0:0:0:
376,41,81000,1,2,0:0:0:0:
230,291,81150,1,10,0:0:0:0:
234,44,81300,1,2,0:0:0:0:
445,210,81450,1,10,0:0:0:0:
93,204,81600,1,2,0:0:0:0:
379,287,81750,1,10,0:0:0:0:
124,98,81900,1,2,0:0:0:0:
459,111,82050,5,10,0:0:0:0:
147,313,82200,1,2,0:0:0:0:
480,311,82350,1,10,0:0:0:0:
224,149,82500,1,2,0:0:0:0:
459,111,82650,1,10,0:0:0:0:
323,351,82800,1,2,0:0:0:0:
320,48,82950,1,10,0:0:0:0:
403,328,83100,1,2,0:0:0:0:
417,23,83250,5,10,0:0:0:0:
293,265,83400,1,2,0:0:0:0:
235,8,83550,1,10,0:0:0:0:
182,323,83700,1,2,0:0:0:0:
112,18,83850,1,10,0:0:0:0:
63,361,84000,1,2,0:0:0:0:
12,15,84150,2,0,P|35:87|97:117,1,125,10|2,0:0|0:0,0:0:0:0:
281,122,84450,5,10,0:0:0:0:
44,223,84600,1,2,0:0:0:0:
401,255,84750,1,10,0:0:0:0:
164,164,84900,1,2,0:0:0:0:
442,124,85050,1,10,0:0:0:0:
172,256,85200,1,0,3:0:0:0:
183,264,85275,1,0,3:0:0:0:
193,274,85350,1,8,3:0:0:0:
202,286,85425,1,0,3:0:0:0:
206,300,85500,1,0,3:0:0:0:
205,323,85575,1,0,3:0:0:0:
178,340,85650,5,8,3:0:0:0:
256,192,85725,12,0,86850,0:0:0:0:
