osu file format v14

[General]
AudioFilename: MITAKOTONAI.mp3
AudioLeadIn: 0
PreviewTime: 56783
Countdown: 0
SampleSet: Soft
StackLeniency: 0.7
Mode: 0
LetterboxInBreaks: 1
WidescreenStoryboard: 0

[Editor]
Bookmarks: 4658,5258,8858,11258,18458,37658,51458,52058,55658,56558,66458,80858,85658,85733,85808,85883,85958,86033,86108,86183,86258,86333,86408,86483,86558,86633,86708,86783,86858
DistanceSpacing: 1.1
BeatDivisor: 4
GridSize: 8
TimelineZoom: 1.5

[Metadata]
Title:Kimi no Bouken (TV Size)
TitleUnicode:キミの冒険 (TV Size)
Artist:Okazaki Taiiku
ArtistUnicode:岡崎体育
Creator:-Zeraora
Version:Normal
Source:ポケットモンスター サン&ムーン
Tags:Your Adventure Pokémon Pokemon ポケモン Pocket Monster Sun and Moon SM Ultra ウルトラ Adventures Anime Alola Opening オープニング OP4 OP 4 Theme テーマ Song 曲 Male Vocal SME Records 野村陽一郎 Yoichiro Nomura bite you death N0thingSpecial Error- MusicLovin MiracleE -Harpuia- -Keitaro CharmCaster
BeatmapID:1930430
BeatmapSetID:918691

[Difficulty]
HPDrainRate:4
CircleSize:3.5
OverallDifficulty:5
ApproachRate:5
SliderMultiplier:0.899999999999999
SliderTickRate:1

[Events]
//Background and Video events
0,0,"sylveon.jpg",0,0
//Break Periods
//Storyboard Layer 0 (Background)
//Storyboard Layer 1 (Fail)
//Storyboard Layer 2 (Pass)
//Storyboard Layer 3 (Foreground)
//Storyboard Sound Samples

[TimingPoints]
458,300,4,2,10,40,1,0
458,-100,4,2,10,40,0,0
4658,-100,4,2,10,40,0,0
5183,-100,4,2,10,5,0,0
5258,-100,4,2,10,55,0,0
8858,-100,4,2,10,65,0,0
10958,-100,4,2,10,20,0,0
11258,-100,4,2,10,70,0,0
18458,-100,4,2,10,60,0,0
37058,-100,4,2,10,48,0,0
37358,-100,4,2,10,35,0,0
37658,-100,4,2,10,50,0,0
51458,-100,4,2,10,35,0,0
52058,-100,4,2,10,60,0,0
54458,-100,4,2,10,40,0,0
54758,-100,4,2,10,45,0,0
55058,-100,4,2,10,50,0,0
55358,-100,4,2,10,55,0,0
55658,-100,4,2,10,70,0,0
56558,-100,4,2,10,30,0,0
56858,-100,4,2,10,70,0,1
75458,-100,4,2,10,50,0,0
75758,-100,4,2,10,65,0,0
76058,-100,4,2,10,75,0,1
85658,-100,4,2,10,75,0,0

[Colours]
Combo1 : 240,240,240
Combo2 : 255,128,192
Combo3 : 255,193,255
Combo4 : 230,204,255
Combo5 : 81,255,168
Combo6 : 179,255,179
Combo7 : 255,255,121
Combo8 : 255,255,193
SliderBorder : 247,164,185
SliderTrackOverride : 51,16,25

[HitObjects]
482,38,458,6,0,B|490:131|420:108|428:202,1,180,2|2,0:0|0:0,0:0:0:0:
289,345,1658,2,0,B|297:251|227:274|235:180,1,180,2|2,0:0|0:0,0:0:0:0:
112,24,2858,6,0,B|142:20|173:16|173:16|223:41|223:41|254:37|285:34,2,180,2|2|2,0:0|0:0|0:0,0:0:0:0:
0,188,4658,1,2,0:0:0:0:
112,352,5258,6,0,B|158:320|158:320|281:334,1,180,2|0,1:2|1:2,0:0:0:0:
379,349,6158,1,10,1:2:0:0:
451,282,6458,2,0,L|439:186,1,89.9999999999999,2|10,1:2|1:2,0:0:0:0:
344,165,7058,2,0,L|355:69,1,89.9999999999999,2|8,1:2|1:2,0:0:0:0:
277,12,7658,2,0,P|219:77|132:73,2,180,2|2|6,1:2|1:2|0:0,0:0:0:0:
461,43,11258,6,0,B|429:89|429:89|443:212,1,180,6|10,1:2|0:0,0:0:0:0:
452,310,12158,1,0,0:0:0:0:
369,365,12458,2,0,L|273:353,1,89.9999999999999,0|2,1:2|1:2,0:0:0:0:
215,278,13058,2,0,L|119:289,1,89.9999999999999,10|2,1:2|0:0,0:0:0:0:
75,374,13658,6,0,P|28:300|56:218,1,180,2|10,1:2|0:0,0:0:0:0:
152,193,14558,1,0,0:0:0:0:
222,263,14858,2,0,L|311:273,1,89.9999999999999,0|2,1:2|1:2,0:0:0:0:
395,223,15458,2,0,L|384:133,1,89.9999999999999,10|2,1:2|0:0,0:0:0:0:
398,35,16058,6,0,B|306:29|324:91|232:85,1,180,2|10,1:2|0:0,0:0:0:0:
136,52,16958,1,0,0:0:0:0:
45,91,17258,2,0,B|41:121|37:152|37:152|62:202|62:202|58:233|55:264,1,180,0|10,1:2|0:0,0:0:0:0:
44,362,18158,1,10,0:0:0:0:
141,373,18458,6,0,B|177:330|177:330|300:314,1,180,6|2,1:2|1:2,0:0:0:0:
394,347,19358,1,8,0:0:0:0:
410,249,19658,2,0,L|420:160,1,89.9999999999999,0|10,1:2|0:0,0:0:0:0:
454,66,20258,2,0,L|365:76,1,89.9999999999999,2|8,1:2|0:0,0:0:0:0:
282,131,20858,6,0,P|244:106|200:101,2,89.9999999999999,2|10|2,1:2|0:0|1:2,0:0:0:0:
336,214,21758,1,8,0:0:0:0:
396,292,22058,2,0,P|433:267|477:262,2,89.9999999999999,2|8|2,1:2|0:0|1:2,0:0:0:0:
342,375,22958,1,10,0:0:0:0:
261,316,23258,6,0,B|169:310|187:372|95:366,1,180,6|2,1:2|1:2,0:0:0:0:
8,313,24158,1,8,0:0:0:0:
20,214,24458,2,0,L|30:125,1,89.9999999999999,2|10,1:2|0:0,0:0:0:0:
114,72,25058,2,0,L|124:161,1,89.9999999999999,0|10,1:2|0:0,0:0:0:0:
214,201,25658,6,0,P|251:176|295:170,2,89.9999999999999,2|10|2,1:2|0:0|1:2,0:0:0:0:
191,298,26558,1,8,0:0:0:0:
263,366,26858,2,0,P|347:346|385:267,1,180,2|2,1:2|1:2,0:0:0:0:
333,182,27758,1,14,0:0:0:0:
261,113,28058,6,0,B|307:81|307:81|430:95,1,180,6|2,1:2|1:2,0:0:0:0:
496,169,28958,1,8,0:0:0:0:
410,219,29258,2,0,L|321:209,1,89.9999999999999,2|10,1:2|0:0,0:0:0:0:
236,261,29858,2,0,L|147:251,1,89.9999999999999,2|8,1:2|0:0,0:0:0:0:
52,220,30458,5,2,1:2:0:0:
4,306,30758,1,8,0:0:0:0:
69,380,31058,2,0,L|158:370,1,89.9999999999999,2|8,1:2|0:0,0:0:0:0:
257,360,31658,1,2,1:2:0:0:
305,274,31958,1,8,0:0:0:0:
240,200,32258,2,0,L|151:210,1,89.9999999999999,2|8,1:2|0:0,0:0:0:0:
95,293,32858,6,0,P|51:217|83:136,1,180,2|2,1:2|1:2,0:0:0:0:
180,115,33758,1,8,0:0:0:0:
113,42,34058,2,0,L|24:32,2,89.9999999999999,2|10|2,1:2|0:0|1:2,0:0:0:0:
210,21,34958,1,8,0:0:0:0:
277,94,35258,6,0,B|369:88|351:150|443:144,1,180,2|2,1:2|1:2,0:0:0:0:
511,217,36158,1,8,0:0:0:0:
443,289,36458,2,0,P|398:293|361:318,1,89.9999999999999,2|4,1:2|0:0,0:0:0:0:
292,246,37058,2,0,P|267:283|262:327,1,89.9999999999999,10|0,1:2|1:2,0:0:0:0:
173,371,37658,6,0,B|179:279|117:297|123:205,1,180,6|8,1:2|0:0,0:0:0:0:
180,122,38558,1,2,1:2:0:0:
109,52,38858,2,0,L|20:42,2,89.9999999999999,2|2|10,1:2|1:2|0:0,0:0:0:0:
51,241,40058,6,0,P|128:202|208:238,1,180,4|8,1:2|0:0,0:0:0:0:
222,337,40958,1,2,1:2:0:0:
315,375,41258,2,0,L|404:365,2,89.9999999999999,2|2|10,1:2|1:2|0:0,0:0:0:0:
301,277,42158,1,0,1:2:0:0:
286,179,42458,6,0,B|378:173|360:235|452:229,1,180,6|10,1:2|0:0,0:0:0:0:
364,51,43658,2,0,B|272:45|290:107|198:101,1,180,2|10,1:2|0:0,0:0:0:0:
111,50,44558,1,0,1:2:0:0:
26,101,44858,6,0,B|22:131|18:162|18:162|43:212|43:212|39:243|36:274,1,180,6|10,1:2|0:0,0:0:0:0:
211,365,46058,2,0,L|300:355,2,89.9999999999999,2|2|10,1:2|1:2|0:0,0:0:0:0:
146,293,46958,1,0,1:2:0:0:
217,224,47258,6,0,B|231:101|231:101|199:55,1,180,6|10,1:2|0:0,0:0:0:0:
49,185,48458,2,0,L|59:274,2,89.9999999999999,2|2|10,1:2|1:2|0:0,0:0:0:0:
144,157,49358,1,2,1:2:0:0:
217,224,49658,6,0,B|247:227|278:230|278:230|320:267|320:267|351:270|382:275,1,180,2|10,1:2|0:0,0:0:0:0:
510,123,50858,2,0,L|421:113,1,89.9999999999999,2|0,1:2|1:2,0:0:0:0:
345,48,51458,2,0,L|256:58,1,89.9999999999999,10|2,0:0|1:2,0:0:0:0:
197,138,52058,6,0,B|103:144|121:82|29:88,3,180,14|10|10|10,1:2|1:2|0:2|0:2,0:0:0:0:
1,274,54458,2,0,P|136:235|68:359,1,360,10|14,1:2|1:2,0:0:0:0:
67,358,56858,6,0,B|61:266|123:284|117:192,1,180,6|2,1:2|1:2,0:0:0:0:
64,106,57758,1,8,0:0:0:0:
141,44,58058,2,0,L|230:54,1,89.9999999999999,2|10,1:2|0:0,0:0:0:0:
289,133,58658,2,0,L|378:123,1,89.9999999999999,2|10,1:2|0:0,0:0:0:0:
448,53,59258,6,0,B|480:99|480:99|466:222,2,180,2|2|2,1:2|1:2|1:2,0:0:0:0:
352,28,60758,1,8,0:0:0:0:
283,99,61058,2,0,L|294:187,1,89.9999999999999,2|8,1:2|0:0,0:0:0:0:
307,286,61658,6,0,P|237:234|152:255,1,180,6|0,1:2|1:2,0:0:0:0:
122,350,62558,1,8,0:0:0:0:
55,276,62858,2,0,L|45:187,2,89.9999999999999,2|10|2,1:2|0:0|1:2,0:0:0:0:
24,370,63758,1,8,0:0:0:0:
122,350,64058,6,0,B|152:354|183:358|183:358|233:333|233:333|264:337|295:340,2,180,6|2|2,1:2|1:2|1:2,0:0:0:0:
55,276,65558,1,8,0:0:0:0:
143,231,65858,2,0,L|232:241,1,89.9999999999999,10|8,1:2|0:0,0:0:0:0:
291,320,66458,6,0,B|383:326|365:264|457:270,1,180,6|2,1:2|1:2,0:0:0:0:
511,186,67358,1,8,0:0:0:0:
435,121,67658,2,0,L|346:131,1,89.9999999999999,2|10,1:2|0:0,0:0:0:0:
285,210,68258,2,0,L|196:200,1,89.9999999999999,2|10,1:2|0:0,0:0:0:0:
113,144,68858,6,0,B|99:267|99:267|131:313,2,180,2|2|2,1:2|1:2|1:2,0:0:0:0:
124,45,70358,1,8,0:0:0:0:
204,104,70658,2,0,L|293:94,1,89.9999999999999,2|8,1:2|0:0,0:0:0:0:
392,85,71258,6,0,P|328:144|334:232,1,180,6|2,1:2|1:2,0:0:0:0:
423,278,72158,1,10,0:0:0:0:
347,341,72458,2,0,B|255:347|273:285|181:291,1,180,0|2,1:2|1:2,0:0:0:0:
92,339,73358,1,10,0:0:0:0:
14,277,73658,6,0,B|7:231|1:185|1:185|39:109|39:109|33:63|29:16,1,270,2|10,1:2|0:0,0:0:0:0:
125,41,74858,2,0,L|148:231,1,180,10|6,1:2|1:2,0:0:0:0:
159,317,75758,1,10,1:2:0:0:
248,360,76058,6,0,P|292:284|378:270,1,180,14|10,0:2|0:0,0:0:0:0:
442,347,76958,1,10,0:0:0:0:
501,267,77258,2,0,L|511:178,1,89.9999999999999,10|8,0:0|0:0,0:0:0:0:
430,119,77858,2,0,L|440:30,1,89.9999999999999,8|10,0:0|0:0,0:0:0:0:
347,64,78458,6,0,B|255:58|273:120|181:114,1,180,14|10,0:0|0:0,0:0:0:0:
94,61,79358,1,10,0:0:0:0:
87,159,79658,2,0,B|73:282|73:282|105:328,1,180,10|8,0:0|0:0,0:0:0:0:
172,255,80558,1,10,0:0:0:0:
270,268,80858,6,0,L|359:278,1,89.9999999999999,14|10,0:0|0:0,0:0:0:0:
458,289,81458,2,0,L|468:200,1,89.9999999999999,10|10,0:0|0:0,0:0:0:0:
480,101,82058,2,0,L|391:91,1,89.9999999999999,14|10,0:0|0:0,0:0:0:0:
292,80,82658,2,0,L|282:169,1,89.9999999999999,10|10,0:0|0:0,0:0:0:0:
270,268,83258,6,0,L|181:256,1,89.9999999999999,14|10,0:0|0:0,0:0:0:0:
82,242,83858,2,0,L|93:153,1,89.9999999999999,14|10,0:0|0:0,0:0:0:0:
106,55,84458,2,0,B|228:71|228:71|265:113,1,180,14|14,0:0|0:0,0:0:0:0:
331,187,85358,1,10,0:0:0:0:
412,130,85658,1,6,0:0:0:0:
256,192,85733,12,8,86858,1:2:0:0:
