osu file format v14

[General]
AudioFilename: MITAKOTONAI.mp3
AudioLeadIn: 0
PreviewTime: 56783
Countdown: 0
SampleSet: Soft
StackLeniency: 0.7
Mode: 0
LetterboxInBreaks: 1
WidescreenStoryboard: 0

[Editor]
Bookmarks: 458,18458,28058,37658,47258,56858,71258,86858
DistanceSpacing: 1.1
BeatDivisor: 4
GridSize: 32
TimelineZoom: 2.7

[Metadata]
Title:Kimi no Bouken (TV Size)
TitleUnicode:キミの冒険 (TV Size)
Artist:Okazaki Taiiku
ArtistUnicode:岡崎体育
Creator:-Zeraora
Version:N0's Extreme
Source:ポケットモンスター サン&ムーン
Tags:Your Adventure Pokémon Pokemon ポケモン Pocket Monster Sun and Moon SM Ultra ウルトラ Adventures Anime Alola Opening オープニング OP4 OP 4 Theme テーマ Song 曲 Male Vocal SME Records 野村陽一郎 Yoichiro Nomura bite you death N0thingSpecial Error- MusicLovin MiracleE -Harpuia- -Keitaro CharmCaster
BeatmapID:1918342
BeatmapSetID:918691

[Difficulty]
HPDrainRate:6
CircleSize:4
OverallDifficulty:8.5
ApproachRate:9.3
SliderMultiplier:1.8
SliderTickRate:1

[Events]
//Background and Video events
0,0,"rowlet.jpg",0,0
//Break Periods
//Storyboard Layer 0 (Background)
//Storyboard Layer 1 (Fail)
//Storyboard Layer 2 (Pass)
//Storyboard Layer 3 (Foreground)
//Storyboard Sound Samples

[TimingPoints]
458,300,4,2,2,40,1,0
458,-133.333333333333,4,2,2,40,0,0
5258,-117.647058823529,4,2,2,50,0,0
7958,-105.263157894737,4,2,2,50,0,0
8258,-95.2380952380952,4,2,2,50,0,0
8558,-86.9565217391304,4,2,2,50,0,0
8858,-200,4,2,2,50,0,0
10358,-200,4,2,2,40,0,0
11258,-100,4,2,2,60,0,0
17708,-71.4285714285714,4,2,2,60,0,0
18008,-55.5555555555556,4,2,2,60,0,0
18458,-105.263157894737,4,2,2,55,0,0
37658,-200,4,2,2,45,0,0
52058,-133.333333333333,4,2,2,60,0,0
52658,-100,4,2,2,60,0,0
56858,-100,4,2,2,70,0,1
80858,-100,4,2,2,80,0,1
85658,-200,4,2,2,70,0,0
86858,-100,4,2,2,70,0,0

[Colours]
Combo1 : 0,155,0
Combo2 : 132,103,253
Combo3 : 254,116,116
SliderBorder : 255,255,255
SliderTrackOverride : 15,90,100

[HitObjects]
75,300,458,6,0,P|140:255|146:255,1,67.5000025749208,2|2,0:0|0:0,0:0:0:0:
117,178,758,2,0,P|195:185|200:189,1,67.5000025749208,2|2,0:0|0:0,0:0:0:0:
261,132,1058,1,2,0:0:0:0:
287,273,1358,5,0,0:0:0:0:
287,273,1508,2,0,P|269:201|271:122,1,135.000005149842,2|2,0:0|0:0,0:0:0:0:
418,116,1958,2,0,L|340:130,1,67.5000025749208,2|2,0:0|0:0,0:0:0:0:
187,108,2258,2,0,P|219:68|252:57,1,67.5000025749208,2|0,0:0|0:0,0:0:0:0:
403,208,2558,2,0,P|421:255|414:289,1,67.5000025749208,2|0,0:0|0:0,0:0:0:0:
163,222,2858,6,0,P|234:242|301:283,2,135.000005149842,2|2|2,0:0|0:0|0:0,0:0:0:0:
163,222,3608,1,0,0:0:0:0:
208,345,3758,2,0,P|158:337|132:314,1,67.5000025749208,2|0,0:0|0:0,0:0:0:0:
46,356,4058,2,0,L|60:272,1,67.5000025749208,2|0,0:0|0:0,0:0:0:0:
12,200,4358,1,0,0:0:0:0:
12,200,4508,1,0,0:0:0:0:
110,139,4658,2,0,L|96:55,1,67.5000025749208,2|0,0:0|0:0,0:0:0:0:
207,34,4958,2,0,L|195:100,1,67.5000025749208,2|0,0:0|0:0,0:0:0:0:
298,173,5258,6,0,L|286:97,1,76.5000014591217,2|0,3:2|0:0,0:0:0:0:
286,97,5558,1,10,0:0:0:0:
393,155,5708,2,0,L|381:231,1,76.5000014591217,2|0,0:0|3:0,0:0:0:0:
311,280,6008,2,0,P|273:277|240:260,1,76.5000014591217,2|8,0:0|0:0,0:0:0:0:
158,298,6308,6,0,P|130:271|116:236,1,76.5000014591217,2|0,0:0|3:0,0:0:0:0:
74,115,6608,1,2,0:0:0:0:
74,115,6758,2,0,P|65:151|42:182,1,76.5000014591217,10|0,0:0|0:0,0:0:0:0:
9,334,7058,2,0,P|60:317|168:296,1,153.000002918243,2|10,3:2|0:0,0:0:0:0:
356,346,7508,1,0,0:0:0:0:
356,346,7658,2,0,L|335:268,1,76.5000014591217,2|0,3:2|0:0,0:0:0:0:
286,40,7958,6,0,L|260:135,1,85.4999977169037,10|0,0:0|0:0,0:0:0:0:
266,354,8258,6,0,L|241:262,1,94.499997116089,2|0,3:2|0:0,0:0:0:0:
196,26,8558,6,0,L|168:129,1,103.500001974106,10|0,0:0|0:0,0:0:0:0:
51,356,8858,6,0,P|127:362|174:310,1,135,6|2,3:2|0:0,0:0:0:0:
288,157,9458,2,0,P|159:164|96:278,1,270,2|0,0:0|0:0,0:0:0:0:
96,278,11258,6,0,P|147:262|187:262,1,90,6|0,3:2|0:0,0:0:0:0:
412,205,11558,2,0,P|367:203|324:188,1,90,0|0,0:0|0:0,0:0:0:0:
219,133,11858,1,10,0:0:0:0:
348,290,12008,1,0,0:0:0:0:
313,91,12158,1,0,0:0:0:0:
293,370,12308,6,0,P|379:379|441:318,1,180,2|2,3:2|3:2,0:0:0:0:
302,191,12758,1,0,0:0:0:0:
188,376,12908,2,0,P|192:332|205:289,1,90,2|8,3:2|0:0,0:0:0:0:
313,74,13208,1,2,3:2:0:0:
155,202,13358,1,2,0:0:0:0:
46,29,13508,1,2,3:2:0:0:
160,216,13658,6,0,P|93:201|61:199,1,90,2|0,3:2|3:0,0:0:0:0:
214,8,13958,1,0,0:0:0:0:
138,122,14108,1,0,3:0:0:0:
138,122,14183,1,0,3:0:0:0:
138,122,14258,1,10,0:0:0:0:
246,13,14408,1,0,3:0:0:0:
236,252,14558,1,0,0:0:0:0:
474,65,14708,6,0,P|451:131|440:256,1,180,2|2,3:2|3:2,0:0:0:0:
278,161,15158,1,0,0:0:0:0:
382,344,15308,2,0,P|440:332|488:327,1,90,2|8,3:2|0:0,0:0:0:0:
474,165,15608,1,2,3:2:0:0:
291,270,15758,1,2,0:0:0:0:
493,364,15908,1,2,3:2:0:0:
482,143,16058,6,0,P|424:155|376:160,1,90,2|0,3:2|3:0,0:0:0:0:
218,129,16358,1,0,0:0:0:0:
431,73,16508,1,0,3:0:0:0:
431,73,16583,1,0,3:0:0:0:
431,73,16658,1,10,0:0:0:0:
314,306,16808,2,0,P|307:260|323:219,1,90,0|0,0:0|0:0,0:0:0:0:
236,31,17108,2,0,P|279:47|306:82,1,90,2|0,3:2|0:0,0:0:0:0:
445,314,17408,6,0,P|419:311|388:300,1,45,2|0,3:2|0:0,0:0:0:0:
180,147,17558,2,0,P|188:168|202:185,1,45,10|0,0:0|0:0,0:0:0:0:
339,363,17708,6,0,P|321:336|313:306,1,62.9999980773926,2|0,0:0|0:0,0:0:0:0:
115,95,17858,2,0,P|102:123|99:155,1,62.9999980773926,10|0,0:0|0:0,0:0:0:0:
229,320,18008,6,0,P|231:293|265:235,1,80.9999975280763,2|0,0:0|0:0,0:0:0:0:
111,13,18158,2,0,P|73:27|43:54,1,80.9999975280763,8|8,0:0|0:0,0:0:0:0:
160,250,18308,1,8,0:0:0:0:
160,250,18383,1,8,0:0:0:0:
160,250,18458,6,0,P|112:239|70:234,1,85.4999977169037,6|0,3:2|0:0,0:0:0:0:
54,149,18758,1,8,0:0:0:0:
271,226,18908,1,2,0:0:0:0:
211,55,19058,2,0,P|221:96|227:139,1,85.4999977169037,2|0,3:2|0:0,0:0:0:0:
371,204,19358,1,10,0:0:0:0:
458,113,19508,6,0,P|385:71|305:94,1,170.999995433807,2|2,0:0|0:0,0:0:0:0:
236,155,19958,1,10,0:0:0:0:
140,117,20108,1,2,0:0:0:0:
240,245,20258,2,0,B|198:247|198:247|168:216,1,85.4999977169037,2|0,3:2|0:0,0:0:0:0:
232,64,20558,2,0,B|275:63|275:63|305:94,1,85.4999977169037,10|2,0:0|0:0,0:0:0:0:
120,138,20858,6,0,P|79:149|37:151,1,85.4999977169037,2|2,3:2|0:0,0:0:0:0:
131,331,21158,2,0,P|173:331|215:343,1,85.4999977169037,10|2,0:0|0:0,0:0:0:0:
146,236,21458,1,2,3:2:0:0:
34,378,21608,1,2,0:0:0:0:
161,221,21758,2,0,L|250:205,1,85.4999977169037,8|0,0:0|0:0,0:0:0:0:
431,29,22058,6,0,P|371:24|331:9,1,85.4999977169037,0|0,3:2|0:0,0:0:0:0:
252,222,22358,2,0,P|293:209|336:209,1,85.4999977169037,8|0,0:0|0:0,0:0:0:0:
322,114,22658,1,2,3:2:0:0:
266,303,22808,1,2,0:0:0:0:
176,259,22958,1,10,0:0:0:0:
271,321,23108,1,2,0:0:0:0:
157,159,23258,6,0,P|125:140|80:132,1,85.4999977169037,6|0,3:2|0:0,0:0:0:0:
69,229,23558,1,10,0:0:0:0:
41,48,23708,1,2,0:0:0:0:
229,118,23858,2,0,P|277:129|318:129,1,85.4999977169037,2|2,3:2|0:0,0:0:0:0:
381,78,24158,1,10,0:0:0:0:
261,215,24308,1,2,0:0:0:0:
132,9,24458,6,0,L|148:101,1,85.4999977169037,2|0,3:2|0:0,0:0:0:0:
106,170,24758,1,10,0:0:0:0:
280,315,24908,2,0,P|288:230|311:148,1,170.999995433807,2|2,0:0|0:0,0:0:0:0:
436,336,25358,2,0,P|398:299|361:293,1,85.4999977169037,8|2,0:0|0:0,0:0:0:0:
57,311,25658,6,0,B|102:296|139:334|139:334|172:372|221:357,3,170.999995433807,2|10|2|10,3:2|0:0|3:2|0:0,0:0:0:0:
303,329,26708,1,0,0:0:0:0:
313,151,26858,6,0,P|301:210|297:246,1,85.4999977169037,2|0,3:2|0:0,0:0:0:0:
457,99,27158,2,0,P|451:56|441:14,1,85.4999977169037,8|0,0:0|0:0,0:0:0:0:
496,197,27458,2,0,P|430:177|308:175,1,170.999995433807,2|8,3:2|0:0,0:0:0:0:
328,172,27908,1,0,0:0:0:0:
364,311,28058,6,0,B|402:326|402:326|456:310,1,85.4999977169037,6|0,3:2|0:0,0:0:0:0:
421,134,28358,1,10,0:0:0:0:
272,247,28508,1,0,0:0:0:0:
346,64,28658,1,2,3:2:0:0:
410,150,28808,2,0,P|370:166|328:172,1,85.4999977169037,2|8,0:0|0:0,0:0:0:0:
82,41,29108,6,0,P|182:36|231:87,1,170.999995433807,2|2,0:0|0:0,0:0:0:0:
18,257,29558,2,0,L|112:240,1,85.4999977169037,10|0,0:0|0:0,0:0:0:0:
312,96,29858,1,2,3:2:0:0:
184,229,30008,1,2,0:0:0:0:
313,323,30158,2,0,L|229:309,1,85.4999977169037,10|0,0:0|0:0,0:0:0:0:
260,159,30458,6,0,P|266:216|297:248,1,85.4999977169037,2|2,3:2|0:0,0:0:0:0:
440,285,30758,2,0,P|400:272|373:240,1,85.4999977169037,8|0,0:0|0:0,0:0:0:0:
248,311,31058,6,0,P|254:269|281:236,1,85.4999977169037,0|0,3:2|0:0,0:0:0:0:
332,122,31358,2,0,P|290:130|260:159,1,85.4999977169037,8|0,0:0|0:0,0:0:0:0:
73,45,31658,6,0,P|79:102|110:134,1,85.4999977169037,2|2,3:2|0:0,0:0:0:0:
260,159,31958,2,0,P|219:146|192:113,1,85.4999977169037,8|0,0:0|0:0,0:0:0:0:
62,197,32258,6,0,P|68:155|95:122,1,85.4999977169037,0|0,3:0|0:0,0:0:0:0:
145,8,32558,2,0,P|103:16|73:45,1,85.4999977169037,10|0,0:0|0:0,0:0:0:0:
1,256,32858,6,0,P|102:239|194:235,1,170.999995433807,2|10,3:2|0:0,0:0:0:0:
217,128,33308,1,0,0:0:0:0:
315,325,33458,2,0,P|266:325|230:291,1,85.4999977169037,2|2,3:2|0:0,0:0:0:0:
315,156,33758,1,10,0:0:0:0:
163,249,33908,1,2,0:0:0:0:
129,80,34058,6,0,P|122:139|129:171,1,85.4999977169037,2|0,3:2|0:0,0:0:0:0:
336,241,34358,2,0,L|233:222,1,85.4999977169037,10|0,0:0|0:0,0:0:0:0:
363,325,34658,1,2,3:2:0:0:
399,171,34808,1,0,0:0:0:0:
227,221,34958,1,10,0:0:0:0:
408,159,35108,1,2,0:0:0:0:
310,141,35258,6,0,P|322:189|325:232,2,85.4999977169037,2|0|8,3:2|0:0|0:0,0:0:0:0:
270,57,35708,1,2,0:0:0:0:
481,101,35858,2,0,P|485:58|495:17,1,85.4999977169037,2|0,3:2|0:0,0:0:0:0:
490,192,36158,2,0,P|449:212|395:206,1,85.4999977169037,8|0,0:0|0:0,0:0:0:0:
286,34,36458,5,0,3:0:0:0:
403,127,36608,1,0,0:0:0:0:
263,183,36758,1,12,0:0:0:0:
432,131,36908,1,0,0:0:0:0:
218,78,37058,1,8,0:0:0:0:
289,316,37208,1,8,0:0:0:0:
460,135,37358,1,8,0:3:0:0:
222,209,37508,1,8,0:3:0:0:
369,355,37658,6,0,P|429:335|465:334,1,90,6|2,3:2|0:0,0:0:0:0:
498,265,38108,1,2,0:0:0:0:
371,269,38258,2,0,P|410:259|426:258,1,45,10|2,0:0|0:0,0:0:0:0:
360,106,38558,1,2,0:2:0:0:
414,258,38708,1,10,0:0:0:0:
414,258,38858,6,0,P|392:262|371:269,1,45,2|8,3:2|0:0,0:0:0:0:
283,192,39158,2,0,P|290:213|294:235,1,45,2|0,3:2|0:0,0:0:0:0:
67,324,39458,1,8,0:0:0:0:
58,333,39758,1,0,0:0:0:0:
257,344,39908,1,8,0:0:0:0:
145,355,40058,6,0,P|85:335|49:334,1,90,2|2,3:2|0:0,0:0:0:0:
16,265,40508,1,2,0:0:0:0:
143,269,40658,2,0,P|104:259|88:258,1,45,10|2,0:0|0:0,0:0:0:0:
154,106,40958,1,2,0:0:0:0:
100,258,41108,1,10,0:0:0:0:
100,258,41258,6,0,P|122:262|143:269,1,45,2|10,3:2|0:0,0:0:0:0:
229,192,41558,2,0,P|222:213|218:235,1,45,2|0,3:2|0:0,0:0:0:0:
257,344,41858,1,8,0:0:0:0:
257,352,42158,1,2,3:2:0:0:
402,130,42458,6,0,L|417:40,2,90,6|0|10,3:2|0:0|0:0,0:0:0:0:
402,130,43358,1,2,0:0:0:0:
402,130,43508,1,8,0:0:0:0:
486,192,43658,1,2,3:2:0:0:
295,112,43808,1,8,0:0:0:0:
322,318,43958,1,2,3:2:0:0:
319,329,44258,2,0,P|367:314|416:312,1,90,10|2,0:0|0:0,0:0:0:0:
227,182,44708,1,8,0:0:0:0:
227,182,44858,6,0,L|242:271,1,90,2|0,3:2|0:0,0:0:0:0:
70,100,45458,2,0,P|112:114|157:117,1,90,8|2,0:0|0:0,0:0:0:0:
157,117,45908,1,10,0:0:0:0:
238,73,46058,1,0,3:0:0:0:
137,206,46208,1,8,0:0:0:0:
326,73,46358,2,0,P|317:111|317:125,1,45,0|0,3:0|0:0,0:0:0:0:
374,182,46658,2,0,P|419:178|462:165,1,90,8|0,0:0|3:0,0:0:0:0:
215,79,47108,1,8,0:0:0:0:
101,50,47258,6,0,P|131:105|138:140,1,90,6|2,3:2|0:0,0:0:0:0:
213,158,47708,1,2,0:0:0:0:
186,37,47858,2,0,P|202:73|206:89,1,45,10|2,0:0|0:0,0:0:0:0:
16,45,48158,1,0,0:0:0:0:
131,252,48308,1,8,0:0:0:0:
131,252,48458,2,0,P|154:219|166:208,1,45,2|8,3:2|0:0,0:0:0:0:
345,193,48758,2,0,P|304:189|289:184,2,45,2|2|10,3:2|0:0|0:0,0:0:0:0:
345,193,49358,2,0,L|335:247,1,45,2|8,0:0|0:0,0:0:0:0:
169,119,49658,6,0,P|234:115|267:87,1,90,2|2,3:2|0:0,0:0:0:0:
360,346,50258,2,0,P|315:348|275:329,1,90,10|2,0:0|0:0,0:0:0:0:
97,237,50708,1,8,0:0:0:0:
97,237,50858,2,0,P|83:268|85:293,1,45,2|8,3:2|0:0,0:0:0:0:
162,305,51158,2,0,P|176:274|174:249,1,45,0|0,3:0|0:0,0:0:0:0:
84,135,51458,2,0,P|149:131|182:103,1,90,10|2,0:0|3:2,0:0:0:0:
168,118,52058,6,0,L|155:186,1,67.5000025749208,6|0,3:2|0:0,0:0:0:0:
349,157,52358,2,0,L|361:224,1,67.5000025749208,8|0,0:0|0:0,0:0:0:0:
56,61,52658,6,0,L|74:169,1,90,10|0,0:0|0:0,0:0:0:0:
270,84,52958,2,0,L|255:173,1,90,8|0,0:0|0:0,0:0:0:0:
209,10,53258,1,10,0:2:0:0:
152,205,53408,1,8,0:0:0:0:
349,157,53558,1,10,0:0:0:0:
139,221,53708,1,8,0:0:0:0:
355,56,53858,5,10,0:0:0:0:
262,264,54008,1,8,0:0:0:0:
69,138,54158,1,10,0:0:0:0:
284,345,54308,1,8,0:0:0:0:
123,349,54458,1,14,3:2:0:0:
123,349,54533,1,8,0:0:0:0:
123,349,54608,2,0,L|131:305,1,45,8|8,0:0|0:0,0:0:0:0:
165,116,54758,1,8,0:0:0:0:
165,116,54833,1,8,0:0:0:0:
165,116,54908,2,0,L|157:160,1,45,14|8,3:2|0:0,0:0:0:0:
305,175,55058,6,0,L|260:182,1,45,8|8,0:0|0:0,0:0:0:0:
16,121,55209,2,0,L|55:144,1,45,8|8,0:0|0:0,0:0:0:0:
149,216,55358,1,14,3:2:0:0:
150,211,55433,1,8,0:0:0:0:
151,205,55508,2,0,L|161:144,1,45,8|8,0:0|0:0,0:0:0:0:
409,329,55658,5,6,3:2:0:0:
393,322,56558,2,0,L|401:274,5,30,2|2|2|2|2|2,0:0|0:0|0:0|0:0|0:0|0:0,0:0:0:0:
393,322,56858,2,0,P|336:302|286:300,1,90,6|2,3:2|0:0,0:0:0:0:
488,244,57158,1,10,0:0:0:0:
311,313,57308,1,2,0:0:0:0:
254,106,57458,2,0,L|269:218,1,90,2|0,3:2|0:0,0:0:0:0:
80,367,57758,1,8,0:0:0:0:
80,367,57908,6,0,L|95:255,1,90,2|0,0:0|3:0,0:0:0:0:
379,222,58208,1,2,0:0:0:0:
251,377,58358,1,10,0:0:0:0:
168,172,58508,1,2,0:0:0:0:
368,345,58658,2,0,P|407:328|459:315,1,90,2|0,3:2|0:0,0:0:0:0:
506,120,58958,2,0,P|462:108|421:91,1,90,10|0,0:0|0:0,0:0:0:0:
184,280,59258,6,0,P|247:295|325:210,1,180,2|10,3:2|0:0,0:0:0:0:
123,153,59708,1,0,0:0:0:0:
272,25,59858,5,2,3:2:0:0:
321,300,60008,1,0,0:0:0:0:
310,20,60158,5,10,0:0:0:0:
184,280,60308,1,0,0:0:0:0:
503,180,60458,6,0,P|484:117|371:92,1,180,2|8,3:2|0:0,0:0:0:0:
236,205,60908,1,0,0:0:0:0:
456,265,61058,2,0,L|470:353,1,90,2|0,3:2|0:0,0:0:0:0:
288,116,61358,2,0,L|274:28,1,90,10|0,0:0|0:0,0:0:0:0:
153,256,61658,6,0,P|204:241|242:235,1,90,6|0,3:2|0:0,0:0:0:0:
368,40,61958,1,10,0:0:0:0:
192,148,62108,2,0,P|185:103|174:59,1,90,2|0,0:0|3:0,0:0:0:0:
81,6,62408,1,2,0:0:0:0:
279,95,62558,1,8,0:0:0:0:
144,277,62708,6,0,L|42:249,1,90,2|0,0:0|3:0,0:0:0:0:
212,162,63008,1,2,0:0:0:0:
3,175,63158,1,10,0:0:0:0:
248,369,63308,1,2,0:0:0:0:
17,156,63458,2,0,P|23:106|33:58,1,90,2|0,3:2|0:0,0:0:0:0:
296,213,63758,2,0,P|304:257|309:301,1,90,10|0,0:0|0:0,0:0:0:0:
12,369,64058,6,0,P|61:354|115:353,1,90,2|0,3:2|0:0,0:0:0:0:
116,131,64358,2,0,P|163:151|205:184,1,90,10|0,0:0|0:0,0:0:0:0:
385,357,64658,2,0,P|428:345|468:324,1,90,2|0,3:2|0:0,0:0:0:0:
220,274,64958,1,10,0:0:0:0:
390,246,65108,1,0,0:0:0:0:
199,78,65258,6,0,L|231:260,1,180,2|8,3:2|0:0,0:0:0:0:
294,120,65708,1,2,0:0:0:0:
458,75,65858,2,0,B|413:60|376:98|376:98|343:136|291:119,1,180,2|8,3:2|0:0,0:0:0:0:
264,16,66308,1,0,0:0:0:0:
426,185,66458,6,0,L|409:279,1,90,6|2,3:2|0:0,0:0:0:0:
210,318,66758,1,10,0:0:0:0:
324,222,66908,1,2,0:0:0:0:
139,129,67058,2,0,L|37:146,1,90,2|0,3:2|0:0,0:0:0:0:
339,43,67358,1,8,0:0:0:0:
339,43,67508,6,0,P|331:95|328:138,1,90,2|0,0:0|3:0,0:0:0:0:
453,260,67808,1,2,0:0:0:0:
320,148,67958,1,10,0:0:0:0:
478,253,68108,1,2,0:0:0:0:
248,344,68258,2,0,P|206:333|148:325,1,90,2|0,3:2|0:0,0:0:0:0:
13,149,68558,2,0,P|55:138|113:130,1,90,10|0,0:0|0:0,0:0:0:0:
387,208,68858,6,0,P|263:215|227:269,1,180,2|10,3:2|0:0,0:0:0:0:
455,127,69308,1,0,0:0:0:0:
374,307,69458,5,2,3:2:0:0:
258,61,69608,1,0,0:0:0:0:
336,302,69758,5,10,0:0:0:0:
371,48,69908,1,0,0:0:0:0:
209,341,70058,6,0,P|141:313|34:294,1,180,2|8,3:2|0:0,0:0:0:0:
169,182,70508,1,0,0:0:0:0:
299,286,70658,2,0,P|304:329|306:382,1,90,2|0,3:2|0:0,0:0:0:0:
88,214,70958,2,0,P|89:169|95:124,1,90,10|0,0:0|0:0,0:0:0:0:
356,172,71258,6,0,P|312:171|263:163,1,90,6|0,3:2|0:0,0:0:0:0:
462,198,71558,1,10,0:0:0:0:
310,345,71708,2,0,L|294:256,1,90,2|0,0:0|3:0,0:0:0:0:
185,34,72008,1,2,0:0:0:0:
402,107,72158,1,10,0:0:0:0:
173,255,72308,6,0,P|130:265|80:270,1,90,2|0,0:0|3:0,0:0:0:0:
275,152,72608,1,2,0:0:0:0:
143,354,72758,1,10,0:0:0:0:
3,103,72908,1,2,0:0:0:0:
181,260,73058,2,0,P|187:172|213:78,1,180,2|10,3:2|0:0,0:0:0:0:
283,193,73508,1,0,0:0:0:0:
466,100,73658,6,0,P|400:33|313:55,1,180,6|8,3:2|0:0,0:0:0:0:
270,296,74108,1,2,0:0:0:0:
270,296,74258,2,0,L|379:276,1,90,0|0,0:0|0:0,0:0:0:0:
194,134,74558,2,0,P|189:189|183:233,1,90,10|0,0:0|0:0,0:0:0:0:
477,38,74858,6,0,L|389:54,1,90,6|0,3:2|0:0,0:0:0:0:
270,296,75158,2,0,L|358:312,1,90,8|0,0:0|0:0,0:0:0:0:
197,376,75458,1,8,0:0:0:0:
197,376,75533,1,8,0:0:0:0:
197,376,75608,2,0,P|187:346|188:326,1,45,10|8,0:0|0:0,0:0:0:0:
68,356,75758,2,0,P|79:326|93:311,1,45,10|8,0:0|0:0,0:0:0:0:
305,322,75908,2,0,P|278:305|265:289,1,45,10|8,0:0|0:0,0:0:0:0:
88,127,76058,5,6,3:2:0:0:
253,191,76208,1,0,0:0:0:0:
160,39,76358,5,8,0:0:0:0:
333,184,76508,1,0,0:0:0:0:
181,278,76658,5,8,0:0:0:0:
246,112,76808,1,0,0:0:0:0:
340,264,76958,5,10,0:0:0:0:
109,174,77108,1,2,0:0:0:0:
246,112,77258,5,10,0:0:0:0:
347,344,77408,1,2,0:0:0:0:
101,285,77558,5,10,0:0:0:0:
333,184,77708,1,0,0:0:0:0:
246,356,77858,5,8,0:0:0:0:
174,198,78008,1,0,0:0:0:0:
420,257,78158,5,10,0:0:0:0:
246,112,78308,1,2,0:0:0:0:
338,351,78458,5,6,3:2:0:0:
492,170,78608,1,0,0:0:0:0:
331,265,78758,5,8,0:0:0:0:
374,95,78908,1,0,0:0:0:0:
253,191,79058,5,8,0:0:0:0:
499,250,79208,1,0,0:0:0:0:
399,18,79358,2,0,P|387:70|383:115,1,90,10|0,0:0|0:0,0:0:0:0:
284,357,79658,6,0,P|275:313|260:271,1,90,10|0,0:0|0:0,0:0:0:0:
188,358,79958,1,10,0:0:0:0:
404,258,80108,1,2,0:0:0:0:
253,191,80258,5,8,0:0:0:0:
267,351,80408,1,0,0:0:0:0:
415,112,80558,2,0,L|326:100,1,90,10|0,0:0|0:0,0:0:0:0:
181,278,80858,5,4,3:2:0:0:
79,46,81008,1,0,0:0:0:0:
253,191,81158,5,8,0:0:0:0:
88,127,81308,1,0,0:0:0:0:
326,105,81458,5,8,0:0:0:0:
14,212,81608,1,0,0:0:0:0:
267,351,81758,5,8,0:0:0:0:
183,107,81908,1,0,0:0:0:0:
221,275,82058,5,4,3:2:0:0:
280,28,82208,1,0,0:0:0:0:
420,257,82358,5,8,0:0:0:0:
253,191,82508,1,0,0:0:0:0:
492,170,82658,5,8,0:0:0:0:
181,278,82808,1,0,0:0:0:0:
409,341,82958,5,8,0:0:0:0:
326,105,83108,1,0,0:0:0:0:
101,285,83258,5,12,3:2:0:0:
253,191,83408,1,0,0:0:0:0:
188,358,83558,5,8,3:2:0:0:
246,112,83708,1,0,0:0:0:0:
181,278,83858,5,8,3:2:0:0:
88,127,84008,1,0,0:0:0:0:
413,177,84158,5,10,3:2:0:0:
108,365,84308,1,0,0:0:0:0:
243,26,84458,5,14,3:2:0:0:
347,344,84608,1,0,0:0:0:0:
21,292,84758,1,8,3:2:0:0:
322,38,84908,5,2,0:0:0:0:
267,351,85058,1,8,3:2:0:0:
21,293,85208,1,8,0:0:0:0:
401,52,85358,5,8,0:0:0:0:
401,52,85433,1,8,0:0:0:0:
401,52,85508,2,0,P|392:75|374:96,1,45,8|8,0:0|0:0,0:0:0:0:
188,358,85658,6,0,P|150:324|268:334,1,337.5,6|0,3:2|0:0,0:0:0:0:
272,326,86858,2,0,L|319:322,1,45,4|0,3:0|0:0,0:0:0:0:
