osu file format v14

[General]
AudioFilename: MITAKOTONAI.mp3
AudioLeadIn: 0
PreviewTime: 56783
Countdown: 0
SampleSet: Soft
StackLeniency: 0.2
Mode: 0
LetterboxInBreaks: 1
WidescreenStoryboard: 1

[Editor]
Bookmarks: 4658,5258,8858,11258,18458,37658,51458,52058,55658,56558,66458,80858,85658,85733,85808,85883,85958,86033,86108,86183,86258,86333,86408,86483,86558,86633,86708,86783,86858
DistanceSpacing: 0.2
BeatDivisor: 4
GridSize: 4
TimelineZoom: 4.099998

[Metadata]
Title:Kimi no Bouken (TV Size)
TitleUnicode:キミの冒険 (TV Size)
Artist:Okazaki Taiiku
ArtistUnicode:岡崎体育
Creator:-Zeraora
Version:Error's Extra
Source:ポケットモンスター サン&ムーン
Tags:Your Adventure Pokémon Pokemon ポケモン Pocket Monster Sun and Moon SM Ultra ウルトラ Adventures Anime Alola Opening オープニング OP4 OP 4 Theme テーマ Song 曲 Male Vocal SME Records 野村陽一郎 Yoichiro Nomura bite you death N0thingSpecial Error- MusicLovin MiracleE -Harpuia- -Keitaro CharmCaster
BeatmapID:1978817
BeatmapSetID:918691

[Difficulty]
HPDrainRate:6
CircleSize:4.2
OverallDifficulty:8.6
ApproachRate:9.2
SliderMultiplier:1.7
SliderTickRate:1

[Events]
//Background and Video events
0,0,"lucario.jpg",0,0
//Break Periods
//Storyboard Layer 0 (Background)
//Storyboard Layer 1 (Fail)
//Storyboard Layer 2 (Pass)
//Storyboard Layer 3 (Foreground)
//Storyboard Sound Samples

[TimingPoints]
458,300,4,2,10,40,1,0
458,-133.333333333333,4,2,10,40,0,0
4658,-200,4,2,10,40,0,0
5183,-125,4,2,10,5,0,0
5258,-111.111111111111,4,2,10,55,0,0
8858,-500,4,2,10,65,0,0
10958,-500,4,2,10,20,0,0
11258,-100,4,2,10,70,0,0
18458,-133.333333333333,4,2,10,60,0,0
37058,-125,4,2,10,48,0,0
37358,-125,4,2,10,35,0,0
37658,-142.857142857143,4,2,10,50,0,0
51458,-142.857142857143,4,2,10,35,0,0
52058,-125,4,2,10,60,0,0
54458,-125,4,2,10,40,0,0
54758,-125,4,2,10,45,0,0
55058,-125,4,2,10,50,0,0
55358,-125,4,2,10,55,0,0
55658,-100,4,2,10,70,0,0
56558,-100,4,2,10,30,0,0
56858,-90.9090909090909,4,2,10,70,0,1
75458,-111.111111111111,4,2,10,50,0,0
75758,-111.111111111111,4,2,10,65,0,0
76058,-90.9090909090909,4,2,10,75,0,1
85658,-142.857142857143,4,2,10,75,0,0

[Colours]
Combo1 : 133,194,197
Combo2 : 204,147,147
Combo3 : 125,155,125
SliderBorder : 250,250,250
SliderTrackOverride : 25,0,0

[HitObjects]
122,64,458,6,0,L|57:57,2,63.7500024318696,2|0|2,0:0|0:0|0:0,0:0:0:0:
192,116,908,1,0,0:0:0:0:
264,73,1058,2,0,P|300:60|406:89,1,127.500004863739,2|0,0:0|0:0,0:0:0:0:
457,125,1508,6,0,B|453:182|453:182|460:205|460:205|454:277,1,127.500004863739,2|2,0:0|0:0,0:0:0:0:
416,317,1958,1,2,0:0:0:0:
351,264,2108,1,0,0:0:0:0:
285,321,2258,2,0,P|220:334|142:293,1,127.500004863739,2|2,0:0|0:0,0:0:0:0:
62,118,2858,6,0,L|68:269,1,127.500004863739,2|2,0:0|0:0,0:0:0:0:
233,55,3458,2,0,L|227:206,1,127.500004863739,2|0,0:0|0:0,0:0:0:0:
354,19,4058,1,2,0:0:0:0:
354,19,4658,6,0,P|385:52|481:40,1,127.500004863739,2|0,0:0|0:0,0:0:0:0:
493,35,5258,6,0,B|484:96|484:96|497:135|497:135|484:212,1,152.999995330811,2|10,1:2|1:2,0:0:0:0:
449,273,5708,2,0,P|408:247|353:251,1,76.4999976654054,2|0,0:0|1:2,0:0:0:0:
288,224,6008,2,0,P|267:266|268:327,1,76.4999976654054,2|8,0:0|1:2,0:0:0:0:
317,372,6308,6,0,P|266:340|143:354,1,152.999995330811,2|2,0:0|0:0,0:0:0:0:
78,366,6758,2,0,P|93:312|90:269,1,76.4999976654054,10|0,1:2|0:0,0:0:0:0:
133,213,7058,2,0,P|113:168|72:129,1,76.4999976654054,2|0,1:2|0:0,0:0:0:0:
0,89,7358,2,0,P|81:75|107:69,1,76.4999976654054,10|0,1:2|0:0,0:0:0:0:
188,13,7658,6,0,P|193:48|200:103,1,76.4999976654054,2|0,1:2|0:0,0:0:0:0:
321,199,7958,2,0,P|316:145|311:101,1,76.4999976654054,10|0,1:2|0:0,0:0:0:0:
447,18,8258,1,2,1:2:0:0:
427,183,8408,1,0,0:0:0:0:
309,46,8558,2,0,P|311:92|315:139,1,76.4999976654054,8|0,1:2|0:0,0:0:0:0:
486,203,8858,6,0,B|428:182|428:182|318:199,1,170,6|0,0:0|0:0,0:0:0:0:
123,349,11258,6,0,P|167:340|203:312,1,85,6|0,1:2|1:2,0:0:0:0:
144,172,11558,2,0,P|100:181|64:209,1,85,2|0,0:0|1:2,0:0:0:0:
133,262,11858,1,10,0:0:0:0:
222,87,12008,2,0,L|231:188,1,85,0|0,1:2|0:0,0:0:0:0:
321,302,12308,2,0,L|334:211,1,85,2|0,0:0|1:2,0:0:0:0:
393,62,12608,2,0,P|399:113|401:152,1,85,2|0,0:0|1:2,0:0:0:0:
472,323,12908,2,0,B|480:253|480:253|474:227|474:227|486:144,1,170,2|2,0:0|1:2,0:0:0:0:
333,217,13358,1,2,0:0:0:0:
472,323,13508,1,2,0:0:0:0:
400,146,13658,6,0,P|355:140|316:142,1,85,2|0,1:2|1:2,0:0:0:0:
155,270,13958,2,0,P|208:269|248:262,1,85,2|0,0:0|1:2,0:0:0:0:
269,257,14183,1,0,1:2:0:0:
269,257,14258,1,10,0:0:0:0:
197,85,14408,2,0,P|191:127|192:169,1,85,0|0,1:2|0:0,0:0:0:0:
384,53,14708,6,0,L|288:46,1,85,2|0,0:0|1:2,0:0:0:0:
107,175,15008,2,0,L|203:168,1,85,2|0,0:0|1:2,0:0:0:0:
413,217,15308,2,0,B|316:215|352:280|246:267,1,170,2|2,0:0|1:2,0:0:0:0:
191,168,15758,1,2,0:0:0:0:
233,371,15908,1,2,0:0:0:0:
274,171,16058,6,0,P|225:162|172:175,1,85,2|0,1:2|1:2,0:0:0:0:
34,292,16358,2,0,P|83:301|136:288,1,85,2|0,0:0|1:2,0:0:0:0:
145,277,16583,1,0,1:2:0:0:
145,277,16658,1,10,0:0:0:0:
66,114,16808,2,0,L|75:211,1,85,0|0,1:2|0:0,0:0:0:0:
276,281,17108,6,0,P|271:211|169:171,1,170,10|10,0:0|0:0,0:0:0:0:
145,277,17558,1,2,1:2:0:0:
66,114,17708,1,2,1:2:0:0:
55,306,17858,5,10,0:0:0:0:
143,72,18008,1,2,1:2:0:0:
276,281,18158,1,10,0:0:0:0:
39,195,18308,1,10,0:0:0:0:
234,18,18458,6,0,P|252:76|221:144,1,127.500004863739,6|10,1:2|0:0,0:0:0:0:
166,196,18908,1,2,0:0:0:0:
166,196,19058,2,0,L|175:275,1,63.7500024318696,2|0,1:2|0:0,0:0:0:0:
187,341,19358,1,8,0:0:0:0:
187,341,19508,6,0,B|244:333|244:333|274:339|274:339|338:331,1,127.500004863739,2|2,0:0|0:0,0:0:0:0:
394,314,19958,2,0,P|399:278|388:240,1,63.7500024318696,10|2,0:0|0:0,0:0:0:0:
338,185,20258,1,0,1:2:0:0:
413,169,20408,1,2,0:0:0:0:
487,155,20558,2,0,L|477:64,1,63.7500024318696,10|0,0:0|0:0,0:0:0:0:
384,8,20858,6,0,L|392:72,1,63.7500024318696,2|0,1:2|0:0,0:0:0:0:
336,136,21158,1,10,0:0:0:0:
272,96,21308,1,0,0:0:0:0:
208,140,21458,1,2,1:2:0:0:
140,112,21608,2,0,P|112:160|132:244,1,127.500004863739,2|0,0:0|0:0,0:0:0:0:
168,296,22058,6,0,L|240:276,1,63.7500024318696,2|2,1:2|0:0,0:0:0:0:
288,224,22358,2,0,L|364:236,1,63.7500024318696,8|0,0:0|0:0,0:0:0:0:
428,284,22658,1,2,1:2:0:0:
420,312,22808,1,2,0:0:0:0:
344,352,22958,1,10,0:0:0:0:
352,380,23108,1,0,0:0:0:0:
264,320,23258,6,0,P|224:312|152:360,1,127.500004863739,6|10,1:2|0:0,0:0:0:0:
72,380,23708,1,0,0:0:0:0:
72,380,23858,2,0,L|76:292,1,63.7500024318696,2|2,1:2|0:0,0:0:0:0:
128,256,24158,2,0,L|124:188,1,63.7500024318696,8|2,0:0|0:0,0:0:0:0:
116,104,24458,2,0,P|164:116|240:80,1,127.500004863739,2|10,1:2|0:0,0:0:0:0:
288,28,24908,2,0,L|352:40,1,63.7500024318696,2|0,0:0|1:2,0:0:0:0:
428,8,25208,2,0,L|480:52,1,63.7500024318696,2|8,0:0|0:0,0:0:0:0:
508,128,25508,1,2,0:0:0:0:
508,128,25658,6,0,P|484:156|464:264,1,127.500004863739,2|10,1:2|0:0,0:0:0:0:
496,324,26108,1,2,0:0:0:0:
496,324,26258,2,0,B|416:308|456:364|352:352,1,127.500004863739,2|8,1:2|0:0,0:0:0:0:
272,212,26858,2,0,P|320:224|324:304,1,127.500004863739,2|8,1:2|0:0,0:0:0:0:
272,344,27308,1,2,0:0:0:0:
272,344,27458,2,0,L|200:328,1,63.7500024318696,2|0,1:2|0:0,0:0:0:0:
116,312,27758,2,0,L|124:384,1,63.7500024318696,14|0,0:0|0:0,0:0:0:0:
32,272,28058,6,0,P|36:224|16:132,1,127.500004863739,6|8,1:2|0:0,0:0:0:0:
0,64,28508,1,2,0:0:0:0:
80,80,28658,2,0,P|120:68|144:52,1,63.7500024318696,2|2,1:2|0:0,0:0:0:0:
200,4,28958,1,8,0:0:0:0:
264,60,29108,2,0,B|276:140|248:128|268:208,1,127.500004863739,2|2,0:0|0:0,0:0:0:0:
328,240,29558,2,0,P|360:232|384:196,1,63.7500024318696,10|0,0:0|0:0,0:0:0:0:
444,156,29858,1,2,1:2:0:0:
452,176,30008,1,2,0:0:0:0:
504,248,30158,1,10,0:0:0:0:
496,268,30308,1,0,0:0:0:0:
428,356,30458,5,2,1:2:0:0:
368,308,30608,2,0,L|228:320,1,127.500004863739,2|2,0:0|0:0,0:0:0:0:
152,328,31058,2,0,L|156:256,1,63.7500024318696,2|2,1:2|0:0,0:0:0:0:
208,200,31358,2,0,L|200:136,1,63.7500024318696,8|2,0:0|0:0,0:0:0:0:
272,40,31658,1,2,1:2:0:0:
340,0,31808,2,0,P|372:-4|476:48,1,127.500004863739,2|2,0:0|0:0,0:0:0:0:
488,104,32258,2,0,L|476:176,1,63.7500024318696,2|2,1:2|0:0,0:0:0:0:
428,224,32558,1,8,0:0:0:0:
452,300,32708,1,2,0:0:0:0:
476,376,32858,6,0,B|440:344|440:344|344:368,1,127.500004863739,2|10,1:2|0:0,0:0:0:0:
284,336,33308,1,0,0:0:0:0:
284,336,33458,2,0,L|200:356,1,63.7500024318696,2|2,1:2|0:0,0:0:0:0:
144,368,33758,1,8,0:0:0:0:
136,288,33908,1,2,0:0:0:0:
124,208,34058,2,0,P|168:176|264:196,1,127.500004863739,2|10,1:2|0:0,0:0:0:0:
308,220,34508,1,0,0:0:0:0:
308,220,34658,2,0,L|384:208,1,63.7500024318696,2|0,1:2|0:0,0:0:0:0:
452,196,34958,1,10,0:0:0:0:
440,120,35108,1,2,0:0:0:0:
424,48,35258,6,0,B|384:28|384:28|292:44,1,127.500004863739,2|10,1:2|0:0,0:0:0:0:
228,72,35708,1,2,0:0:0:0:
164,32,35858,2,0,L|96:36,1,63.7500024318696,2|0,1:2|0:0,0:0:0:0:
48,124,36158,2,0,L|111:120,1,63.7500024318696,8|0,0:0|0:0,0:0:0:0:
176,168,36458,2,0,P|192:212|164:312,1,127.500004863739,2|4,1:2|0:0,0:0:0:0:
124,344,36908,1,0,0:0:0:0:
64,288,37058,2,0,L|56:212,1,68,10|10,1:2|1:2,0:0:0:0:
8,144,37358,2,0,L|12:64,1,68,0|0,1:2|1:2,0:0:0:0:
84,32,37658,6,0,P|136:64|208:48,1,118.999996368408,6|0,1:2|0:0,0:0:0:0:
260,24,38108,1,2,1:2:0:0:
260,24,38258,2,0,L|268:92,1,59.4999981842042,8|2,0:0|0:0,0:0:0:0:
336,120,38558,2,0,L|328:188,1,59.4999981842042,0|10,1:2|0:0,0:0:0:0:
312,260,38858,1,2,1:2:0:0:
312,260,39008,1,8,0:0:0:0:
352,336,39158,2,0,L|480:328,2,118.999996368408,2|10|0,1:2|0:0|1:2,0:0:0:0:
132,216,40058,6,0,P|88:216|32:272,1,118.999996368408,4|0,1:2|0:0,0:0:0:0:
60,336,40508,1,2,1:2:0:0:
60,336,40658,2,0,L|128:320,1,59.4999981842042,8|2,0:0|0:0,0:0:0:0:
178,283,40958,2,0,L|242:287,1,59.4999981842042,0|10,1:2|0:0,0:0:0:0:
304,316,41258,1,2,1:2:0:0:
304,316,41408,1,8,0:0:0:0:
368,264,41558,2,0,L|364:124,2,118.999996368408,2|10|0,1:2|0:0|1:2,0:0:0:0:
472,320,42458,6,0,L|468:184,1,118.999996368408,6|2,1:2|0:0,0:0:0:0:
360,96,43058,2,0,L|364:232,1,118.999996368408,10|2,0:0|1:2,0:0:0:0:
312,280,43508,1,8,0:0:0:0:
312,280,43658,2,0,L|248:272,2,59.4999981842042,2|10|2,1:2|0:0|1:2,0:0:0:0:
212,152,44258,1,10,0:0:0:0:
132,244,44558,2,0,P|100:240|72:216,1,59.4999981842042,2|8,1:2|0:0,0:0:0:0:
24,168,44858,6,0,P|32:216|24:308,1,118.999996368408,6|2,1:2|0:0,0:0:0:0:
4,364,45308,1,0,1:2:0:0:
4,364,45458,2,0,P|52:356|140:360,1,118.999996368408,10|2,0:0|1:2,0:0:0:0:
188,332,45908,1,8,0:0:0:0:
188,332,46058,2,0,P|232:336|260:328,2,59.4999981842042,2|8|2,1:2|0:0|1:2,0:0:0:0:
228,176,46658,1,10,0:0:0:0:
340,304,46958,2,0,P|388:296|408:284,1,59.4999981842042,0|10,1:2|0:0,0:0:0:0:
476,288,47258,6,0,P|476:256|464:216,1,59.4999981842042,6|2,1:2|0:0,0:0:0:0:
488,152,47558,2,0,P|468:120|448:96,1,59.4999981842042,2|0,0:0|1:2,0:0:0:0:
396,164,47858,1,10,0:0:0:0:
328,112,48008,2,0,B|264:120|284:160|216:160,1,118.999996368408,2|8,0:0|0:0,0:0:0:0:
156,128,48458,2,0,P|152:92|164:56,1,59.4999981842042,2|8,1:2|0:0,0:0:0:0:
56,24,48758,1,2,1:2:0:0:
64,104,48908,1,2,0:0:0:0:
72,184,49058,2,0,L|80:268,1,59.4999981842042,10|0,0:0|0:0,0:0:0:0:
164,272,49358,2,0,L|160:340,1,59.4999981842042,2|8,1:2|0:0,0:0:0:0:
232,384,49658,6,0,P|252:352|336:348,1,118.999996368408,6|2,1:2|0:0,0:0:0:0:
480,280,50258,2,0,P|460:248|376:244,1,118.999996368408,10|0,0:0|1:2,0:0:0:0:
304,240,50708,1,10,0:0:0:0:
304,240,50858,2,0,L|312:160,2,59.4999981842042,0|10|0,1:2|0:0|1:2,0:0:0:0:
404,324,51458,1,10,0:0:0:0:
456,92,51758,1,0,1:2:0:0:
216,164,52058,5,14,1:2:0:0:
216,164,52358,1,8,1:2:0:0:
420,244,52658,1,10,1:2:0:0:
420,244,52958,1,8,1:2:0:0:
296,80,53258,6,0,L|304:172,1,68,10|0,0:2|1:2,0:0:0:0:
340,220,53558,2,0,L|332:304,1,68,10|0,0:2|1:2,0:0:0:0:
211,180,53858,5,10,0:2:0:0:
184,375,54008,1,0,1:2:0:0:
83,142,54158,1,10,0:2:0:0:
108,346,54308,1,0,1:2:0:0:
190,180,54458,6,0,P|165:177|141:181,3,34,10|10|10|8,1:2|0:2|0:2|0:2,0:0:0:0:
61,242,54758,2,0,P|95:239|117:242,3,34,8|8|10|10,1:2|0:2|0:2|0:2,0:0:0:0:
167,288,55058,6,0,L|209:282,3,34,10|8|8|8,1:2|0:2|0:2|0:2,0:0:0:0:
265,239,55358,2,0,L|316:245,3,34,10|10|10|8,1:2|0:2|0:2|0:2,0:0:0:0:
363,295,55658,5,14,1:2:0:0:
363,295,56558,6,0,L|370:329,5,28.3333333333333,0|0|0|2|2|2,0:0|0:0|0:0|0:0|0:0|0:0,0:0:0:0:
390,343,56858,6,0,P|432:326|489:333,1,93.5000028533936,6|2,1:2|0:0,0:0:0:0:
338,206,57158,2,0,P|273:217|216:203,1,93.5000028533936,8|2,0:0|0:0,0:0:0:0:
137,69,57458,2,0,B|145:129|145:129|135:184|135:184|150:262,1,187.000005706787,2|8,1:2|0:0,0:0:0:0:
246,303,57908,2,0,P|255:244|237:198,1,93.5000028533936,2|0,0:0|1:2,0:0:0:0:
33,239,58208,1,2,0:0:0:0:
148,253,58358,1,10,0:0:0:0:
56,131,58508,1,2,0:0:0:0:
84,360,58658,2,0,L|188:351,1,93.5000028533936,2|0,1:2|1:2,0:0:0:0:
338,220,58958,2,0,L|234:211,1,93.5000028533936,10|0,0:0|0:0,0:0:0:0:
422,60,59258,6,0,P|462:113|417:228,1,187.000005706787,2|10,1:2|0:0,0:0:0:0:
338,220,59708,1,0,0:0:0:0:
233,27,59858,2,0,B|244:97|244:97|236:130|236:130|247:234,1,187.000005706787,2|10,1:2|0:0,0:0:0:0:
456,373,60458,2,0,P|414:320|281:323,1,187.000005706787,2|8,1:2|0:0,0:0:0:0:
216,375,60908,1,2,0:0:0:0:
128,143,61058,2,0,L|124:333,1,187.000005706787,2|8,1:2|0:0,0:0:0:0:
395,172,61658,6,0,B|290:161|323:246|210:230,1,187.000005706787,6|10,1:2|0:0,0:0:0:0:
34,134,62108,2,0,L|133:143,1,93.5000028533936,2|0,0:0|1:2,0:0:0:0:
253,336,62408,2,0,L|154:345,1,93.5000028533936,2|8,1:2|0:0,0:0:0:0:
201,60,62708,6,0,B|238:98|238:98|223:250,1,187.000005706787,2|2,0:0|0:0,0:0:0:0:
110,229,63158,2,0,P|108:174|133:136,1,93.5000028533936,10|0,0:0|0:0,0:0:0:0:
367,277,63458,2,0,P|300:303|224:215,1,187.000005706787,2|10,1:2|0:0,0:0:0:0:
313,159,63908,1,0,0:0:0:0:
466,352,64058,6,0,L|455:144,1,187.000005706787,6|10,1:2|0:0,0:0:0:0:
224,231,64658,2,0,L|235:23,1,187.000005706787,2|10,1:2|0:0,0:0:0:0:
315,156,65108,1,0,0:0:0:0:
512,32,65258,2,0,P|459:6|345:58,1,187.000005706787,2|8,1:2|0:0,0:0:0:0:
315,156,65708,1,2,0:0:0:0:
446,199,65858,2,0,L|434:78,1,93.5000028533936,10|10,1:2|1:2,0:0:0:0:
305,249,66158,2,0,L|317:128,1,93.5000028533936,8|8,0:0|0:0,0:0:0:0:
254,328,66458,6,0,P|300:343|362:323,1,93.5000028533936,6|2,1:2|0:0,0:0:0:0:
314,155,66758,1,8,0:0:0:0:
305,249,66908,1,2,0:0:0:0:
257,86,67058,2,0,P|308:66|408:135,1,187.000005706787,2|8,1:2|0:0,0:0:0:0:
197,238,67508,6,0,L|187:130,1,93.5000028533936,2|0,0:0|1:2,0:0:0:0:
180,20,67808,1,2,0:0:0:0:
85,183,67958,1,10,0:0:0:0:
257,86,68108,1,2,0:0:0:0:
70,0,68258,2,0,B|67:72|67:72|84:108|84:108|86:192,1,187.000005706787,2|10,1:2|0:0,0:0:0:0:
46,265,68708,1,0,0:0:0:0:
274,373,68858,6,0,P|212:325|104:344,1,187.000005706787,2|10,1:2|0:0,0:0:0:0:
46,265,69308,1,0,0:0:0:0:
193,52,69458,2,0,B|227:154|151:144|209:257,1,187.000005706787,2|10,1:2|0:0,0:0:0:0:
446,211,70058,6,0,B|406:179|406:179|238:190,1,187.000005706787,2|8,1:2|0:0,0:0:0:0:
198,234,70508,1,2,0:0:0:0:
277,371,70658,2,0,P|284:309|266:260,1,93.5000028533936,2|2,1:2|1:2,0:0:0:0:
125,100,70958,2,0,P|118:162|136:211,1,93.5000028533936,8|2,0:0|0:0,0:0:0:0:
405,94,71258,6,0,B|302:79|326:154|206:137,1,187.000005706787,6|10,1:2|0:0,0:0:0:0:
117,6,71708,2,0,L|126:123,1,93.5000028533936,2|0,0:0|1:2,0:0:0:0:
47,253,72008,1,2,1:2:0:0:
125,191,72158,1,10,0:0:0:0:
173,344,72308,6,0,P|121:344|72:314,1,93.5000028533936,2|0,0:0|1:2,0:0:0:0:
214,225,72608,1,2,0:0:0:0:
292,371,72758,2,0,L|302:264,1,93.5000028533936,10|0,0:0|0:0,0:0:0:0:
396,96,73058,2,0,B|406:171|406:171|397:217|397:217|408:296,1,187.000005706787,2|10,1:2|0:0,0:0:0:0:
485,303,73508,1,2,0:0:0:0:
306,137,73658,6,0,B|194:141|252:216|129:196,1,187.000005706787,2|10,1:2|0:0,0:0:0:0:
119,54,74108,2,0,P|174:102|128:201,1,187.000005706787,2|2,0:0|1:2,0:0:0:0:
9,138,74558,2,0,L|118:126,1,93.5000028533936,10|0,0:0|0:0,0:0:0:0:
291,26,74858,2,0,P|301:81|296:133,1,93.5000028533936,10|0,1:2|1:2,0:0:0:0:
413,286,75158,2,0,P|402:230|409:166,1,93.5000028533936,10|0,0:0|1:2,0:0:0:0:
298,118,75458,6,0,L|238:125,3,38.2499988327027,6|8|10|8,1:2|0:0|1:2|0:0,0:0:0:0:
170,180,75758,2,0,L|218:186,3,38.2499988327027,10|8|10|8,1:2|0:0|1:2|0:0,0:0:0:0:
54,95,76058,6,0,B|67:179|67:179|56:217|56:217|73:317,1,187.000005706787,14|10,0:2|0:0,0:0:0:0:
157,364,76508,1,0,1:2:0:0:
240,261,76658,2,0,P|288:253|335:262,1,93.5000028533936,10|0,0:0|1:2,0:0:0:0:
469,358,76958,1,10,0:0:0:0:
411,190,77108,1,2,1:2:0:0:
356,353,77258,5,10,0:0:0:0:
487,253,77408,1,2,1:2:0:0:
322,137,77558,2,0,P|312:197|332:253,1,93.5000028533936,8|2,0:0|1:2,0:0:0:0:
488,126,77858,2,0,P|498:66|478:10,1,93.5000028533936,8|0,0:0|1:2,0:0:0:0:
306,20,78158,1,10,0:0:0:0:
411,190,78308,1,2,1:2:0:0:
199,45,78458,6,0,B|196:113|196:113|206:169|206:169|200:248,1,187.000005706787,14|10,0:0|0:0,0:0:0:0:
132,316,78908,1,0,1:2:0:0:
46,159,79058,2,0,P|35:211|36:270,1,93.5000028533936,10|0,0:0|1:2,0:0:0:0:
248,353,79358,2,0,P|246:306|236:260,1,93.5000028533936,10|0,0:0|1:2,0:0:0:0:
55,134,79658,6,0,B|173:121|113:198|243:163,1,187.000005706787,10|10,0:0|0:0,0:0:0:0:
323,29,80108,2,0,P|258:11|207:124,1,187.000005706787,2|0,1:2|1:2,0:0:0:0:
341,216,80558,1,10,0:0:0:0:
341,216,80858,6,0,P|348:160|335:104,1,93.5000028533936,14|0,0:0|1:2,0:0:0:0:
104,240,81158,1,10,0:0:0:0:
112,352,81308,1,0,1:2:0:0:
236,176,81458,1,10,0:0:0:0:
224,344,81608,1,0,1:2:0:0:
96,132,81758,1,10,0:0:0:0:
8,360,81908,1,0,1:2:0:0:
36,64,82058,6,0,P|84:40|140:48,1,93.5000028533936,14|0,0:0|1:2,0:0:0:0:
232,256,82358,1,10,0:0:0:0:
248,56,82508,1,0,1:2:0:0:
144,308,82658,1,10,0:0:0:0:
96,132,82808,1,0,1:2:0:0:
0,360,82958,2,0,L|104:368,1,93.5000028533936,10|0,0:0|1:2,0:0:0:0:
244,144,83258,5,14,0:0:0:0:
220,360,83408,1,2,1:2:0:0:
328,100,83558,5,10,0:0:0:0:
328,304,83708,1,0,1:2:0:0:
420,52,83858,5,14,0:0:0:0:
444,348,84008,1,2,1:2:0:0:
312,76,84158,5,10,0:0:0:0:
512,288,84308,1,0,1:2:0:0:
248,352,84458,6,0,P|240:300|256:252,1,93.5000028533936,14|2,0:0|1:2,0:0:0:0:
480,280,84758,2,0,P|488:332|472:380,1,93.5000028533936,8|2,0:0|1:2,0:0:0:0:
372,160,85058,1,14,0:0:0:0:
504,40,85208,6,0,L|440:48,3,46.7500014266968,8|8|10|8,1:2|0:0|0:0|0:0,0:0:0:0:
368,56,85508,2,0,L|300:64,1,46.7500014266968,8|8,1:2|0:0,0:0:0:0:
49,110,85658,6,0,B|348:99|110:298|476:281,1,475.999985473633,6|8,0:0|1:2,0:0:0:0:
