osu file format v14

[General]
AudioFilename: audio.mp3
AudioLeadIn: 0
PreviewTime: 56886
Countdown: 0
SampleSet: None
StackLeniency: 0.2
Mode: 0
LetterboxInBreaks: 0
WidescreenStoryboard: 1

[Editor]
DistanceSpacing: 2.4
BeatDivisor: 4
GridSize: 4
TimelineZoom: 1.5

[Metadata]
Title:Kimi no Bouken
TitleUnicode:Kimi no Bouken
Artist:Okazaki Taiiku
ArtistUnicode:Okazaki Taiiku
Creator:PurpleSatanWeed
Version:Friendly v2
Source:ポケットモンスター サン&ムーン
Tags:pokemon pokémon pocket monsters sun and moon opening op your adventure nintendo the company game freak
BeatmapID:1888121
BeatmapSetID:904169

[Difficulty]
HPDrainRate:4
CircleSize:4
OverallDifficulty:9
ApproachRate:9.5
SliderMultiplier:1.6
SliderTickRate:1

[Events]
//Background and Video events
0,0,"772997.png",0,0
//Break Periods
2,191486,193161
//Storyboard Layer 0 (Background)
//Storyboard Layer 1 (Fail)
//Storyboard Layer 2 (Pass)
//Storyboard Layer 3 (Foreground)
//Storyboard Sound Samples

[TimingPoints]
486,300,4,2,0,100,1,0
56886,-66.6666666666667,4,2,0,100,0,1
85686,-100,4,2,0,100,0,0
131286,-66.6666666666667,4,2,0,100,0,1
160086,-83.3333333333333,4,2,0,100,0,0
203286,-66.6666666666667,4,2,0,100,0,1
232086,-66.6666666666667,4,2,0,100,0,0

[HitObjects]
111,308,486,6,0,P|94:267|105:205,1,80
278,154,786,1,0,0:0:0:0:
178,238,936,1,0,0:0:0:0:
63,62,1086,2,0,P|109:86|209:61,1,160
361,43,1536,6,0,B|284:81|284:81|265:135|284:172,1,160
352,282,1986,1,0,0:0:0:0:
376,138,2136,1,0,0:0:0:0:
186,232,2286,2,0,P|135:238|85:217,1,80
65,70,2586,1,0,0:0:0:0:
65,70,2736,1,0,0:0:0:0:
316,65,2886,6,0,L|295:151,1,80
176,144,3186,2,0,L|197:230,1,80
334,264,3486,1,0,0:0:0:0:
154,301,3636,1,0,0:0:0:0:
335,279,3786,1,0,0:0:0:0:
152,285,3936,1,0,0:0:0:0:
416,253,4086,6,0,P|415:307|397:345,1,80
255,339,4386,2,0,P|213:317|170:317,1,80
43,361,4686,2,0,B|32:236|32:236|34:188,1,160
33,201,5286,6,0,P|96:222|136:208,1,80
220,134,5586,1,0,0:0:0:0:
204,312,5736,2,0,P|170:342|117:349,1,80
89,64,6036,1,0,0:0:0:0:
22,312,6186,1,0,0:0:0:0:
339,173,6336,6,0,P|305:147|264:144,1,80
88,211,6636,1,0,0:0:0:0:
255,304,6786,1,0,0:0:0:0:
274,59,6936,1,0,0:0:0:0:
194,359,7086,2,0,P|232:383|272:383,1,80
437,188,7386,1,0,0:0:0:0:
452,352,7536,1,0,0:0:0:0:
397,57,7686,6,0,L|303:57,1,80
58,157,7986,2,0,L|153:157,1,80
390,184,8286,1,0,0:0:0:0:
257,317,8436,1,0,0:0:0:0:
124,184,8586,1,0,0:0:0:0:
257,51,8736,1,0,0:0:0:0:
52,349,8886,6,0,P|42:304|42:184,1,160
95,49,9336,1,0,0:0:0:0:
378,181,9486,1,0,0:0:0:0:
256,192,9561,12,0,10986,0:0:0:0:
407,163,11286,6,0,P|368:195|357:233,1,80
304,363,11586,1,0,0:0:0:0:
484,176,11736,1,0,0:0:0:0:
196,161,11886,2,0,P|135:178|91:168,1,80
322,101,12186,1,0,0:0:0:0:
322,101,12261,1,0,0:0:0:0:
322,101,12336,6,0,P|353:64|396:50,1,80
170,224,12636,2,0,P|139:187|96:173,1,80
337,312,12936,2,0,P|384:336|422:330,1,80
224,74,13236,1,0,0:0:0:0:
448,203,13386,1,0,0:0:0:0:
82,311,13536,1,0,0:0:0:0:
67,66,13686,6,0,P|119:87|162:78,1,80
336,34,13986,1,0,0:0:0:0:
321,352,14136,1,0,0:0:0:0:
321,352,14211,1,0,0:0:0:0:
321,352,14286,2,0,P|279:322|235:309,1,80
83,309,14586,1,0,0:0:0:0:
472,201,14736,6,0,L|387:222,1,80
81,128,15036,2,0,L|166:149,1,80
469,105,15336,2,0,P|430:70|370:48,1,80
158,239,15636,1,0,0:0:0:0:
379,130,15786,1,0,0:0:0:0:
155,38,15936,1,0,0:0:0:0:
83,281,16086,6,0,P|116:312|152:324,1,80
440,289,16386,1,0,0:0:0:0:
294,183,16536,1,0,0:0:0:0:
26,339,16686,2,0,P|0:301|2:256,1,80
97,49,16986,1,0,0:0:0:0:
190,300,17136,6,0,L|114:334,1,80
335,163,17436,1,0,0:0:0:0:
400,300,17586,1,0,0:0:0:0:
180,90,17736,2,0,L|148:134,1,40
197,247,17886,1,0,0:0:0:0:
461,173,18036,1,0,0:0:0:0:
247,131,18186,1,0,0:0:0:0:
192,156,18261,1,0,0:0:0:0:
149,197,18336,1,0,0:0:0:0:
121,249,18411,1,0,0:0:0:0:
112,309,18486,6,0,P|63:313|23:292,1,80
88,122,18786,1,0,0:0:0:0:
243,251,18936,1,0,0:0:0:0:
72,67,19086,2,0,L|160:103,1,80
243,251,19386,1,0,0:0:0:0:
423,100,19536,6,0,P|375:116|332:109,1,80
235,143,19836,1,0,0:0:0:0:
370,36,19986,1,0,0:0:0:0:
385,252,20136,1,0,0:0:0:0:
148,89,20286,1,0,0:0:0:0:
317,178,20436,1,0,0:0:0:0:
157,243,20586,1,0,0:0:0:0:
286,49,20736,1,0,0:0:0:0:
75,182,20886,6,0,P|71:138|88:91,1,80
157,243,21186,2,0,P|151:293|125:329,1,80
28,267,21486,1,0,0:0:0:0:
216,348,21636,2,0,P|270:331|322:334,1,80
422,349,21936,1,0,0:0:0:0:
413,102,22086,5,0,0:0:0:0:
380,184,22236,1,0,0:0:0:0:
352,30,22386,1,0,0:0:0:0:
319,112,22536,1,0,0:0:0:0:
156,83,22686,1,0,0:0:0:0:
260,42,22836,1,0,0:0:0:0:
111,195,22986,1,0,0:0:0:0:
67,21,23136,1,0,0:0:0:0:
80,275,23286,6,0,P|125:278|162:263,1,80
262,148,23586,1,0,0:0:0:0:
359,282,23736,1,0,0:0:0:0:
188,349,23886,1,0,0:0:0:0:
305,215,24036,1,0,0:0:0:0:
409,347,24186,1,0,0:0:0:0:
441,70,24336,1,0,0:0:0:0:
239,52,24486,6,0,P|196:56|149:79,1,80
56,222,24786,1,0,0:0:0:0:
374,157,24936,2,0,P|321:145|277:148,1,80
167,333,25236,1,0,0:0:0:0:
310,232,25386,1,0,0:0:0:0:
179,229,25536,1,0,0:0:0:0:
404,327,25686,6,0,P|429:280|438:236,1,80
400,77,25986,1,0,0:0:0:0:
426,161,26136,1,0,0:0:0:0:
253,125,26286,2,0,P|211:105|164:105,1,80
85,328,26586,1,0,0:0:0:0:
85,328,26736,1,0,0:0:0:0:
104,61,26886,6,0,P|86:108|96:139,1,80
253,351,27186,1,0,0:0:0:0:
195,169,27336,1,0,0:0:0:0:
23,318,27486,2,0,L|117:298,1,80
303,253,27786,1,0,0:0:0:0:
340,265,27861,1,0,0:0:0:0:
374,286,27936,1,0,0:0:0:0:
402,314,28011,1,0,0:0:0:0:
423,349,28086,6,0,L|434:245,1,80
400,60,28386,1,0,0:0:0:0:
298,169,28536,1,0,0:0:0:0:
475,130,28686,2,0,L|382:149,1,80
208,107,28986,1,0,0:0:0:0:
171,294,29136,6,0,L|78:332,1,80
146,45,29436,1,0,0:0:0:0:
260,184,29586,1,0,0:0:0:0:
48,178,29736,1,0,0:0:0:0:
144,136,29886,1,0,0:0:0:0:
329,276,30036,1,0,0:0:0:0:
252,315,30186,1,0,0:0:0:0:
346,124,30336,1,0,0:0:0:0:
53,277,30486,5,0,0:0:0:0:
98,50,30636,1,0,0:0:0:0:
160,277,30786,2,0,P|209:288|250:278,1,80
290,58,31086,1,0,0:0:0:0:
323,173,31236,1,0,0:0:0:0:
208,207,31386,1,0,0:0:0:0:
174,91,31536,1,0,0:0:0:0:
478,103,31686,5,0,0:0:0:0:
433,330,31836,1,0,0:0:0:0:
371,103,31986,2,0,P|322:92|281:102,1,80
241,322,32286,1,0,0:0:0:0:
208,207,32436,1,0,0:0:0:0:
323,173,32586,1,0,0:0:0:0:
94,243,32736,1,0,0:0:0:0:
410,265,32886,6,0,L|509:277,1,80
345,370,33186,1,0,0:0:0:0:
443,189,33336,1,0,0:0:0:0:
277,99,33486,2,0,P|218:101|182:85,1,80
76,41,33786,1,0,0:0:0:0:
362,77,33936,1,0,0:0:0:0:
60,130,34086,6,0,P|100:167|155:183,1,80
322,23,34386,2,0,P|274:19|219:41,1,80
54,320,34686,1,0,0:0:0:0:
220,218,34836,1,0,0:0:0:0:
169,362,34986,1,0,0:0:0:0:
73,179,35136,1,0,0:0:0:0:
308,191,35286,6,0,P|356:205|388:236,1,80
293,348,35586,1,0,0:0:0:0:
285,109,35736,1,0,0:0:0:0:
122,304,35886,2,0,P|79:318|29:312,1,80
53,117,36186,1,0,0:0:0:0:
288,261,36336,1,0,0:0:0:0:
26,253,36486,5,0,0:0:0:0:
234,67,36636,1,0,0:0:0:0:
221,332,36786,5,0,0:0:0:0:
49,131,36936,1,0,0:0:0:0:
403,91,37086,5,0,0:0:0:0:
157,294,37236,1,0,0:0:0:0:
171,27,37386,5,0,0:0:0:0:
450,188,37536,1,0,0:0:0:0:
273,350,37686,5,0,0:0:0:0:
196,293,37836,1,0,0:0:0:0:
273,236,37986,1,0,0:0:0:0:
196,179,38136,1,0,0:0:0:0:
273,122,38286,1,0,0:0:0:0:
196,65,38436,1,0,0:0:0:0:
273,8,38586,1,0,0:0:0:0:
273,236,38736,1,0,0:0:0:0:
94,185,38886,5,0,0:0:0:0:
402,146,39036,1,0,0:0:0:0:
57,236,39186,1,0,0:0:0:0:
57,236,39486,2,0,L|51:59,1,160
154,116,39936,1,0,0:0:0:0:
20,350,40086,5,0,0:0:0:0:
154,225,40236,1,0,0:0:0:0:
178,314,40386,1,0,0:0:0:0:
86,288,40536,1,0,0:0:0:0:
246,238,40686,1,0,0:0:0:0:
105,372,40836,1,0,0:0:0:0:
63,207,40986,1,0,0:0:0:0:
337,257,41136,1,0,0:0:0:0:
22,316,41286,5,0,0:0:0:0:
286,186,41436,1,0,0:0:0:0:
43,307,41586,1,0,0:0:0:0:
43,307,41886,2,0,L|50:134,1,160
447,112,42486,6,0,P|366:85|266:114,1,160
43,307,43086,2,0,P|99:255|101:145,1,160
39,68,43536,1,0,0:0:0:0:
220,266,43686,5,0,0:0:0:0:
24,210,43836,1,0,0:0:0:0:
281,171,43986,1,0,0:0:0:0:
262,157,44286,2,0,L|431:138,1,160
360,281,44736,1,0,0:0:0:0:
450,64,44886,6,0,L|283:79,1,160
219,189,45336,1,0,0:0:0:0:
100,97,45486,2,0,P|67:162|76:250,1,160
196,363,45936,1,0,0:0:0:0:
142,181,46086,5,0,0:0:0:0:
55,353,46236,1,0,0:0:0:0:
318,252,46386,1,0,0:0:0:0:
305,269,46686,2,0,L|393:254,1,80
428,100,46986,1,0,0:0:0:0:
400,354,47136,1,0,0:0:0:0:
211,75,47286,5,0,0:0:0:0:
272,199,47436,1,0,0:0:0:0:
311,101,47586,1,0,0:0:0:0:
181,236,47736,1,0,0:0:0:0:
211,75,47886,1,0,0:0:0:0:
53,76,48036,1,0,0:0:0:0:
53,76,48336,1,0,0:0:0:0:
50,331,48486,5,0,0:0:0:0:
133,124,48636,1,0,0:0:0:0:
165,306,48786,1,0,0:0:0:0:
30,211,48936,1,0,0:0:0:0:
255,202,49086,1,0,0:0:0:0:
253,191,49386,1,0,0:0:0:0:
208,28,49536,1,0,0:0:0:0:
348,24,49686,6,0,P|432:42|503:22,1,160
400,174,50136,1,0,0:0:0:0:
439,17,50286,2,0,L|435:176,1,160
354,346,50736,1,0,0:0:0:0:
494,145,50886,5,0,0:0:0:0:
506,329,51036,1,0,0:0:0:0:
275,215,51186,1,0,0:0:0:0:
275,215,51486,2,0,P|215:205|101:248,1,160
46,351,51936,1,0,0:0:0:0:
46,351,52011,1,0,0:0:0:0:
46,351,52086,5,0,0:0:0:0:
109,11,52386,1,0,0:0:0:0:
501,348,52686,5,0,0:0:0:0:
448,2,52986,1,0,0:0:0:0:
167,318,53286,5,0,0:0:0:0:
312,242,53436,1,0,0:0:0:0:
102,231,53586,5,0,0:0:0:0:
330,323,53736,1,0,0:0:0:0:
51,322,53886,5,0,0:0:0:0:
408,206,54036,1,0,0:0:0:0:
43,115,54186,5,0,0:0:0:0:
457,324,54336,1,0,0:0:0:0:
452,80,54486,5,0,0:0:0:0:
402,48,54561,1,0,0:0:0:0:
343,54,54636,1,0,0:0:0:0:
300,94,54711,1,0,0:0:0:0:
290,152,54786,1,0,0:0:0:0:
279,210,54861,1,0,0:0:0:0:
236,250,54936,1,0,0:0:0:0:
178,256,55011,1,0,0:0:0:0:
128,225,55086,5,0,0:0:0:0:
117,175,55161,1,0,0:0:0:0:
158,147,55236,1,0,0:0:0:0:
200,176,55311,1,0,0:0:0:0:
219,227,55386,1,0,0:0:0:0:
204,280,55461,1,0,0:0:0:0:
160,313,55536,1,0,0:0:0:0:
105,312,55611,1,0,0:0:0:0:
62,279,55686,6,0,B|84:221|96:142|66:35|66:35|161:51|229:52|245:41|245:41,1,400
344,35,56586,5,0,0:0:0:0:
321,81,56661,1,0,0:0:0:0:
307,143,56736,1,0,0:0:0:0:
305,218,56811,1,0,0:0:0:0:
326,303,56886,6,0,P|245:301|176:316,1,120.000004577637
82,327,57186,1,0,0:0:0:0:
437,363,57336,1,0,0:0:0:0:
443,62,57486,2,0,P|383:92|309:114,1,120.000004577637
164,48,57786,1,0,0:0:0:0:
54,344,57936,6,0,L|38:219,1,120.000004577637
18,26,58236,1,0,0:0:0:0:
284,240,58386,1,0,0:0:0:0:
308,15,58536,1,0,0:0:0:0:
2,134,58686,2,0,P|62:116|124:112,1,120.000004577637
504,165,58986,2,0,P|428:187|349:194,1,120.000004577637
108,297,59286,5,0,0:0:0:0:
415,89,59436,1,0,0:0:0:0:
108,53,59586,1,0,0:0:0:0:
275,363,59736,1,0,0:0:0:0:
358,49,59886,1,0,0:0:0:0:
147,360,60036,1,0,0:0:0:0:
480,211,60186,1,0,0:0:0:0:
75,188,60336,1,0,0:0:0:0:
404,340,60486,6,0,P|437:257|437:206,1,120.000004577637
388,34,60786,1,0,0:0:0:0:
324,315,60936,1,0,0:0:0:0:
123,274,61086,2,0,P|56:269|-18:286,1,120.000004577637
233,365,61386,1,0,0:0:0:0:
492,219,61536,1,0,0:0:0:0:
231,77,61686,6,0,P|170:69|105:83,1,120.000004577637
139,357,61986,1,0,0:0:0:0:
10,132,62136,1,0,0:0:0:0:
400,183,62286,1,0,0:0:0:0:
224,328,62436,1,0,0:0:0:0:
427,9,62586,1,0,0:0:0:0:
450,335,62736,6,0,P|357:290|311:277,1,120.000004577637
99,360,63036,1,0,0:0:0:0:
443,242,63186,1,0,0:0:0:0:
121,232,63336,1,0,0:0:0:0:
468,72,63486,2,0,P|393:47|319:55,1,120.000004577637
58,333,63786,2,0,P|6:266|0:206,1,120.000004577637
187,20,64086,5,0,0:0:0:0:
288,345,64236,1,0,0:0:0:0:
370,60,64386,5,0,0:0:0:0:
184,351,64536,1,0,0:0:0:0:
100,64,64686,5,0,0:0:0:0:
378,342,64836,1,0,0:0:0:0:
454,130,64986,5,0,0:0:0:0:
82,354,65136,1,0,0:0:0:0:
438,114,65286,6,0,P|356:89|286:92,1,120.000004577637
82,255,65586,1,0,0:0:0:0:
416,252,65736,1,0,0:0:0:0:
92,41,65886,6,0,P|75:110|77:166,1,120.000004577637
110,356,66186,1,0,0:0:0:0:
189,315,66261,1,0,0:0:0:0:
278,300,66336,1,0,0:0:0:0:
366,314,66411,1,0,0:0:0:0:
446,355,66486,6,0,L|453:189,1,120.000004577637
368,29,66786,1,0,0:0:0:0:
434,309,66936,1,0,0:0:0:0:
142,307,67086,2,0,L|0:300,1,120.000004577637
203,62,67386,1,0,0:0:0:0:
81,348,67536,6,0,L|213:351,1,120.000004577637
442,186,67836,1,0,0:0:0:0:
307,378,67986,1,0,0:0:0:0:
481,290,68136,1,0,0:0:0:0:
211,177,68286,2,0,P|142:158|49:160,1,120.000004577637
332,301,68586,2,0,P|362:226|365:167,1,120.000004577637
94,40,68886,5,0,0:0:0:0:
344,111,69036,1,0,0:0:0:0:
122,326,69186,1,0,0:0:0:0:
201,20,69336,1,0,0:0:0:0:
445,248,69486,5,0,0:0:0:0:
50,339,69636,1,0,0:0:0:0:
462,157,69786,5,0,0:0:0:0:
102,67,69936,1,0,0:0:0:0:
62,354,70086,6,0,P|125:358|201:329,1,120.000004577637
341,61,70386,1,0,0:0:0:0:
399,364,70536,1,0,0:0:0:0:
192,94,70686,2,0,P|129:56|70:48,1,120.000004577637
265,360,70986,1,0,0:0:0:0:
108,142,71136,1,0,0:0:0:0:
32,319,71286,6,0,P|102:296|185:296,1,120.000004577637
392,371,71586,1,0,0:0:0:0:
416,67,71736,1,0,0:0:0:0:
486,268,71886,2,0,P|408:285|336:281,1,120.000004577637
120,83,72186,1,0,0:0:0:0:
19,372,72336,6,0,P|54:313|58:238,1,120.000004577637
68,23,72636,1,0,0:0:0:0:
93,347,72786,1,0,0:0:0:0:
282,93,72936,1,0,0:0:0:0:
10,200,73086,2,0,P|75:185|126:213,1,120.000004577637
413,306,73386,1,0,0:0:0:0:
11,240,73536,1,0,0:0:0:0:
480,142,73686,6,0,L|361:97,1,120.000004577637
194,361,73986,1,0,0:0:0:0:
29,128,74136,2,0,L|181:74,1,120.000004577637
457,266,74436,1,0,0:0:0:0:
64,332,74586,2,0,P|42:265|61:207,1,120.000004577637
441,75,74886,6,0,L|297:49,1,120.000004577637
84,47,75186,1,0,0:0:0:0:
197,208,75336,1,0,0:0:0:0:
364,144,75486,5,0,0:0:0:0:
430,172,75561,1,0,0:0:0:0:
459,237,75636,1,0,0:0:0:0:
434,304,75711,1,0,0:0:0:0:
369,336,75786,1,0,0:0:0:0:
300,315,75861,1,0,0:0:0:0:
228,304,75936,1,0,0:0:0:0:
156,313,76011,1,0,0:0:0:0:
92,346,76086,5,0,0:0:0:0:
142,63,76236,1,0,0:0:0:0:
462,264,76386,5,0,0:0:0:0:
28,273,76536,1,0,0:0:0:0:
375,51,76686,5,0,0:0:0:0:
413,369,76836,1,0,0:0:0:0:
171,23,76986,5,0,0:0:0:0:
477,225,77136,1,0,0:0:0:0:
135,352,77286,5,0,0:0:0:0:
296,40,77436,1,0,0:0:0:0:
326,333,77586,5,0,0:0:0:0:
7,312,77736,1,0,0:0:0:0:
451,87,77886,5,0,0:0:0:0:
201,383,78036,1,0,0:0:0:0:
51,99,78186,5,0,0:0:0:0:
472,191,78336,1,0,0:0:0:0:
21,262,78486,5,0,0:0:0:0:
457,234,78636,1,0,0:0:0:0:
211,22,78786,5,0,0:0:0:0:
422,363,78936,1,0,0:0:0:0:
438,82,79086,5,0,0:0:0:0:
33,357,79236,1,0,0:0:0:0:
496,259,79386,5,0,0:0:0:0:
24,50,79536,1,0,0:0:0:0:
88,382,79686,5,0,0:0:0:0:
346,29,79836,1,0,0:0:0:0:
11,215,79986,5,0,0:0:0:0:
415,214,80136,1,0,0:0:0:0:
114,48,80286,5,0,0:0:0:0:
401,346,80436,1,0,0:0:0:0:
277,24,80586,5,0,0:0:0:0:
214,369,80736,1,0,0:0:0:0:
160,44,80886,5,0,0:0:0:0:
369,369,81036,1,0,0:0:0:0:
352,44,81186,5,0,0:0:0:0:
143,369,81336,1,0,0:0:0:0:
147,52,81486,5,0,0:0:0:0:
383,358,81636,1,0,0:0:0:0:
364,52,81786,5,0,0:0:0:0:
128,358,81936,1,0,0:0:0:0:
135,62,82086,5,0,0:0:0:0:
398,346,82236,1,0,0:0:0:0:
376,62,82386,5,0,0:0:0:0:
113,346,82536,1,0,0:0:0:0:
124,73,82686,5,0,0:0:0:0:
410,333,82836,1,0,0:0:0:0:
387,73,82986,5,0,0:0:0:0:
101,333,83136,1,0,0:0:0:0:
474,157,83286,5,0,0:0:0:0:
82,256,83436,1,0,0:0:0:0:
460,267,83586,5,0,0:0:0:0:
56,143,83736,1,0,0:0:0:0:
358,353,83886,5,0,0:0:0:0:
124,30,84036,1,0,0:0:0:0:
145,357,84186,5,0,0:0:0:0:
362,57,84336,1,0,0:0:0:0:
23,62,84486,5,0,0:0:0:0:
185,327,84636,1,0,0:0:0:0:
283,42,84786,5,0,0:0:0:0:
75,337,84936,1,0,0:0:0:0:
149,53,85086,5,0,0:0:0:0:
413,292,85236,2,0,L|428:208,1,60.0000022888184
432,30,85386,6,0,L|395:100,1,60.0000022888184
290,308,85536,1,0,0:0:0:0:
290,308,85611,1,0,0:0:0:0:
290,308,85686,6,0,P|227:322|182:311,1,80
47,320,85986,1,0,0:0:0:0:
225,237,86136,1,0,0:0:0:0:
41,140,86286,2,0,P|94:105|136:101,1,80
269,78,86586,1,0,0:0:0:0:
442,206,86736,6,0,L|333:237,1,80
26,194,87036,2,0,L|138:229,1,80
396,304,87336,2,0,P|347:307|313:294,1,80
234,61,87636,1,0,0:0:0:0:
326,346,87786,1,0,0:0:0:0:
80,287,87936,1,0,0:0:0:0:
389,132,88086,6,0,P|443:115|489:111,1,80
246,360,88386,1,0,0:0:0:0:
246,360,88461,1,0,0:0:0:0:
246,360,88536,1,0,0:0:0:0:
113,48,88686,2,0,P|111:97|127:133,1,80
313,274,88986,1,0,0:0:0:0:
94,281,89136,6,0,L|-16:309,1,80
357,188,89436,2,0,L|460:208,1,80
91,180,89736,2,0,L|-19:208,1,80
405,111,90036,1,0,0:0:0:0:
277,339,90186,1,0,0:0:0:0:
379,16,90336,1,0,0:0:0:0:
55,105,90486,6,0,P|17:135|4:172,1,80
77,345,90786,1,0,0:0:0:0:
194,179,90936,1,0,0:0:0:0:
31,29,91086,2,0,P|92:42|137:40,1,80
255,25,91386,1,0,0:0:0:0:
362,362,91536,6,0,P|386:327|392:279,1,80
328,123,91836,1,0,0:0:0:0:
286,280,91986,1,0,0:0:0:0:
504,100,92136,1,0,0:0:0:0:
192,67,92286,1,0,0:0:0:0:
418,8,92436,1,0,0:0:0:0:
374,222,92586,1,0,0:0:0:0:
309,269,92661,1,0,0:0:0:0:
235,298,92736,1,0,0:0:0:0:
156,307,92811,1,0,0:0:0:0:
77,296,92886,6,0,P|97:248|101:192,1,80
94,68,93186,1,0,0:0:0:0:
206,157,93336,1,0,0:0:0:0:
38,181,93486,2,0,P|73:154|124:148,1,80
253,246,93786,1,0,0:0:0:0:
369,24,93936,6,0,L|352:125,1,80
345,299,94236,1,0,0:0:0:0:
419,181,94386,1,0,0:0:0:0:
199,230,94536,1,0,0:0:0:0:
268,289,94686,1,0,0:0:0:0:
264,169,94836,1,0,0:0:0:0:
112,210,94986,2,0,P|66:218|30:205,1,80
24,33,95286,5,0,0:0:0:0:
110,81,95436,1,0,0:0:0:0:
27,237,95586,1,0,0:0:0:0:
48,153,95736,1,0,0:0:0:0:
256,170,95886,1,0,0:0:0:0:
159,198,96036,2,0,P|166:263|196:294,1,80
270,341,96336,1,0,0:0:0:0:
381,225,96486,5,0,0:0:0:0:
401,319,96636,1,0,0:0:0:0:
275,117,96786,1,0,0:0:0:0:
256,227,96936,1,0,0:0:0:0:
370,34,97086,1,0,0:0:0:0:
411,165,97236,1,0,0:0:0:0:
161,120,97386,1,0,0:0:0:0:
333,104,97536,1,0,0:0:0:0:
144,142,97686,6,0,P|87:161|57:161,1,80
73,27,97986,1,0,0:0:0:0:
237,211,98136,1,0,0:0:0:0:
322,77,98286,1,0,0:0:0:0:
141,204,98436,1,0,0:0:0:0:
339,194,98586,1,0,0:0:0:0:
362,317,98736,1,0,0:0:0:0:
469,15,98886,6,0,P|476:83|468:103,1,80
416,203,99186,1,0,0:0:0:0:
326,77,99336,2,0,P|285:77|232:98,1,80
186,187,99636,2,0,P|135:202|89:196,1,80
54,82,99936,1,0,0:0:0:0:
38,256,100086,6,0,L|19:346,1,80
200,357,100386,2,0,L|186:277,1,80
349,193,100686,1,0,0:0:0:0:
313,320,100836,1,0,0:0:0:0:
450,215,100986,1,0,0:0:0:0:
242,164,101136,1,0,0:0:0:0:
358,34,101286,6,0,P|419:14|461:10,1,80
446,296,101586,1,0,0:0:0:0:
451,127,101736,1,0,0:0:0:0:
212,198,101886,1,0,0:0:0:0:
403,229,102036,1,0,0:0:0:0:
111,283,102186,1,0,0:0:0:0:
339,149,102336,1,0,0:0:0:0:
47,179,102486,6,0,P|18:150|-32:136,1,80
16,350,102786,1,0,0:0:0:0:
159,176,102936,1,0,0:0:0:0:
58,25,103086,2,0,P|106:40|155:36,1,80
302,77,103386,1,0,0:0:0:0:
178,105,103536,1,0,0:0:0:0:
380,45,103686,6,0,P|383:94|368:131,1,80
351,146,103911,2,0,P|334:191|330:222,1,80
346,251,104136,1,0,0:0:0:0:
463,128,104286,1,0,0:0:0:0:
221,118,104436,1,0,0:0:0:0:
450,6,104586,1,0,0:0:0:0:
463,240,104736,1,0,0:0:0:0:
174,251,104886,5,0,0:0:0:0:
362,97,105036,1,0,0:0:0:0:
77,119,105186,1,0,0:0:0:0:
162,137,105336,1,0,0:0:0:0:
32,59,105486,2,0,P|4:93|3:134,1,80
85,296,105786,1,0,0:0:0:0:
85,296,105936,1,0,0:0:0:0:
273,142,106086,5,0,0:0:0:0:
85,296,106236,1,0,0:0:0:0:
370,274,106386,1,0,0:0:0:0:
285,256,106536,1,0,0:0:0:0:
415,334,106686,2,0,P|443:300|444:259,1,80
362,97,106986,1,0,0:0:0:0:
268,324,107136,1,0,0:0:0:0:
122,113,107286,6,0,P|81:57|80:27,1,80
208,157,107586,2,0,P|169:201|121:205,1,80
27,130,107886,1,0,0:0:0:0:
201,41,108036,1,0,0:0:0:0:
354,215,108186,1,0,0:0:0:0:
138,143,108336,1,0,0:0:0:0:
378,55,108486,5,0,0:0:0:0:
464,158,108636,1,0,0:0:0:0:
163,231,108786,5,0,0:0:0:0:
255,128,108936,1,0,0:0:0:0:
419,310,109086,5,0,0:0:0:0:
274,333,109236,1,0,0:0:0:0:
120,29,109386,5,0,0:0:0:0:
180,120,109536,1,0,0:0:0:0:
394,44,109686,6,0,P|344:41|296:57,1,80
64,140,109986,2,0,P|88:195|78:247,1,80
77,352,110286,1,0,0:0:0:0:
363,233,110436,1,0,0:0:0:0:
68,326,110586,1,0,0:0:0:0:
371,258,110736,1,0,0:0:0:0:
11,215,110886,6,0,P|33:162|80:141,1,80
317,164,111186,1,0,0:0:0:0:
90,240,111336,1,0,0:0:0:0:
462,162,111486,1,0,0:0:0:0:
132,56,111636,1,0,0:0:0:0:
310,347,111786,1,0,0:0:0:0:
338,4,111936,1,0,0:0:0:0:
104,181,112086,5,0,0:0:0:0:
198,132,112236,1,0,0:0:0:0:
218,310,112386,1,0,0:0:0:0:
205,222,112536,1,0,0:0:0:0:
379,236,112686,1,0,0:0:0:0:
288,248,112836,1,0,0:0:0:0:
446,146,112986,1,0,0:0:0:0:
361,153,113136,1,0,0:0:0:0:
457,63,113286,5,0,0:0:0:0:
446,300,113436,1,0,0:0:0:0:
315,64,113586,1,0,0:0:0:0:
344,34,113886,2,0,P|281:50|173:40,1,160
74,50,114336,1,0,0:0:0:0:
155,269,114486,5,0,0:0:0:0:
119,141,114636,1,0,0:0:0:0:
255,205,114786,1,0,0:0:0:0:
85,223,114936,1,0,0:0:0:0:
249,114,115086,1,0,0:0:0:0:
262,324,115236,1,0,0:0:0:0:
359,140,115386,1,0,0:0:0:0:
188,270,115536,1,0,0:0:0:0:
95,91,115686,5,0,0:0:0:0:
184,296,115836,1,0,0:0:0:0:
130,61,115986,1,0,0:0:0:0:
102,39,116286,2,0,P|186:72|268:58,1,160
479,87,116886,6,0,P|429:108|379:221,1,160
469,328,117486,2,0,P|370:359|290:323,1,160
208,223,117936,1,0,0:0:0:0:
105,361,118086,6,0,L|138:186,1,160
158,81,118536,1,0,0:0:0:0:
83,41,118686,2,0,L|264:67,1,160
303,115,119136,1,0,0:0:0:0:
399,218,119286,6,0,P|352:250|244:231,1,160
176,158,119736,1,0,0:0:0:0:
80,333,119886,2,0,P|163:312|236:333,1,160
356,362,120336,1,0,0:0:0:0:
414,134,120486,5,0,0:0:0:0:
488,314,120636,1,0,0:0:0:0:
226,172,120786,1,0,0:0:0:0:
210,191,121086,2,0,P|165:224|49:209,1,160
47,92,121536,1,0,0:0:0:0:
50,322,121686,5,0,0:0:0:0:
64,219,121836,1,0,0:0:0:0:
148,264,121986,1,0,0:0:0:0:
124,145,122136,1,0,0:0:0:0:
299,169,122286,1,0,0:0:0:0:
207,192,122436,1,0,0:0:0:0:
204,211,122736,1,0,0:0:0:0:
385,102,122886,5,0,0:0:0:0:
190,109,123036,1,0,0:0:0:0:
399,127,123186,1,0,0:0:0:0:
437,97,123486,2,0,L|412:272,1,160
444,344,123936,1,0,0:0:0:0:
303,324,124086,6,0,P|242:306|135:335,1,160
45,88,124686,2,0,L|33:261,1,160
122,338,125136,1,0,0:0:0:0:
235,128,125286,5,0,0:0:0:0:
114,168,125436,1,0,0:0:0:0:
357,205,125586,1,0,0:0:0:0:
357,205,125886,5,0,0:0:0:0:
107,54,126186,1,0,0:0:0:0:
73,317,126486,5,0,0:0:0:0:
451,222,126786,1,0,0:0:0:0:
68,145,127086,5,0,0:0:0:0:
462,74,127386,1,0,0:0:0:0:
96,308,127686,5,0,0:0:0:0:
462,266,127836,1,0,0:0:0:0:
95,231,127986,5,0,0:0:0:0:
453,230,128136,1,0,0:0:0:0:
105,147,128286,5,0,0:0:0:0:
455,190,128436,1,0,0:0:0:0:
142,72,128586,5,0,0:0:0:0:
471,153,128736,1,0,0:0:0:0:
176,47,128886,5,0,0:0:0:0:
118,63,128961,1,0,0:0:0:0:
75,103,129036,1,0,0:0:0:0:
55,159,129111,1,0,0:0:0:0:
64,218,129186,1,0,0:0:0:0:
99,266,129261,1,0,0:0:0:0:
152,293,129336,1,0,0:0:0:0:
211,292,129411,1,0,0:0:0:0:
264,263,129486,5,0,0:0:0:0:
308,209,129561,1,0,0:0:0:0:
341,148,129636,1,0,0:0:0:0:
362,81,129711,1,0,0:0:0:0:
370,17,129786,5,0,0:0:0:0:
370,97,129861,1,0,0:0:0:0:
370,177,129936,1,0,0:0:0:0:
370,257,130011,1,0,0:0:0:0:
370,337,130086,6,0,B|264:320|168:269|168:269|228:309|234:349|234:349|193:320|128:318,1,400
85,298,130986,5,0,0:0:0:0:
84,230,131061,1,0,0:0:0:0:
112,155,131136,1,0,0:0:0:0:
178,91,131211,1,0,0:0:0:0:
273,48,131286,6,0,P|339:78|415:89,1,120.000004577637
337,277,131586,1,0,0:0:0:0:
409,10,131736,1,0,0:0:0:0:
411,338,131886,2,0,P|338:375|261:363,1,120.000004577637
110,134,132186,1,0,0:0:0:0:
457,97,132336,6,0,L|411:237,1,120.000004577637
106,313,132636,1,0,0:0:0:0:
300,45,132786,1,0,0:0:0:0:
300,376,132936,1,0,0:0:0:0:
106,108,133086,1,0,0:0:0:0:
419,211,133236,1,0,0:0:0:0:
102,121,133386,1,0,0:0:0:0:
422,197,133536,1,0,0:0:0:0:
144,269,133686,6,0,P|76:298|7:296,1,120.000004577637
64,29,133986,1,0,0:0:0:0:
55,346,134136,1,0,0:0:0:0:
218,66,134286,2,0,P|275:47|353:50,1,120.000004577637
448,319,134586,1,0,0:0:0:0:
250,186,134736,1,0,0:0:0:0:
32,272,134886,6,0,P|101:322|166:334,1,120.000004577637
390,263,135186,1,0,0:0:0:0:
309,28,135336,1,0,0:0:0:0:
232,322,135486,1,0,0:0:0:0:
395,128,135636,1,0,0:0:0:0:
160,268,135786,1,0,0:0:0:0:
335,72,135936,1,0,0:0:0:0:
26,91,136086,6,0,L|168:127,1,120.000004577637
252,311,136386,1,0,0:0:0:0:
482,106,136536,2,0,L|326:124,1,120.000004577637
116,328,136836,1,0,0:0:0:0:
395,226,136986,1,0,0:0:0:0:
85,43,137136,6,0,P|45:106|44:163,1,120.000004577637
211,365,137436,1,0,0:0:0:0:
202,108,137586,1,0,0:0:0:0:
102,365,137736,1,0,0:0:0:0:
400,58,137886,5,0,0:0:0:0:
64,244,138036,1,0,0:0:0:0:
427,253,138186,1,0,0:0:0:0:
62,99,138336,1,0,0:0:0:0:
442,40,138486,5,0,0:0:0:0:
299,368,138636,1,0,0:0:0:0:
223,31,138786,5,0,0:0:0:0:
372,312,138936,1,0,0:0:0:0:
18,231,139086,5,0,0:0:0:0:
325,79,139236,1,0,0:0:0:0:
417,330,139386,5,0,0:0:0:0:
73,157,139536,1,0,0:0:0:0:
470,81,139686,6,0,P|413:117|358:118,1,120.000004577637
171,302,139986,1,0,0:0:0:0:
391,40,140136,1,0,0:0:0:0:
442,335,140286,2,0,P|372:315|301:314,1,120.000004577637
62,371,140586,1,0,0:0:0:0:
136,298,140661,1,0,0:0:0:0:
165,198,140736,1,0,0:0:0:0:
142,97,140811,1,0,0:0:0:0:
72,20,140886,6,0,L|226:34,1,120.000004577637
285,290,141186,1,0,0:0:0:0:
342,37,141336,1,0,0:0:0:0:
165,198,141486,2,0,P|106:234|41:248,1,120.000004577637
45,68,141786,1,0,0:0:0:0:
297,104,141936,6,0,P|361:115|412:76,1,120.000004577637
380,326,142236,1,0,0:0:0:0:
450,23,142386,1,0,0:0:0:0:
468,268,142536,1,0,0:0:0:0:
256,130,142686,2,0,P|180:109|102:118,1,120.000004577637
97,354,142986,2,0,P|165:308|191:249,1,120.000004577637
206,19,143286,5,0,0:0:0:0:
99,227,143436,1,0,0:0:0:0:
319,92,143586,5,0,0:0:0:0:
405,285,143736,1,0,0:0:0:0:
198,164,143886,5,0,0:0:0:0:
62,339,144036,1,0,0:0:0:0:
320,221,144186,5,0,0:0:0:0:
500,277,144336,1,0,0:0:0:0:
215,89,144486,6,0,P|134:119|121:149,1,120.000004577637
147,345,144786,1,0,0:0:0:0:
335,139,144936,1,0,0:0:0:0:
83,27,145086,2,0,P|158:46|229:34,1,120.000004577637
442,42,145386,1,0,0:0:0:0:
56,175,145536,1,0,0:0:0:0:
56,175,145611,1,0,0:0:0:0:
56,175,145686,6,0,P|66:249|114:303,1,120.000004577637
324,328,145986,1,0,0:0:0:0:
19,337,146136,2,0,P|92:367|153:345,1,120.000004577637
162,180,146436,1,0,0:0:0:0:
321,214,146586,1,0,0:0:0:0:
452,355,146736,6,0,L|468:221,1,120.000004577637
479,10,147036,1,0,0:0:0:0:
294,202,147186,1,0,0:0:0:0:
496,133,147336,1,0,0:0:0:0:
203,65,147486,5,0,0:0:0:0:
357,108,147636,1,0,0:0:0:0:
140,251,147786,1,0,0:0:0:0:
298,35,147936,1,0,0:0:0:0:
366,306,148086,6,0,P|308:334|247:336,1,120.000004577637
85,97,148386,1,0,0:0:0:0:
45,364,148536,2,0,L|39:227,1,120.000004577637
192,26,148836,1,0,0:0:0:0:
241,237,148986,1,0,0:0:0:0:
43,164,149136,1,0,0:0:0:0:
380,69,149286,6,0,P|405:142|384:196,1,120.000004577637
116,292,149586,1,0,0:0:0:0:
314,138,149736,1,0,0:0:0:0:
92,27,149886,5,0,0:0:0:0:
50,103,149961,1,0,0:0:0:0:
76,187,150036,1,0,0:0:0:0:
153,227,150111,1,0,0:0:0:0:
236,199,150186,1,0,0:0:0:0:
319,168,150261,1,0,0:0:0:0:
396,208,150336,1,0,0:0:0:0:
422,292,150411,1,0,0:0:0:0:
381,369,150486,5,0,0:0:0:0:
432,18,150636,1,0,0:0:0:0:
139,121,150786,5,0,0:0:0:0:
509,146,150936,1,0,0:0:0:0:
71,193,151086,5,0,0:0:0:0:
460,96,151236,1,0,0:0:0:0:
46,97,151386,5,0,0:0:0:0:
475,233,151536,1,0,0:0:0:0:
164,10,151686,5,0,0:0:0:0:
58,366,151836,1,0,0:0:0:0:
430,159,151986,5,0,0:0:0:0:
67,256,152136,1,0,0:0:0:0:
409,283,152286,5,0,0:0:0:0:
70,161,152436,1,0,0:0:0:0:
478,96,152586,5,0,0:0:0:0:
121,317,152736,1,0,0:0:0:0:
372,26,152886,5,0,0:0:0:0:
494,366,153036,1,0,0:0:0:0:
133,176,153186,5,0,0:0:0:0:
472,61,153336,1,0,0:0:0:0:
201,354,153486,5,0,0:0:0:0:
42,52,153636,1,0,0:0:0:0:
469,158,153786,5,0,0:0:0:0:
31,319,153936,1,0,0:0:0:0:
421,118,154086,5,0,0:0:0:0:
29,119,154236,1,0,0:0:0:0:
445,333,154386,5,0,0:0:0:0:
334,30,154536,1,0,0:0:0:0:
109,370,154686,5,0,0:0:0:0:
472,233,154836,1,0,0:0:0:0:
196,7,154986,5,0,0:0:0:0:
279,353,155136,1,0,0:0:0:0:
445,120,155286,5,0,0:0:0:0:
74,252,155436,1,0,0:0:0:0:
454,153,155586,5,0,0:0:0:0:
66,219,155736,1,0,0:0:0:0:
458,188,155886,5,0,0:0:0:0:
64,186,156036,1,0,0:0:0:0:
455,224,156186,5,0,0:0:0:0:
68,152,156336,1,0,0:0:0:0:
447,258,156486,5,0,0:0:0:0:
78,120,156636,1,0,0:0:0:0:
432,290,156786,5,0,0:0:0:0:
93,91,156936,1,0,0:0:0:0:
412,319,157086,5,0,0:0:0:0:
113,64,157236,1,0,0:0:0:0:
388,344,157386,5,0,0:0:0:0:
137,41,157536,1,0,0:0:0:0:
359,365,157686,5,0,0:0:0:0:
165,23,157836,1,0,0:0:0:0:
152,365,157986,5,0,0:0:0:0:
346,23,158136,1,0,0:0:0:0:
53,229,158286,5,0,0:0:0:0:
444,118,158436,1,0,0:0:0:0:
80,63,158586,5,0,0:0:0:0:
430,289,158736,1,0,0:0:0:0:
384,21,158886,5,0,0:0:0:0:
122,349,159036,1,0,0:0:0:0:
475,348,159186,1,0,0:0:0:0:
70,105,159336,5,0,0:0:0:0:
382,360,159486,1,0,0:0:0:0:
431,18,159636,1,0,0:0:0:0:
72,279,159786,1,0,0:0:0:0:
151,320,159861,1,0,0:0:0:0:
239,340,159936,1,0,0:0:0:0:
329,339,160011,1,0,0:0:0:0:
415,317,160086,6,0,B|373:209|375:132|375:132|289:163|154:154,1,383.99998828125
80,101,160836,1,0,0:0:0:0:
265,57,160986,1,0,0:0:0:0:
208,312,161136,6,0,P|140:312|87:287,1,95.9999970703126
113,32,161436,1,0,0:0:0:0:
47,203,161586,1,0,0:0:0:0:
186,123,161736,2,0,P|255:109|310:118,1,95.9999970703126
446,178,162036,1,0,0:0:0:0:
313,29,162186,1,0,0:0:0:0:
251,285,162336,6,0,P|195:329|145:330,1,95.9999970703126
88,144,162636,1,0,0:0:0:0:
311,209,162786,1,0,0:0:0:0:
108,261,162936,1,0,0:0:0:0:
287,94,163086,1,0,0:0:0:0:
342,330,163236,1,0,0:0:0:0:
418,99,163386,1,0,0:0:0:0:
213,324,163536,1,0,0:0:0:0:
94,101,163686,6,0,P|67:45|71:6,1,95.9999970703126
262,93,163986,1,0,0:0:0:0:
84,229,164136,1,0,0:0:0:0:
170,50,164286,1,0,0:0:0:0:
376,189,164436,1,0,0:0:0:0:
125,295,164586,1,0,0:0:0:0:
287,28,164736,6,0,P|336:75|377:207,1,191.999994140625
280,358,165186,1,0,0:0:0:0:
282,154,165336,1,0,0:0:0:0:
404,321,165486,1,0,0:0:0:0:
187,260,165636,1,0,0:0:0:0:
414,114,165786,1,0,0:0:0:0:
309,258,165936,1,0,0:0:0:0:
186,135,166086,6,0,P|135:110|85:99,1,95.9999970703126
58,319,166386,1,0,0:0:0:0:
262,199,166536,1,0,0:0:0:0:
51,32,166686,1,0,0:0:0:0:
115,208,166836,1,0,0:0:0:0:
339,31,166986,1,0,0:0:0:0:
138,74,167136,1,0,0:0:0:0:
138,74,167211,1,0,0:0:0:0:
138,74,167286,6,0,P|143:149|113:274,1,191.999994140625
20,360,167736,1,0,0:0:0:0:
20,360,167811,1,0,0:0:0:0:
20,360,167886,2,0,P|110:337|215:359,1,191.999994140625
377,379,168336,1,0,0:0:0:0:
399,351,168411,1,0,0:0:0:0:
415,321,168486,6,0,P|422:260|416:210,1,95.9999970703126
336,56,168786,1,0,0:0:0:0:
275,279,168936,1,0,0:0:0:0:
231,54,169086,1,0,0:0:0:0:
228,281,169236,1,0,0:0:0:0:
92,62,169386,1,0,0:0:0:0:
184,285,169536,1,0,0:0:0:0:
434,130,169686,6,0,P|377:109|300:109,1,95.9999970703126
80,317,169986,1,0,0:0:0:0:
217,138,170136,1,0,0:0:0:0:
368,336,170286,2,0,P|423:353|467:342,1,95.9999970703126
415,26,170586,1,0,0:0:0:0:
421,258,170736,1,0,0:0:0:0:
127,148,170886,6,0,P|148:88|180:67,1,95.9999970703126
366,78,171186,1,0,0:0:0:0:
366,307,171336,1,0,0:0:0:0:
66,211,171486,2,0,P|43:160|51:113,1,95.9999970703126
220,14,171786,1,0,0:0:0:0:
391,190,171936,1,0,0:0:0:0:
45,325,172086,6,0,P|106:297|144:299,1,95.9999970703126
440,353,172386,1,0,0:0:0:0:
294,211,172536,1,0,0:0:0:0:
53,222,172686,2,0,P|47:160|53:109,1,95.9999970703126
205,48,172986,1,0,0:0:0:0:
143,338,173136,1,0,0:0:0:0:
333,98,173286,6,0,P|406:72|447:74,1,95.9999970703126
467,174,173586,1,0,0:0:0:0:
366,370,173736,1,0,0:0:0:0:
175,169,173886,5,0,0:0:0:0:
276,165,174036,1,0,0:0:0:0:
95,214,174186,2,0,P|85:163|103:118,1,95.9999970703126
305,53,174486,5,0,0:0:0:0:
283,301,174636,1,0,0:0:0:0:
425,135,174786,2,0,P|440:80|442:32,1,95.9999970703126
275,55,175086,6,0,P|206:71|156:72,1,95.9999970703126
61,82,175386,1,0,0:0:0:0:
321,184,175536,1,0,0:0:0:0:
67,324,175686,6,0,P|138:311|197:322,1,95.9999970703126
443,345,175986,1,0,0:0:0:0:
243,195,176136,1,0,0:0:0:0:
272,344,176286,1,0,0:0:0:0:
344,104,176436,1,0,0:0:0:0:
132,229,176586,1,0,0:0:0:0:
370,263,176736,1,0,0:0:0:0:
51,251,176886,6,0,P|58:191|94:155,1,95.9999970703126
201,60,177186,1,0,0:0:0:0:
228,319,177336,1,0,0:0:0:0:
455,144,177486,2,0,P|413:102|352:80,1,95.9999970703126
107,126,177786,1,0,0:0:0:0:
359,204,177936,1,0,0:0:0:0:
45,323,178086,6,0,L|153:301,1,95.9999970703126
463,282,178386,2,0,L|350:249,1,95.9999970703126
74,195,178686,2,0,P|58:143|72:88,1,95.9999970703126
224,36,178986,1,0,0:0:0:0:
257,70,179061,1,0,0:0:0:0:
298,93,179136,1,0,0:0:0:0:
345,104,179211,1,0,0:0:0:0:
393,100,179286,6,0,L|364:215,1,95.9999970703126
356,331,179586,5,0,0:0:0:0:
68,285,179736,1,0,0:0:0:0:
370,218,179886,5,0,0:0:0:0:
83,234,180036,1,0,0:0:0:0:
361,88,180186,5,0,0:0:0:0:
92,190,180336,1,0,0:0:0:0:
267,4,180486,5,0,0:0:0:0:
210,301,180636,1,0,0:0:0:0:
201,68,180786,5,0,0:0:0:0:
314,309,180936,1,0,0:0:0:0:
266,146,181086,5,0,0:0:0:0:
157,378,181236,1,0,0:0:0:0:
149,205,181386,5,0,0:0:0:0:
442,269,181536,1,0,0:0:0:0:
242,345,181686,5,0,0:0:0:0:
327,64,181836,1,0,0:0:0:0:
326,289,181986,5,0,0:0:0:0:
213,53,182136,1,0,0:0:0:0:
142,297,182286,5,0,0:0:0:0:
372,96,182436,1,0,0:0:0:0:
229,340,182586,5,0,0:0:0:0:
64,81,182736,1,0,0:0:0:0:
353,179,182886,5,0,0:0:0:0:
49,251,183036,1,0,0:0:0:0:
397,251,183186,5,0,0:0:0:0:
64,146,183336,1,0,0:0:0:0:
347,359,183486,5,0,0:0:0:0:
302,40,183636,1,0,0:0:0:0:
122,354,183786,5,0,0:0:0:0:
413,135,183936,1,0,0:0:0:0:
58,225,184086,5,0,0:0:0:0:
385,298,184236,1,0,0:0:0:0:
81,142,184386,5,0,0:0:0:0:
404,59,184536,1,0,0:0:0:0:
36,324,184686,5,0,0:0:0:0:
375,229,184836,1,0,0:0:0:0:
53,40,184986,5,0,0:0:0:0:
381,147,185136,1,0,0:0:0:0:
86,365,185286,5,0,0:0:0:0:
186,21,185436,1,0,0:0:0:0:
266,343,185586,5,0,0:0:0:0:
97,72,185736,1,0,0:0:0:0:
421,263,185886,5,0,0:0:0:0:
72,177,186036,1,0,0:0:0:0:
440,130,186186,5,0,0:0:0:0:
63,306,186336,1,0,0:0:0:0:
382,47,186486,5,0,0:0:0:0:
145,356,186636,1,0,0:0:0:0:
223,35,186786,5,0,0:0:0:0:
433,344,186936,1,0,0:0:0:0:
285,45,187086,5,0,0:0:0:0:
79,319,187236,1,0,0:0:0:0:
115,32,187386,5,0,0:0:0:0:
410,258,187536,1,0,0:0:0:0:
74,204,187686,5,0,0:0:0:0:
357,12,187836,1,0,0:0:0:0:
106,233,187986,5,0,0:0:0:0:
452,105,188136,1,0,0:0:0:0:
113,272,188286,5,0,0:0:0:0:
484,225,188436,1,0,0:0:0:0:
93,328,188586,5,0,0:0:0:0:
482,333,188736,1,0,0:0:0:0:
26,343,188886,5,0,0:0:0:0:
256,192,188961,12,0,191286,0:0:0:0:
308,138,193686,6,0,L|283:246,2,95.9999970703126
205,51,194136,1,0,0:0:0:0:
136,168,194286,2,0,P|72:176|-45:125,1,191.999994140625
183,100,194736,6,0,P|215:139|155:254,1,191.999994140625
41,284,195186,1,0,0:0:0:0:
41,284,195336,1,0,0:0:0:0:
184,307,195486,2,0,L|385:324,1,191.999994140625
474,133,196086,6,0,P|398:114|280:166,1,191.999994140625
122,339,196686,2,0,B|170:316|170:316|221:255|221:255|281:223,1,191.999994140625
348,267,197286,6,0,P|354:191|248:147,1,191.999994140625
89,242,197886,2,0,L|86:31,1,191.999994140625
412,76,198486,6,0,P|340:86|228:45,1,191.999994140625
145,165,198936,1,0,0:0:0:0:
145,165,199086,2,0,P|145:243|96:351,1,191.999994140625
222,312,199536,6,0,P|283:281|414:271,1,191.999994140625
416,359,199986,1,0,0:0:0:0:
448,105,200286,2,0,L|245:60,1,191.999994140625
126,160,200736,1,0,0:0:0:0:
88,82,200886,6,0,P|44:119|36:159,1,95.9999970703126
74,287,201186,2,0,P|145:264|190:270,1,95.9999970703126
298,352,201486,2,0,L|302:253,1,95.9999970703126
442,109,201786,2,0,L|390:199,1,95.9999970703126
235,380,202086,5,0,0:0:0:0:
99,93,202536,1,0,0:0:0:0:
99,93,202686,1,0,0:0:0:0:
388,49,202986,5,0,0:0:0:0:
406,118,203061,1,0,0:0:0:0:
385,201,203136,1,0,0:0:0:0:
306,264,203211,1,0,0:0:0:0:
190,267,203286,6,0,P|121:264|29:274,1,120.000004577637
67,364,203586,1,0,0:0:0:0:
439,230,203736,1,0,0:0:0:0:
86,124,203886,2,0,P|51:62|50:-1,1,120.000004577637
61,341,204186,1,0,0:0:0:0:
145,48,204336,6,0,P|225:38|271:50,1,120.000004577637
449,220,204636,1,0,0:0:0:0:
29,170,204786,1,0,0:0:0:0:
451,87,204936,1,0,0:0:0:0:
102,345,205086,5,0,0:0:0:0:
246,17,205236,1,0,0:0:0:0:
438,333,205386,2,0,P|371:290|302:279,1,120.000004577637
18,303,205686,5,0,0:0:0:0:
426,130,205836,1,0,0:0:0:0:
52,107,205986,1,0,0:0:0:0:
475,239,206136,1,0,0:0:0:0:
162,358,206286,5,0,0:0:0:0:
236,11,206436,1,0,0:0:0:0:
424,242,206586,1,0,0:0:0:0:
38,294,206736,1,0,0:0:0:0:
338,97,206886,6,0,P|403:71|468:74,1,120.000004577637
447,359,207186,1,0,0:0:0:0:
315,108,207336,1,0,0:0:0:0:
147,316,207486,2,0,P|90:340|7:343,1,120.000004577637
96,50,207786,2,0,P|158:45|232:61,1,120.000004577637
420,350,208086,6,0,L|440:206,1,120.000004577637
448,25,208386,1,0,0:0:0:0:
164,313,208536,2,0,P|95:342|17:332,1,120.000004577637
459,131,208836,1,0,0:0:0:0:
70,61,208986,1,0,0:0:0:0:
422,348,209136,6,0,P|438:258|434:194,1,120.000004577637
359,24,209436,1,0,0:0:0:0:
259,351,209586,1,0,0:0:0:0:
488,72,209736,1,0,0:0:0:0:
153,218,209886,2,0,P|101:197|64:140,1,120.000004577637
172,32,210186,1,0,0:0:0:0:
92,359,210336,1,0,0:0:0:0:
415,70,210486,5,0,0:0:0:0:
24,296,210636,1,0,0:0:0:0:
469,227,210786,5,0,0:0:0:0:
38,95,210936,1,0,0:0:0:0:
287,371,211086,5,0,0:0:0:0:
352,9,211236,1,0,0:0:0:0:
120,355,211386,5,0,0:0:0:0:
454,112,211536,1,0,0:0:0:0:
66,39,211686,6,0,L|74:159,1,120.000004577637
261,355,211986,1,0,0:0:0:0:
167,39,212136,1,0,0:0:0:0:
7,335,212286,2,0,P|77:310|153:310,1,120.000004577637
454,358,212586,1,0,0:0:0:0:
382,282,212661,1,0,0:0:0:0:
363,181,212736,1,0,0:0:0:0:
400,84,212811,1,0,0:0:0:0:
484,23,212886,6,0,P|423:-8|357:-2,1,120.000004577637
46,198,213186,1,0,0:0:0:0:
479,84,213336,1,0,0:0:0:0:
31,23,213486,2,0,P|44:106|27:165,1,120.000004577637
10,383,213786,1,0,0:0:0:0:
259,209,213936,6,0,P|336:164|394:162,1,120.000004577637
467,351,214236,1,0,0:0:0:0:
322,46,214386,1,0,0:0:0:0:
175,360,214536,1,0,0:0:0:0:
446,208,214686,2,0,P|454:145|430:92,1,120.000004577637
114,65,214986,1,0,0:0:0:0:
472,101,215136,1,0,0:0:0:0:
49,212,215286,5,0,0:0:0:0:
426,61,215436,1,0,0:0:0:0:
85,131,215586,5,0,0:0:0:0:
481,245,215736,1,0,0:0:0:0:
34,318,215886,5,0,0:0:0:0:
451,137,216036,1,0,0:0:0:0:
80,48,216186,5,0,0:0:0:0:
470,335,216336,1,0,0:0:0:0:
34,318,216486,6,0,L|58:158,1,120.000004577637
225,14,216786,1,0,0:0:0:0:
366,369,216936,1,0,0:0:0:0:
73,267,217086,1,0,0:0:0:0:
429,93,217236,1,0,0:0:0:0:
42,100,217386,1,0,0:0:0:0:
466,292,217536,1,0,0:0:0:0:
12,321,217686,6,0,P|-5:250|36:199,1,120.000004577637
444,104,217986,1,0,0:0:0:0:
12,362,218136,1,0,0:0:0:0:
191,40,218286,1,0,0:0:0:0:
442,350,218436,1,0,0:0:0:0:
40,169,218586,1,0,0:0:0:0:
508,48,218736,6,0,P|523:112|496:168,1,120.000004577637
130,350,219036,1,0,0:0:0:0:
459,31,219186,1,0,0:0:0:0:
489,338,219336,1,0,0:0:0:0:
151,141,219486,2,0,P|81:111|29:108,1,120.000004577637
32,370,219786,1,0,0:0:0:0:
248,35,219936,1,0,0:0:0:0:
501,344,220086,6,0,P|490:260|462:205,1,120.000004577637
303,27,220386,1,0,0:0:0:0:
26,311,220536,2,0,P|95:343|160:328,1,120.000004577637
453,57,220836,1,0,0:0:0:0:
80,41,220986,1,0,0:0:0:0:
89,369,221136,1,0,0:0:0:0:
484,136,221286,6,0,L|335:105,1,120.000004577637
53,268,221586,2,0,L|184:218,1,120.000004577637
475,95,221886,5,0,0:0:0:0:
405,66,221961,1,0,0:0:0:0:
331,57,222036,1,0,0:0:0:0:
257,67,222111,1,0,0:0:0:0:
188,95,222186,1,0,0:0:0:0:
128,141,222261,1,0,0:0:0:0:
82,199,222336,1,0,0:0:0:0:
53,268,222411,1,0,0:0:0:0:
42,342,222486,5,0,0:0:0:0:
505,218,222636,1,0,0:0:0:0:
16,141,222786,5,0,0:0:0:0:
500,178,222936,1,0,0:0:0:0:
139,22,223086,5,0,0:0:0:0:
503,272,223236,1,0,0:0:0:0:
367,8,223386,5,0,0:0:0:0:
219,375,223536,1,0,0:0:0:0:
496,116,223686,5,0,0:0:0:0:
7,270,223836,1,0,0:0:0:0:
489,221,223986,5,0,0:0:0:0:
31,127,224136,1,0,0:0:0:0:
503,353,224286,5,0,0:0:0:0:
59,44,224436,1,0,0:0:0:0:
315,382,224586,5,0,0:0:0:0:
232,0,224736,1,0,0:0:0:0:
241,381,224886,5,0,0:0:0:0:
248,4,225036,1,0,0:0:0:0:
473,294,225186,5,0,0:0:0:0:
47,126,225336,1,0,0:0:0:0:
478,49,225486,5,0,0:0:0:0:
90,357,225636,1,0,0:0:0:0:
108,22,225786,5,0,0:0:0:0:
485,253,225936,1,0,0:0:0:0:
3,300,226086,5,0,0:0:0:0:
481,69,226236,1,0,0:0:0:0:
26,248,226386,5,0,0:0:0:0:
502,120,226536,1,0,0:0:0:0:
46,364,226686,5,0,0:0:0:0:
439,17,226836,1,0,0:0:0:0:
284,375,226986,5,0,0:0:0:0:
68,20,227136,1,0,0:0:0:0:
512,105,227286,5,0,0:0:0:0:
0,279,227436,1,0,0:0:0:0:
512,279,227586,5,0,0:0:0:0:
0,105,227736,1,0,0:0:0:0:
512,90,227886,5,0,0:0:0:0:
0,294,228036,1,0,0:0:0:0:
512,294,228186,5,0,0:0:0:0:
0,90,228336,1,0,0:0:0:0:
512,75,228486,5,0,0:0:0:0:
0,309,228636,1,0,0:0:0:0:
512,309,228786,5,0,0:0:0:0:
0,75,228936,1,0,0:0:0:0:
512,60,229086,5,0,0:0:0:0:
0,324,229236,1,0,0:0:0:0:
512,324,229386,5,0,0:0:0:0:
0,60,229536,1,0,0:0:0:0:
512,45,229686,5,0,0:0:0:0:
0,339,229836,1,0,0:0:0:0:
512,339,229986,5,0,0:0:0:0:
0,45,230136,1,0,0:0:0:0:
512,30,230286,5,0,0:0:0:0:
0,354,230436,1,0,0:0:0:0:
512,354,230586,5,0,0:0:0:0:
0,30,230736,1,0,0:0:0:0:
512,15,230886,5,0,0:0:0:0:
0,369,231036,1,0,0:0:0:0:
512,369,231186,5,0,0:0:0:0:
0,15,231336,1,0,0:0:0:0:
512,0,231486,5,0,0:0:0:0:
0,384,231636,1,0,0:0:0:0:
512,384,231786,5,0,0:0:0:0:
0,0,231936,1,0,0:0:0:0:
512,0,232086,6,0,P|442:39|387:41,1,120.000004577637
216,45,232386,1,0,0:0:0:0:
411,208,232536,1,0,0:0:0:0:
122,319,232686,2,0,P|96:253|103:194,1,120.000004577637
321,59,232986,1,0,0:0:0:0:
386,327,233136,6,0,P|317:346|254:333,1,120.000004577637
134,49,233436,2,0,P|161:115|153:171,1,120.000004577637
40,349,233736,2,0,P|102:317|161:317,1,120.000004577637
372,349,234036,1,0,0:0:0:0:
200,129,234186,1,0,0:0:0:0:
107,374,234336,1,0,0:0:0:0:
284,138,234486,6,0,P|271:81|216:43,1,120.000004577637
50,145,234786,1,0,0:0:0:0:
252,258,234936,1,0,0:0:0:0:
252,258,235011,1,0,0:0:0:0:
252,258,235086,2,0,P|320:262|374:233,1,120.000004577637
395,96,235386,1,0,0:0:0:0:
383,361,235536,6,0,P|331:332|267:320,1,120.000004577637
53,348,235836,2,0,P|90:288|97:224,1,120.000004577637
28,88,236136,2,0,P|83:49|137:41,1,120.000004577637
314,88,236436,1,0,0:0:0:0:
187,315,236586,1,0,0:0:0:0:
110,130,236736,1,0,0:0:0:0:
389,53,236886,6,0,P|392:119|355:164,1,120.000004577637
148,39,237186,1,0,0:0:0:0:
75,306,237336,1,0,0:0:0:0:
75,306,237411,1,0,0:0:0:0:
75,306,237486,2,0,P|134:266|207:264,1,120.000004577637
415,332,237786,1,0,0:0:0:0:
436,144,237936,6,0,L|448:16,1,120.000004577637
268,90,238236,1,0,0:0:0:0:
416,270,238386,1,0,0:0:0:0:
381,47,238536,1,0,0:0:0:0:
161,276,238686,5,0,0:0:0:0:
438,200,238836,1,0,0:0:0:0:
42,115,238986,5,0,0:0:0:0:
384,159,239136,1,0,0:0:0:0:
86,125,239811,6,0,L|142:159,3,60.0000022888184
256,192,241086,5,0,0:0:0:0:
256,192,241161,12,0,247686,0:0:0:0:
