osu file format v14

[General]
AudioFilename: audio.ogg
AudioLeadIn: 0
PreviewTime: 60580
Countdown: 0
SampleSet: Soft
StackLeniency: 0.3
Mode: 0
LetterboxInBreaks: 0
WidescreenStoryboard: 0

[Editor]
Bookmarks: 16367,31600,46833,62057,92524,107747,122980,138213,153447,180105,199146,214380,229613,241038
DistanceSpacing: 1.2
BeatDivisor: 8
GridSize: 4
TimelineZoom: 1.6

[Metadata]
Title:Merry Christmas to You
TitleUnicode:Merry Christmas to You
Artist:Okazaki Ritsuko
ArtistUnicode:岡崎律子
Creator:Aranel
Version:This Song Is About Tragic Love
Source:
Tags:japanese pop jpop love hina ラブ ひな okazaki collection
BeatmapID:3366770
BeatmapSetID:1649475

[Difficulty]
HPDrainRate:4.5
CircleSize:7
OverallDifficulty:7
ApproachRate:7
SliderMultiplier:1.8
SliderTickRate:1

[Events]
//Background and Video events
0,0,"laplandiya-finlyandiya-zima-sneg-5978.jpg",0,0
//Break Periods
//Storyboard Layer 0 (Background)
//Storyboard Layer 1 (Fail)
//Storyboard Layer 2 (Pass)
//Storyboard Layer 3 (Foreground)
//Storyboard Layer 4 (Overlay)
//Storyboard Sound Samples

[TimingPoints]
1115,952.078705172961,4,2,1,35,1,0
1115,-133.333333333333,4,2,1,35,0,0
6827,-200,4,2,1,35,0,0
7541,-200,4,2,1,5,0,0
7779,-200,4,2,1,35,0,0
8493,-200,4,2,1,5,0,0
8731,-133.333333333333,4,2,1,35,0,0
12559,952.078705172961,4,2,1,35,1,0
14463,-250,4,2,1,35,0,0
16129,-250,4,2,1,5,0,0
16367,-100,4,2,1,45,0,0
23745,-250,4,2,1,5,0,0
23983,-100,4,2,1,45,0,0
25293,-100,4,2,1,5,0,0
25412,-100,4,2,1,45,0,0
27197,-100,4,2,1,5,0,0
27316,-100,4,2,1,45,0,0
29577,-100,4,2,1,5,0,0
29696,-100,4,2,1,45,0,0
38979,-100,4,2,1,5,0,0
39217,-100,4,2,1,45,0,0
40526,-100,4,2,1,5,0,0
40645,-100,4,2,1,45,0,0
42430,-100,4,2,1,5,0,0
42549,-100,4,2,1,45,0,0
46833,-86.9565217391304,4,2,1,55,0,0
49095,-86.9565217391304,4,2,1,5,0,0
49214,-86.9565217391304,4,2,1,55,0,0
50633,952.078705172961,4,2,1,55,1,0
50633,-86.9565217391304,4,2,1,55,0,0
59082,-86.9565217391304,4,2,2,35,0,0
59320,-86.9565217391304,4,2,1,55,0,0
62057,-76.9230769230769,4,2,1,65,0,0
67770,-153.846153846154,4,2,1,65,0,0
68722,-76.9230769230769,4,2,1,65,0,0
70031,-76.9230769230769,4,2,1,5,0,0
70150,-76.9230769230769,4,2,1,65,0,0
70507,-76.9230769230769,4,2,1,5,0,0
70626,-76.9230769230769,4,2,1,65,0,0
70983,-76.9230769230769,4,2,1,5,0,0
71102,-76.9230769230769,4,2,1,65,0,0
75268,-76.9230769230769,4,2,1,5,0,0
75387,-133.333333333333,4,2,1,65,0,0
77291,-76.9230769230769,4,2,1,65,0,0
81456,-76.9230769230769,4,2,1,5,0,0
81575,-76.9230769230769,4,2,1,65,0,0
81694,-76.9230769230769,4,2,1,5,0,0
81813,-76.9230769230769,4,2,1,65,0,0
82408,-76.9230769230769,4,2,1,5,0,0
82527,-76.9230769230769,4,2,1,65,0,0
85264,-76.9230769230769,4,2,1,5,0,0
85383,-76.9230769230769,4,2,1,65,0,0
92514,952.078705172961,4,2,1,50,1,0
92514,-90.9090909090909,4,2,1,50,0,0
93823,-90.9090909090909,4,2,1,5,0,0
93942,-90.9090909090909,4,2,1,50,0,0
104772,-86.9565217391304,4,2,2,35,0,0
105010,-86.9565217391304,4,2,1,55,0,0
107747,-100,4,2,1,45,0,0
115125,-100,4,2,1,5,0,0
115363,-100,4,2,1,45,0,0
120957,-100,4,2,1,5,0,0
121076,-100,4,2,1,45,0,0
129645,-125,4,2,1,45,0,0
130359,-125,4,2,1,5,0,0
130597,-100,4,2,1,45,0,0
131906,-100,4,2,1,5,0,0
132025,-100,4,2,1,45,0,0
133810,-100,4,2,1,5,0,0
133929,-100,4,2,1,45,0,0
138213,-86.9565217391304,4,2,1,55,0,0
140474,-86.9565217391304,4,2,1,5,0,0
140593,-86.9565217391304,4,2,1,55,0,0
153447,-76.9230769230769,4,2,1,65,0,0
159159,-153.846153846154,4,2,1,65,0,0
160112,-76.9230769230769,4,2,1,65,0,0
161420,-76.9230769230769,4,2,1,5,0,0
161539,-76.9230769230769,4,2,1,65,0,0
161896,-76.9230769230769,4,2,1,5,0,0
162015,-76.9230769230769,4,2,1,65,0,0
162372,-76.9230769230769,4,2,1,5,0,0
162491,-76.9230769230769,4,2,1,65,0,0
166657,-76.9230769230769,4,2,1,5,0,0
166776,-76.9230769230769,4,2,1,65,0,0
176653,-76.9230769230769,4,2,1,5,0,0
176772,-76.9230769230769,4,2,1,65,0,0
180105,-90.9090909090909,4,2,1,70,0,0
183913,-90.9090909090909,4,2,1,55,0,0
185817,-181.818181818182,4,2,1,55,0,0
186769,-90.9090909090909,4,2,1,55,0,0
195338,-90.9090909090909,4,2,1,55,0,0
196171,-86.9565217391304,4,2,2,45,0,0
196409,-86.9565217391304,4,2,1,55,0,0
197718,-133.333333333333,4,2,1,65,0,0
199146,-133.333333333333,4,2,1,45,0,0
209619,-200,4,2,1,45,0,0
209738,-133.333333333333,4,2,1,5,0,0
210095,-400,4,2,1,45,0,0
212951,-133.333333333333,4,2,1,45,0,0
225805,-333.333333333333,4,2,1,45,0,0
226638,-86.9565217391304,4,2,2,35,0,0
226876,-86.9565217391304,4,2,1,55,0,0
227709,-133.333333333333,4,2,1,45,0,0
232469,-200,4,2,1,45,0,0
233421,-100,4,2,1,55,0,0
235325,-133.333333333333,4,2,1,55,0,0
239134,-266.666666666667,4,2,1,55,0,0
241038,1016.94915254237,4,2,1,35,1,0
241038,-100,4,2,1,35,0,0
241165,-100,4,2,1,35,0,0
244597,-100,4,2,1,5,0,0
244978,-100,4,2,1,5,0,0
245105,-277.777777777778,4,2,2,35,0,0
245169,-222.222222222222,4,2,1,35,0,0
246122,-222.222222222222,4,2,1,30,0,0
247139,-222.222222222222,4,2,1,25,0,0
248156,-222.222222222222,4,2,1,20,0,0
249173,-222.222222222222,4,2,1,15,0,0
251207,-222.222222222222,4,2,1,10,0,0
253241,-222.222222222222,4,2,1,5,0,0
255275,-100,4,2,1,5,0,0

[Colours]
Combo1 : 251,251,0
Combo2 : 192,192,192
Combo3 : 0,151,0
Combo4 : 213,0,0

[HitObjects]
472,300,1115,6,0,B|415:272|362:300|385:318|335:336|279:315,1,202.500007724762,2|2,0:2|0:2,0:0:0:0:
248,352,2781,1,2,0:2:0:0:
248,352,3019,2,0,P|235:293|295:268,1,135.000005149842,2|2,0:2|0:2,0:0:0:0:
294,268,4447,1,2,0:2:0:0:
332,240,4685,1,2,0:2:0:0:
330,192,4923,6,0,L|322:120,1,67.5000025749208,2|0,0:2|0:2,0:0:0:0:
382,212,5875,2,0,L|374:140,1,67.5000025749208,2|0,0:2|0:2,0:0:0:0:
476,273,6827,6,0,L|486:199,1,67.5,2|0,0:2|0:2,0:0:0:0:
440,195,7779,2,0,L|430:261,1,67.5,2|0,0:2|0:2,0:0:0:0:
444,307,8731,6,0,B|439:346|469:375|469:375|434:360|412:387,1,135.000005149842,2|2,0:2|0:2,0:0:0:0:
319,333,10635,2,0,B|324:294|294:265|294:265|326:276|351:253,1,135.000005149842,2|2,0:2|0:2,0:0:0:0:
349,254,12301,1,2,0:2:0:0:
315,216,12559,2,0,B|268:184|176:192|168:308|135:328|92:317,1,270,2|2,0:2|0:2,0:0:0:0:
93,317,14463,2,0,L|71:190,1,126,2|0,0:2|0:2,0:0:0:0:
23,172,16367,6,0,P|40:149|113:159,1,90,4|2,1:2|1:2,0:0:0:0:
71,192,17081,1,2,0:2:0:0:
23,172,17319,1,8,0:2:0:0:
97,145,17795,1,0,0:2:0:0:
199,219,18271,6,0,P|182:196|109:206,1,90,2|2,1:2|1:2,0:0:0:0:
151,239,18985,1,2,0:2:0:0:
199,219,19223,1,8,0:2:0:0:
125,192,19699,1,0,1:2:0:0:
151,239,19937,1,0,1:2:0:0:
178,286,20175,6,0,B|202:298|222:279|211:272|236:253|262:265,1,90,2|0,1:2|1:2,0:0:0:0:
307,286,20889,1,0,1:2:0:0:
264,318,21127,1,8,0:2:0:0:
264,318,21603,5,2,0:2:0:0:
268,371,21841,1,2,0:2:0:0:
217,382,22079,2,0,P|224:342|267:317,1,90,2|2,1:2|1:2,0:0:0:0:
312,341,22793,1,2,1:2:0:0:
268,371,23031,2,0,L|255:226,1,135,8|0,0:2|0:2,0:0:0:0:
221,193,23983,6,0,B|245:95|245:95|225:47,1,135,0|0,1:2|0:2,0:0:0:0:
228,9,24936,2,0,P|182:38|179:68,1,67.5,10|0,0:2|0:2,0:0:0:0:
179,75,25412,1,2,0:2:0:0:
290,0,25888,6,0,P|324:26|335:69,1,90,0|2,1:2|1:2,0:0:0:0:
331,123,26602,1,0,1:2:0:0:
378,98,26840,2,0,P|421:91|454:109,1,67.5,10|0,0:2|0:2,0:0:0:0:
465,114,27316,2,0,B|461:158,1,45,2|0,1:2|1:2,0:0:0:0:
476,210,27792,2,0,B|451:222|432:209|438:202|416:194|391:203,2,90,0|2|8,1:2|1:2|0:2,0:0:0:0:
476,210,29220,6,0,L|486:286,1,67.5,2|0,1:2|0:2,0:0:0:0:
488,303,29696,2,0,B|463:294|441:302|447:309|428:322|403:310,1,90,2|0,1:2|1:2,0:0:0:0:
352,287,30410,1,2,1:2:0:0:
396,256,30648,2,0,P|350:234|303:305,1,135,10|0,0:2|0:2,0:0:0:0:
340,349,31600,6,0,B|313:353|313:353|285:377|285:377|259:380,1,90,4|2,1:2|1:2,0:0:0:0:
205,382,32314,1,2,0:2:0:0:
230,334,32552,1,8,0:2:0:0:
230,334,33028,1,0,0:2:0:0:
41,299,33504,6,0,B|67:303|67:303|96:327|96:327|121:330,1,90,2|2,1:2|1:2,0:0:0:0:
176,332,34218,1,2,0:2:0:0:
151,284,34456,1,8,0:2:0:0:
201,380,34932,1,0,1:2:0:0:
230,334,35170,1,0,1:2:0:0:
259,288,35408,6,0,B|289:298|281:349|310:358,1,90,2|0,1:2|1:2,0:0:0:0:
362,367,36122,1,0,1:2:0:0:
345,315,36360,1,8,0:2:0:0:
345,315,36836,1,2,0:2:0:0:
385,279,37074,1,2,0:2:0:0:
437,291,37312,2,0,P|432:252|382:225,1,90,2|2,1:2|1:2,0:0:0:0:
342,246,38026,1,2,1:2:0:0:
392,225,38264,2,0,P|412:164|378:91,1,135,8|0,0:2|0:2,0:0:0:0:
334,55,39216,6,0,B|240:31|240:31|224:48|207:48,1,135,0|0,1:2|0:2,0:0:0:0:
160,21,40169,2,0,P|114:50|111:80,1,67.5,10|0,0:2|0:2,0:0:0:0:
95,81,40645,2,0,P|84:38|49:10,1,90,2|0,0:2|1:2,0:0:0:0:
160,21,41597,1,2,1:2:0:0:
95,81,42073,2,0,L|83:168,1,67.5,10|0,0:2|0:2,0:0:0:0:
81,174,42549,1,2,1:2:0:0:
81,174,42787,1,0,1:2:0:0:
93,226,43025,6,0,B|68:238|49:225|55:218|33:210|8:219,1,90,2|0,1:2|1:2,0:0:0:0:
134,262,43977,2,0,B|159:274|178:261|172:254|194:246|219:255,2,90,10|2|2,0:2|1:2|1:2,0:0:0:0:
85,266,45167,2,0,L|78:297,2,22.5,8|8|0,0:3|0:3|1:2,0:0:0:0:
58,221,45643,1,0,1:2:0:0:
83,168,45881,2,0,L|75:121,1,45,8|2,0:2|0:2,0:0:0:0:
31,75,46357,1,2,1:2:0:0:
2,139,46595,1,2,1:2:0:0:
94,69,46833,6,0,B|122:55|144:70|138:78|163:87|192:77,1,103.500001974106,6|2,1:2|1:2,0:0:0:0:
192,76,47547,1,2,0:2:0:0:
210,27,47785,2,0,P|246:61|237:110,1,103.500001974106,10|2,0:2|1:2,0:0:0:0:
236,110,48737,6,0,L|253:211,1,77.6250014805794,2|0,1:2|0:2,0:0:0:0:
254,212,49214,1,2,1:2:0:0:
300,234,49452,1,2,0:2:0:0:
334,195,49690,1,10,0:2:0:0:
193,159,50166,5,2,1:2:0:0:
147,137,50404,1,2,1:2:0:0:
107,172,50633,2,0,B|80:217|80:217|97:264,1,103.500001974106,4|2,1:2|1:2,0:0:0:0:
121,311,51347,1,2,0:2:0:0:
98,265,51585,2,0,B|79:214|79:214|31:203,1,103.500001974106,8|2,0:2|1:2,0:0:0:0:
31,203,52537,2,0,L|203:244,1,155.250002961159,2|2,1:2|0:2,0:0:0:0:
217,202,53489,2,0,P|231:250|198:287,1,103.500001974106,10|0,0:2|1:2,0:0:0:0:
147,294,54203,1,0,1:2:0:0:
198,287,54441,6,0,P|230:324|217:372,1,103.500001974106,2|2,1:2|1:2,0:0:0:0:
294,277,55393,2,0,P|285:314|305:346,2,77.6250014805794,10|2|2,0:2|0:2|0:2,0:0:0:0:
333,243,56345,2,0,L|455:271,1,103.500001974106,2|2,1:2|1:2,0:0:0:0:
475,296,57059,2,0,P|484:263|477:238,1,51.7500009870529,2|10,0:2|0:2,0:0:0:0:
441,213,57535,2,0,L|340:189,1,103.500001974106,2|2,0:2|1:2,0:0:0:0:
264,144,58249,6,0,B|295:123|296:79|296:79|313:198|313:198|309:204|309:204|325:316,1,310.500005922318,6|0,1:2|1:2,0:0:0:0:
324,310,60153,2,0,L|274:295,1,51.7500009870529,0|0,1:2|1:2,0:0:0:0:
367,282,60629,2,0,P|371:331|329:365,2,103.500001974106,2|10|2,1:2|2:2|1:2,0:0:0:0:
367,282,62057,5,6,1:2:0:0:
330,236,62295,1,2,0:2:0:0:
351,180,62533,1,2,1:2:0:0:
409,170,62772,1,2,0:2:0:0:
330,236,63010,5,10,0:2:0:0:
271,244,63248,1,2,0:2:0:0:
234,197,63486,1,2,1:2:0:0:
254,143,63725,1,2,0:2:0:0:
271,244,63962,6,0,B|280:300|280:300|279:304|279:304|287:359,1,116.999994644165,2|2,1:2|1:2,0:0:0:0:
287,359,64676,1,2,0:2:0:0:
332,313,64914,1,8,0:2:0:0:
234,197,65390,5,2,1:2:0:0:
234,197,65628,2,0,B|196:175|169:204|179:208|163:230|131:228,1,116.999994644165,2|2,1:2|0:2,0:0:0:0:
73,215,66342,1,2,1:2:0:0:
73,215,66580,1,2,0:2:0:0:
33,258,66818,1,10,0:2:0:0:
15,202,67056,1,2,0:2:0:0:
131,228,67294,1,2,0:2:0:0:
91,271,67532,1,2,0:2:0:0:
55,157,67770,6,0,L|123:173,1,58.4999973220826,2|2,1:2|1:2,0:0:0:0:
111,170,68484,1,2,0:2:0:0:
15,202,68722,1,8,0:2:0:0:
174,124,69198,1,0,1:2:0:0:
174,124,69436,1,0,1:2:0:0:
208,175,69674,6,0,P|249:185|290:154,1,87.749995983124,6|0,1:2|0:2,0:0:0:0:
288,151,70150,2,0,P|258:181|265:232,1,87.749995983124,2|0,1:2|0:2,0:0:0:0:
269,233,70626,2,0,P|257:192|209:172,1,87.749995983124,10|0,0:2|0:2,0:0:0:0:
208,175,71102,1,2,1:2:0:0:
361,266,71578,6,0,B|298:255|311:308|242:286,2,116.999994644165,2|2|10,1:2|1:2|0:2,0:0:0:0:
361,266,72768,1,0,0:2:0:0:
395,333,73006,2,0,P|367:335|340:309,1,58.4999973220826,2|8,1:2|0:2,0:0:0:0:
449,300,73482,2,0,B|475:277|543:293|552:367|510:415|460:392|460:392|454:373|446:371,1,233.999989288331,2|8,1:2|0:2,0:0:0:0:
395,333,74672,1,0,0:2:0:0:
449,300,74911,2,0,L|471:215,1,87.749995983124,0|0,1:2|0:2,0:0:0:0:
479,211,75387,1,2,1:2:0:0:
448,160,75625,1,0,0:2:0:0:
397,186,75863,6,0,L|400:208,2,16.8750006437302,2|0|2,1:2|0:2|0:0,0:0:0:0:
403,219,76339,1,10,0:2:0:0:
256,192,76815,1,2,1:2:0:0:
108,164,77291,5,6,1:2:0:0:
145,210,77529,1,2,0:2:0:0:
29,230,77767,1,2,1:2:0:0:
50,174,78005,1,2,0:2:0:0:
124,266,78242,1,10,0:2:0:0:
66,276,78481,1,2,0:2:0:0:
108,164,78719,1,2,1:2:0:0:
50,174,78957,1,2,0:2:0:0:
145,210,79196,6,0,B|185:220|185:220|175:300,1,116.999994644165,2|2,1:2|1:2,0:0:0:0:
175,295,79910,1,2,0:2:0:0:
108,164,80148,1,8,0:2:0:0:
249,60,80624,5,2,1:2:0:0:
249,60,80861,2,0,B|285:40|317:76|317:76|281:60|249:84,1,146.249993305207,2|0,1:2|0:0,0:0:0:0:
205,78,81575,2,0,P|192:87|182:108,1,29.2499986610413,2|0,1:2|0:0,0:0:0:0:
175,126,81814,1,2,0:2:0:0:
137,169,82051,2,0,P|145:212|172:247,1,87.749995983124,10|0,0:2|0:0,0:0:0:0:
198,260,82528,1,2,0:2:0:0:
198,260,82766,1,2,0:2:0:0:
243,223,83003,6,0,B|261:217|271:198|271:198|258:282,1,116.999994644165,2|2,1:2|1:2,0:0:0:0:
273,333,83717,1,2,0:2:0:0:
225,168,83955,1,8,0:2:0:0:
225,168,84431,1,0,1:2:0:0:
243,223,84669,1,0,1:2:0:0:
318,175,84908,6,0,L|430:161,1,87.749995983124,6|0,1:2|0:2,0:0:0:0:
412,171,85383,1,2,1:2:0:0:
466,193,85621,2,0,P|488:138|480:123,1,58.4999973220826,2|8,0:2|0:2,0:0:0:0:
427,243,86097,2,0,P|398:239|352:171,1,116.999994644165,2|2,0:2|1:2,0:0:0:0:
262,142,86811,2,0,B|325:153|312:100|381:122,2,116.999994644165,2|2|10,1:2|1:2|0:2,0:0:0:0:
262,142,88240,2,0,P|248:118|250:89,1,58.4999973220826,2|8,1:2|0:2,0:0:0:0:
340,59,88716,6,0,B|277:70|290:17|221:39,2,116.999994644165,2|0|8,1:2|1:2|0:2,0:0:0:0:
340,59,89906,1,0,0:0:0:0:
392,30,90144,2,0,P|420:38|438:60,1,58.4999973220826,2|8,1:2|0:0,0:0:0:0:
438,60,90621,1,0,1:2:0:0:
488,107,90859,1,8,2:3:0:0:
488,107,90977,1,8,2:3:0:0:
488,107,91096,2,0,P|494:135|482:161,1,58.4999973220826,2|0,1:2|0:2,0:0:0:0:
442,206,91573,5,8,0:2:0:0:
340,59,92049,1,0,1:2:0:0:
391,86,92286,1,0,1:2:0:0:
331,143,92514,6,0,B|271:160|293:121|231:136,1,99.0000030212403,4|0,1:2|1:2,0:0:0:0:
187,147,93228,1,0,0:0:0:0:
220,183,93466,2,0,L|238:267,1,74.2500022659302,8|0,0:2|0:0,0:0:0:0:
244,281,93942,1,2,1:2:0:0:
244,281,94180,1,2,1:2:0:0:
208,324,94418,6,0,P|161:334|129:300,2,99.0000030212403,2|0|10,1:2|1:2|0:2,0:0:0:0:
176,286,95608,1,0,1:2:0:0:
129,300,95846,1,0,1:2:0:0:
236,373,96322,6,0,P|263:358|294:362,1,49.5000015106202,2|0,1:2|0:0,0:0:0:0:
328,380,96798,1,0,1:2:0:0:
328,380,97036,1,0,0:0:0:0:
371,356,97274,2,0,L|381:293,1,49.5000015106202,10|0,0:2|1:2,0:0:0:0:
416,274,97750,2,0,L|409:209,1,49.5000015106202,2|2,1:2|1:2,0:0:0:0:
361,179,98226,6,0,B|301:162|323:201|261:186,1,99.0000030212403,2|0,1:2|1:2,0:0:0:0:
218,173,98940,1,0,0:0:0:0:
254,139,99178,2,0,P|266:116|264:77,1,49.5000015106202,10|0,0:2|0:0,0:0:0:0:
245,48,99654,1,0,1:2:0:0:
149,75,100130,6,0,P|100:83|100:83,1,49.5000015106202,2|0,1:2|0:0,0:0:0:0:
51,89,100606,2,0,L|59:138,1,49.5000015106202,0|0,1:2|1:2,0:0:0:0:
63,187,101082,2,0,P|112:179|112:179,1,49.5000015106202,10|0,0:2|1:2,0:0:0:0:
162,174,101558,1,2,1:2:0:0:
154,125,101796,1,2,1:2:0:0:
105,129,102034,6,0,B|58:136|58:136|64:192|64:192,1,99.0000030212403,2|0,1:2|1:2,0:0:0:0:
69,236,102748,1,0,0:0:0:0:
117,228,102986,1,10,0:2:0:0:
112,179,103224,1,0,1:2:0:0:
63,187,103462,1,0,1:2:0:0:
175,280,103938,6,0,B|212:299|268:299|293:226|303:182|360:139|457:113|524:191,1,396.000012084961,2|2,1:2|1:2,0:0:0:0:
512,179,106795,5,8,0:2:0:0:
479,216,107033,1,8,0:3:0:0:
481,233,107152,1,8,0:3:0:0:
483,250,107271,1,4,0:3:0:0:
485,267,107390,1,4,0:3:0:0:
487,284,107509,1,8,0:3:0:0:
408,336,107747,6,0,P|382:323|378:250,1,90,4|2,1:2|1:2,0:0:0:0:
418,284,108461,1,2,0:2:0:0:
408,336,108699,1,8,0:2:0:0:
368,268,109175,1,0,0:2:0:0:
270,192,109651,6,0,P|295:204|299:277,1,90,2|2,1:2|1:2,0:0:0:0:
260,244,110365,1,2,0:2:0:0:
270,192,110603,1,8,0:2:0:0:
310,260,111079,1,0,1:2:0:0:
260,244,111317,1,0,1:2:0:0:
210,228,111555,6,0,B|186:216|166:235|177:242|152:261|126:249,2,90,2|0|8,1:2|1:2|0:2,0:0:0:0:
210,228,112983,1,2,1:2:0:0:
260,244,113221,1,2,1:2:0:0:
310,260,113459,2,0,B|340:229|340:229|322:185,1,90,2|2,1:2|1:2,0:0:0:0:
317,136,114173,1,2,1:2:0:0:
362,154,114411,2,0,B|396:241|396:241|367:271,1,135,8|0,0:2|0:2,0:0:0:0:
261,269,115363,6,0,B|298:278|298:278|338:319|338:319|376:329,1,135,0|0,1:2|0:2,0:0:0:0:
429,338,116315,1,10,0:2:0:0:
464,297,116553,1,2,0:0:0:0:
445,246,116792,1,2,1:2:0:0:
445,246,117268,6,0,P|444:213|457:191,1,45,0|0,1:2|0:0,0:0:0:0:
488,166,117744,1,2,1:2:0:0:
376,94,118220,2,0,P|422:119|442:154,1,90,10|2,0:2|1:2,0:0:0:0:
257,57,119172,2,0,P|307:41|346:52,1,90,2|2,1:2|1:2,0:0:0:0:
376,94,119886,1,0,1:0:0:0:
322,100,120124,1,8,0:2:0:0:
223,19,120600,6,0,P|184:4|142:13,1,67.5,2|0,1:2|0:2,0:0:0:0:
134,18,121076,2,0,B|140:43|140:43|168:69|168:69|174:95,1,90,2|0,1:2|1:2,0:0:0:0:
186,147,121790,1,2,0:2:0:0:
133,132,122028,2,0,B|126:157|126:157|98:183|98:183|92:209,1,90,10|0,0:2|0:0,0:0:0:0:
0,286,122980,6,0,B|21:269|42:280|42:280|62:301|89:301,1,90,4|2,1:2|1:2,0:0:0:0:
134,292,123694,1,2,0:2:0:0:
112,341,123932,1,8,0:2:0:0:
112,341,124408,1,0,0:2:0:0:
306,239,124884,6,0,B|285:222|264:233|264:233|244:254|217:254,1,90,2|2,1:2|1:2,0:0:0:0:
172,245,125598,1,2,0:2:0:0:
194,294,125836,1,8,0:2:0:0:
117,237,126312,1,0,1:2:0:0:
148,193,126550,1,0,1:2:0:0:
179,149,126788,6,0,B|219:156|219:156|223:152|223:152|266:158,1,90,2|0,1:2|1:2,0:0:0:0:
318,171,127502,1,0,1:2:0:0:
302,119,127740,1,8,0:2:0:0:
302,119,128216,1,2,1:2:0:0:
266,158,128454,1,2,0:2:0:0:
281,208,128692,6,0,B|274:248|274:248|278:252|278:252|271:295,1,90,2|2,1:2|1:2,0:0:0:0:
260,348,129406,1,2,1:2:0:0:
208,361,129645,2,0,P|221:311|271:295,1,108,8|0,0:2|0:2,0:0:0:0:
343,326,130597,6,0,B|316:318|299:334|306:340|286:352|260:347,1,90,0|0,1:2|1:0,0:0:0:0:
259,347,131311,1,0,1:2:0:0:
271,295,131549,2,0,L|286:219,1,67.5,10|0,0:2|0:2,0:0:0:0:
305,211,132025,2,0,L|286:118,1,90,2|0,1:2|1:2,0:0:0:0:
270,16,132977,1,2,1:2:0:0:
163,33,133453,2,0,L|75:45,1,67.5,8|0,0:2|0:2,0:0:0:0:
70,33,133929,2,0,L|60:93,1,45,0|0,1:2|1:2,0:0:0:0:
14,130,134405,6,0,B|39:118|58:131|52:138|74:146|99:137,1,90,0|2,1:2|1:2,0:0:0:0:
100,137,135357,2,0,L|114:225,1,90,8|2,0:2|1:2,0:0:0:0:
127,279,136071,1,2,0:0:0:0:
75,263,136309,1,0,1:2:0:0:
114,226,136547,2,0,L|120:204,2,22.5,8|8|0,0:3|0:3|1:2,0:0:0:0:
75,263,137023,1,2,0:2:0:0:
127,279,137261,2,0,L|173:290,1,45,8|2,0:2|0:2,0:0:0:0:
216,337,137737,1,2,1:2:0:0:
150,361,137975,1,2,1:2:0:0:
226,274,138213,6,0,B|230:228|230:228|227:222|227:222|230:171,1,103.500001974106,6|2,1:2|1:2,0:0:0:0:
235,120,138927,1,2,0:2:0:0:
276,150,139165,2,0,B|298:140|326:151|326:151|334:123|361:115,1,103.500001974106,10|2,0:2|1:2,0:0:0:0:
360,115,140117,6,0,L|377:216,1,77.6250014805794,2|0,1:2|0:2,0:0:0:0:
378,217,140594,1,2,1:2:0:0:
422,262,140832,1,2,0:2:0:0:
361,325,141070,2,0,P|359:292|372:258,1,51.7500009870529,10|0,0:2|0:0,0:0:0:0:
461,331,141546,2,0,P|433:349|397:354,1,51.7500009870529,2|2,1:2|1:2,0:0:0:0:
297,292,142022,6,0,B|234:294|259:326|203:329,1,103.500001974106,4|2,1:2|1:2,0:0:0:0:
144,311,142736,1,2,0:2:0:0:
189,264,142974,1,8,0:2:0:0:
189,264,143450,1,2,1:2:0:0:
189,264,143926,2,0,B|204:242|199:213|199:213|150:201|150:201|144:175|163:143,1,155.250002961159,2|2,1:2|0:2,0:0:0:0:
272,130,144878,2,0,P|249:143|224:148,1,51.7500009870529,10|0,0:2|0:0,0:0:0:0:
149,60,145354,2,0,P|171:72|188:91,1,51.7500009870529,0|0,1:2|1:2,0:0:0:0:
92,80,145830,6,0,P|94:31|139:-1,1,103.500001974106,2|2,1:2|1:2,0:0:0:0:
42,129,146782,2,0,P|31:91|-13:72,2,77.6250014805794,10|2|2,0:2|0:2|0:2,0:0:0:0:
1,173,147734,2,0,B|39:182|39:182|60:203|60:203|104:214,1,103.500001974106,2|2,1:2|1:2,0:0:0:0:
133,178,148448,2,0,P|144:201|142:227,1,51.7500009870529,2|8,0:2|0:2,0:0:0:0:
149,277,148924,2,0,P|103:260|94:209,1,103.500001974106,2|2,0:2|1:2,0:0:0:0:
158,133,149638,6,0,B|137:121|110:132|110:132|145:96|195:111|174:135|221:149|256:135,1,207.000003948212,4|8,1:2|0:0,0:0:0:0:
309,118,150828,1,8,0:3:0:0:
309,118,150947,1,8,0:3:0:0:
309,118,151066,1,2,1:2:0:0:
296,167,151304,1,8,0:3:0:0:
256,134,151542,1,0,1:2:0:0:
316,47,152018,2,0,B|363:62|363:62|369:72|369:72|409:83,2,103.500001974106,2|10|2,1:2|2:2|1:2,0:0:0:0:
316,47,153447,5,6,1:2:0:0:
272,86,153685,1,2,0:2:0:0:
285,145,153923,1,2,1:2:0:0:
328,105,154161,1,2,0:2:0:0:
216,67,154399,5,8,0:2:0:0:
260,28,154637,1,2,0:2:0:0:
229,126,154875,1,2,1:2:0:0:
272,86,155113,1,2,0:2:0:0:
173,107,155351,6,0,B|140:107|120:85|120:85|117:82|117:82|99:61|66:61,1,116.999994644165,2|2,1:2|1:2,0:0:0:0:
10,66,156065,1,2,0:2:0:0:
44,113,156303,1,8,0:2:0:0:
186,168,156779,5,2,1:2:0:0:
229,126,157017,1,2,1:2:0:0:
130,147,157255,2,0,P|132:190|151:217,1,58.4999973220826,0|2,1:2|0:2,0:0:0:0:
192,227,157731,1,2,1:2:0:0:
192,227,157969,1,2,0:2:0:0:
138,203,158207,1,10,0:2:0:0:
145,262,158445,1,2,0:2:0:0:
241,192,158683,1,2,0:2:0:0:
186,168,158921,1,2,0:2:0:0:
199,286,159159,6,0,L|250:248,1,58.4999973220826,2|2,1:2|1:2,0:0:0:0:
245,251,159873,1,2,0:2:0:0:
145,262,160111,1,8,0:2:0:0:
296,341,160587,1,0,1:2:0:0:
296,341,160825,1,0,1:2:0:0:
342,301,161063,6,0,L|435:328,1,87.749995983124,6|0,1:2|0:2,0:0:0:0:
453,341,161539,2,0,L|429:246,1,87.749995983124,2|0,1:2|0:2,0:0:0:0:
432,224,162015,2,0,L|362:291,1,87.749995983124,10|0,0:2|0:2,0:0:0:0:
342,301,162491,1,2,1:2:0:0:
250,333,162967,6,0,B|313:322|300:375|369:353,2,116.999994644165,2|2|10,1:2|1:2|0:2,0:0:0:0:
250,333,164157,1,0,0:2:0:0:
157,380,164395,2,0,P|185:382|212:356,1,58.4999973220826,2|8,1:2|0:2,0:0:0:0:
234,206,164871,2,0,P|203:239|208:310,2,116.999994644165,2|0|8,1:2|1:0|0:2,0:0:0:0:
287,187,166062,1,0,0:2:0:0:
245,145,166300,2,0,L|223:60,1,87.749995983124,0|0,1:2|0:2,0:0:0:0:
215,56,166776,1,0,1:2:0:0:
249,9,167014,1,0,0:2:0:0:
178,100,167252,6,0,P|150:108|121:103,1,58.4999973220826,2|0,1:2|0:0,0:0:0:0:
38,36,167728,2,0,P|59:55|69:82,1,58.4999973220826,10|8,0:2|0:3,0:0:0:0:
76,114,168085,1,8,0:3:0:0:
76,114,168204,2,0,P|59:138|57:166,1,58.4999973220826,2|0,1:2|0:0,0:0:0:0:
97,235,168680,6,0,B|151:241|151:241|159:237|159:237|213:245,1,116.999994644165,6|2,1:2|1:2,0:0:0:0:
212,244,169394,1,2,0:2:0:0:
259,291,169632,2,0,B|313:285|313:285|321:289|321:289|375:281,1,116.999994644165,8|2,0:2|1:2,0:0:0:0:
374,281,170346,1,2,0:2:0:0:
428,261,170584,6,0,B|438:281|430:303|430:303|460:329|455:367,1,116.999994644165,2|2,1:2|1:2,0:0:0:0:
398,353,171298,1,2,0:2:0:0:
430,303,171536,1,8,0:2:0:0:
305,144,172012,1,2,1:2:0:0:
262,102,172250,1,2,1:2:0:0:
361,123,172488,6,0,P|359:166|340:193,1,58.4999973220826,0|2,1:2|0:2,0:0:0:0:
299,203,172964,1,2,1:2:0:0:
299,203,173202,1,2,0:2:0:0:
353,179,173440,1,10,0:2:0:0:
346,238,173678,1,2,0:2:0:0:
250,168,173916,1,2,0:2:0:0:
305,144,174154,1,2,0:2:0:0:
292,262,174392,6,0,B|231:285|239:240|178:259,1,116.999994644165,2|2,1:2|1:2,0:0:0:0:
124,282,175106,1,2,0:2:0:0:
168,319,175344,1,8,0:2:0:0:
250,168,175820,1,0,1:2:0:0:
250,168,176058,1,0,1:2:0:0:
207,109,176296,6,0,L|95:95,1,87.749995983124,6|0,1:2|0:2,0:0:0:0:
112,90,176772,1,2,1:2:0:0:
58,113,177010,2,0,P|36:58|44:43,1,58.4999973220826,2|8,0:2|0:2,0:0:0:0:
151,8,177487,2,0,P|126:-7|47:14,1,116.999994644165,2|2,0:2|1:2,0:0:0:0:
144,64,178201,2,0,B|210:65|179:19|262:23,2,116.999994644165,2|2|10,1:2|1:2|0:2,0:0:0:0:
224,133,179629,2,0,P|238:108|239:79,1,58.4999973220826,2|8,1:2|0:2,0:0:0:0:
151,8,180105,5,2,0:2:0:0:
105,22,180581,1,2,0:2:0:0:
59,36,180938,1,2,0:2:0:0:
59,36,181057,1,2,0:2:0:0:
59,36,181771,5,2,0:2:0:0:
59,36,182009,1,2,0:2:0:0:
73,82,182485,1,2,0:2:0:0:
87,128,182961,1,2,0:2:0:0:
101,174,183437,1,2,0:2:0:0:
101,174,183913,6,0,B|93:220|93:220|88:223|88:223|81:272,1,99.0000030212403,4|2,1:2|1:2,0:0:0:0:
71,317,184627,1,2,0:2:0:0:
61,365,184865,2,0,P|87:364|107:350,1,49.5000015106202,10|2,0:2|0:2,0:0:0:0:
71,317,185341,2,0,P|57:294|34:284,1,49.5000015106202,2|2,1:2|0:2,0:0:0:0:
24,332,185817,2,0,P|12:355|14:379,2,49.5000015106202,2|0|8,1:2|1:2|0:2,0:0:0:0:
151,207,187245,5,0,1:2:0:0:
151,207,187483,1,0,1:2:0:0:
184,245,187721,2,0,B|234:257|224:217|278:232,2,99.0000030212403,0|0|10,1:2|1:2|2:2,0:0:0:0:
151,207,188911,1,2,0:2:0:0:
134,254,189149,1,2,1:2:0:0:
184,245,189388,1,2,1:2:0:0:
201,198,189626,6,0,B|213:154|213:154|181:107,1,99.0000030212403,4|2,1:2|1:2,0:0:0:0:
248,209,190578,2,0,B|266:145|266:145|234:98,1,99.0000030212403,12|2,0:2|1:2,0:0:0:0:
322,127,191292,1,8,0:3:0:0:
322,127,191411,1,8,0:3:0:0:
322,127,191530,2,0,B|303:190|303:190|322:217,2,99.0000030212403,2|0|10,1:2|1:2|0:2,0:0:0:0:
338,80,192720,1,2,0:2:0:0:
387,71,192958,1,2,1:2:0:0:
419,108,193196,1,2,1:2:0:0:
402,154,193434,5,2,1:2:0:0:
371,117,193672,1,8,0:3:0:0:
371,117,193791,1,8,0:3:0:0:
371,117,193910,1,2,1:2:0:0:
353,163,194148,1,2,0:2:0:0:
322,127,194386,1,8,0:2:0:0:
419,108,194624,1,2,0:2:0:0:
384,200,194862,1,2,0:2:0:0:
384,200,195338,6,0,B|282:252|188:149|241:67|241:67|237:59|237:59|241:67|241:67|311:68|323:131,1,396.000012084961,6|2,1:1|1:1,0:0:0:0:
152,173,197718,2,0,B|118:180|123:159|83:168,2,67.5000025749208,2|10|2,1:2|0:2|1:2,0:0:0:0:
152,173,199146,6,0,L|146:211,1,33.7500012874604,2|2,1:2|0:2,0:0:0:0:
194,203,199622,2,0,L|200:170,1,33.7500012874604,2|2,1:2|0:2,0:0:0:0:
289,122,200098,2,0,L|295:160,1,33.7500012874604,10|2,0:2|0:2,0:0:0:0:
246,152,200574,2,0,L|240:118,1,33.7500012874604,2|2,1:2|0:2,0:0:0:0:
298,64,201050,2,0,B|330:70|330:70|333:75|333:75|363:81,1,67.5000025749208,2|2,1:2|1:2,0:0:0:0:
408,87,201765,1,2,0:2:0:0:
389,43,202003,1,8,0:2:0:0:
389,43,202479,5,2,1:2:0:0:
361,80,202717,2,0,P|354:114|367:149,1,67.5000025749208,2|2,1:2|0:2,0:0:0:0:
397,178,203431,2,0,L|438:184,1,33.7500012874604,2|2,1:2|0:2,0:0:0:0:
356,214,203907,2,0,L|315:220,1,33.7500012874604,10|2,0:2|0:2,0:0:0:0:
345,263,204383,2,0,L|304:269,1,33.7500012874604,2|2,0:2|0:2,0:0:0:0:
386,299,204859,2,0,B|419:305|419:305|421:308|421:308|450:312,1,67.5000025749208,2|2,1:2|1:2,0:0:0:0:
497,320,205573,1,2,0:2:0:0:
468,357,205811,1,8,0:2:0:0:
113,44,206763,21,0,1:2:0:0:
87,106,207239,5,2,1:2:0:0:
61,168,207715,37,8,0:2:0:0:
127,159,208191,5,2,1:2:0:0:
193,150,208667,37,0,1:2:0:0:
153,97,209143,5,2,1:2:0:0:
113,44,209619,38,0,L|111:30,1,11.25,8|0,0:2|0:2,0:0:0:0:
127,159,210095,6,0,L|137:229,1,67.5,2|8,0:2|0:2,0:0:0:0:
136,225,212475,5,0,1:2:0:0:
136,225,212951,2,0,B|102:232|107:211|67:220,2,67.5000025749208,2|10|2,1:2|0:2|0:2,0:0:0:0:
136,225,214379,6,0,L|124:295,1,67.5000025749208,2|2,1:2|1:2,0:0:0:0:
124,291,215094,1,2,0:2:0:0:
174,289,215332,2,0,L|162:359,1,67.5000025749208,8|2,0:2|1:2,0:0:0:0:
162,355,216047,1,2,0:2:0:0:
202,384,216283,2,0,B|232:378|232:378|235:374|235:374|266:369,1,67.5000025749208,2|2,1:2|1:2,0:0:0:0:
313,362,216998,1,2,0:2:0:0:
283,324,217236,1,8,0:2:0:0:
283,324,217712,5,2,1:2:0:0:
283,324,217950,2,0,B|252:318|252:318|249:315|249:315|219:309,1,67.5000025749208,2|2,1:2|0:2,0:0:0:0:
182,277,218664,2,0,L|149:284,1,33.7500012874604,2|2,1:2|0:2,0:0:0:0:
104,270,219140,2,0,L|96:237,1,33.7500012874604,10|8,0:2|0:3,0:0:0:0:
111,192,219616,2,0,L|143:184,1,33.7500012874604,2|4,1:2|1:3,0:0:0:0:
84,151,220092,2,0,L|149:135,1,67.5000025749208,0|2,1:2|1:2,0:0:0:0:
196,127,220806,1,2,0:2:0:0:
165,90,221044,1,8,0:2:0:0:
308,240,221996,6,0,B|289:260|289:260|298:301,1,67.5000025749208,2|2,1:2|1:2,0:0:0:0:
294,346,222710,2,0,P|326:337|343:309,2,67.5000025749208,2|2|2,0:2|0:2|1:2,0:0:0:0:
255,320,223900,2,0,L|177:311,2,67.5000025749208,2|2|10,1:2|1:2|0:2,0:0:0:0:
255,320,225328,1,2,1:2:0:0:
294,346,225566,1,0,1:2:0:0:
297,299,225805,6,0,B|289:260|289:260|264:249|264:249|255:209,1,107.999996704102,4|0,1:2|1:2,0:0:0:0:
255,209,228185,1,2,1:2:0:0:
256,215,228661,1,10,0:2:0:0:
257,221,229137,1,2,1:2:0:0:
258,227,229613,6,0,B|227:217|227:217|223:219|223:219|193:210,1,67.5000025749208,6|0,1:2|1:2,0:0:0:0:
260,278,230565,2,0,B|229:268|229:268|225:270|225:270|195:261,1,67.5000025749208,10|0,0:2|1:2,0:0:0:0:
364,288,231517,2,0,B|334:297|334:297|330:295|330:295|299:305,1,67.5000025749208,2|0,1:2|1:2,0:0:0:0:
366,237,232469,2,0,B|336:246|336:246|332:244|332:244|301:254,1,67.5000025749208,10|0,0:2|1:2,0:0:0:0:
260,278,233421,5,4,1:2:0:0:
260,278,233897,2,0,L|248:228,1,45,2|2,1:2|0:2,0:0:0:0:
235,186,234373,2,0,L|223:136,1,45,10|2,0:2|0:2,0:0:0:0:
210,94,234849,1,2,0:2:0:0:
210,94,235087,1,2,0:2:0:0:
252,66,235325,2,0,P|194:42|159:94,1,135.000005149842,2|8,1:2|0:2,0:0:0:0:
159,93,236753,1,2,0:2:0:0:
210,94,236991,1,2,0:2:0:0:
252,66,237229,6,0,L|285:206,1,135.000005149842,4|10,1:2|0:2,0:0:0:0:
310,83,239134,6,0,L|326:153,1,67.5000025749208,2|10,1:2|0:2,0:0:0:0:
370,103,241038,37,6,1:2:0:0:
256,192,241165,12,0,244597,0:2:0:0:
162,354,245105,6,0,B|129:388|63:390|14:331|27:179|112:237|172:247|215:197|194:81|145:52|90:66|90:66|112:105|101:145|101:145|110:146|110:146|68:212|112:284,1,712.800017402344,6|0,1:2|0:0,0:0:0:0:
