osu file format v14

[General]
AudioFilename: audio.mp3
AudioLeadIn: 0
PreviewTime: 69676
Countdown: 0
SampleSet: Soft
StackLeniency: 0.7
Mode: 0
LetterboxInBreaks: 0
WidescreenStoryboard: 1

[Editor]
DistanceSpacing: 1
BeatDivisor: 4
GridSize: 8
TimelineZoom: 1

[Metadata]
Title:Kokoro no Ame
TitleUnicode:ココロの雨
Artist:Okazaki Ritsuko
ArtistUnicode:岡崎律子
Creator:LMT
Version:Al Fine
Source:シンフォニック=レイン
Tags:kogado studio symphonic rain bgm instrumental rain in my heart video game
BeatmapID:2149527
BeatmapSetID:1027470

[Difficulty]
HPDrainRate:4
CircleSize:4
OverallDifficulty:5
ApproachRate:6
SliderMultiplier:1.4
SliderTickRate:1

[Events]
//Background and Video events
0,0,"bg_5.png",0,0
//Break Periods
//Storyboard Layer 0 (Background)
//Storyboard Layer 1 (Fail)
//Storyboard Layer 2 (Pass)
//Storyboard Layer 3 (Foreground)
//Storyboard Layer 4 (Overlay)
//Storyboard Sound Samples

[TimingPoints]
510,666.666666666667,4,2,2,40,1,0
3176,-100,4,2,5,40,0,0
4926,-100,4,2,2,5,0,0
5176,-100,4,2,2,40,0,0
5260,-100,4,2,2,5,0,0
5510,-100,4,2,2,40,0,0
5593,-100,4,2,2,5,0,0
5843,-100,4,2,2,40,0,0
8510,-100,4,2,5,40,0,0
10260,-100,4,2,2,5,0,0
10510,-100,4,2,2,40,0,0
10593,-100,4,2,2,5,0,0
10843,-100,4,2,2,40,0,0
10926,-100,4,2,2,5,0,0
11176,-100,4,2,7,40,0,0
13843,-100,4,2,8,40,0,0
15176,-100,4,2,5,40,0,0
15593,-100,4,2,2,5,0,0
15843,-100,4,2,3,40,0,0
15926,-100,4,2,2,5,0,0
16176,-100,4,2,2,40,0,0
16260,-100,4,2,2,5,0,0
16510,-100,4,2,2,40,0,0
19593,-100,4,2,2,5,0,0
19843,-100,4,2,2,40,0,0
19926,-100,4,2,2,5,0,0
20176,-100,4,2,2,40,0,0
20260,-100,4,2,2,5,0,0
20510,-100,4,2,8,40,0,0
21843,-100,4,2,7,40,0,0
24510,-100,4,2,8,40,0,0
27176,-100,4,2,6,40,0,0
29843,-100,4,2,5,40,0,0
31176,-100,4,2,4,40,0,0
32510,-100,4,2,7,40,0,0
35176,-100,4,2,3,40,0,0
37843,-100,4,2,2,40,0,0
43176,-100,4,2,7,40,0,0
45843,-100,4,2,8,40,0,0
48510,-100,4,2,6,40,0,0
51176,-100,4,2,5,40,0,0
52510,-100,4,2,4,40,0,0
53843,-100,4,2,7,40,0,0
56510,-100,4,2,6,40,0,0
59176,-100,4,2,2,40,0,0
64510,-100,4,2,7,40,0,0
67176,-100,4,2,8,40,0,0
68510,-100,4,2,6,40,0,0
69843,-100,4,2,2,40,0,0
72510,-100,4,2,5,40,0,0
75176,-100,4,2,2,40,0,0
77843,-100,4,2,5,40,0,0
80510,-100,4,2,7,40,0,0
83176,-100,4,2,8,40,0,0
84510,-100,4,2,5,40,0,0
85843,-100,4,2,2,40,0,0
91176,-100,4,2,7,40,0,0
93843,-100,4,2,8,40,0,0
96510,-100,4,2,6,40,0,0
99176,-100,4,2,5,40,0,0
100510,-100,4,2,4,40,0,0
101843,-100,4,2,7,40,0,0
104510,-100,4,2,6,40,0,0
107176,-100,4,2,2,40,0,0
112510,-100,4,2,7,40,0,0
115176,-100,4,2,8,40,0,0
117843,-100,4,2,6,40,0,0
120510,-100,4,2,5,40,0,0
121843,-100,4,2,4,40,0,0
123176,-100,4,2,7,40,0,0
125843,-100,4,2,6,40,0,0
128510,-100,4,2,2,40,0,0
129843,-100,4,2,2,45,0,0
133843,-83.3333333333333,4,2,7,50,0,1
136010,-83.3333333333333,4,2,2,50,0,1
136176,-83.3333333333333,4,2,4,50,0,1
136343,-83.3333333333333,4,2,7,50,0,1
136510,-83.3333333333333,4,2,8,50,0,1
138676,-83.3333333333333,4,2,7,50,0,1
138843,-83.3333333333333,4,2,6,50,0,1
139010,-83.3333333333333,4,2,4,50,0,1
139176,-83.3333333333333,4,2,7,50,0,1
141343,-83.3333333333333,4,2,2,50,0,1
141510,-83.3333333333333,4,2,4,50,0,1
141676,-83.3333333333333,4,2,7,50,0,1
141843,-83.3333333333333,4,2,8,50,0,1
144010,-83.3333333333333,4,2,6,50,0,1
144176,-83.3333333333333,4,2,5,50,0,1
144343,-83.3333333333333,4,2,4,50,0,1
144510,-83.3333333333333,4,2,7,50,0,1
146676,-83.3333333333333,4,2,8,50,0,1
146843,-83.3333333333333,4,2,3,50,0,1
147010,-83.3333333333333,4,2,4,50,0,1
147176,-83.3333333333333,4,2,8,50,0,1
149176,-83.3333333333333,4,2,8,50,0,1
149343,-83.3333333333333,4,2,2,50,0,1
149510,-83.3333333333333,4,2,3,50,0,1
149676,-83.3333333333333,4,2,8,50,0,1
149843,-83.3333333333333,4,2,5,50,0,1
152010,-83.3333333333333,4,2,2,50,0,1
152176,-83.3333333333333,4,2,4,50,0,1
152343,-83.3333333333333,4,2,3,50,0,1
152510,-83.3333333333333,4,2,4,50,0,1
154510,-83.3333333333333,4,2,2,50,0,1
155176,-100,4,2,7,45,0,0
157843,-100,4,2,8,45,0,0
160510,-100,4,2,6,45,0,0
163176,-100,4,2,5,45,0,0
164510,-100,4,2,4,45,0,0
165843,-100,4,2,7,45,0,0
168510,-100,4,2,3,45,0,0
171176,-100,4,2,2,45,0,0
176510,-100,4,2,7,45,0,0
179176,-100,4,2,8,45,0,0
181843,-100,4,2,6,45,0,0
184510,-100,4,2,5,45,0,0
185843,-100,4,2,4,45,0,0
187176,689.655172413793,4,2,7,40,1,0
187176,-100,4,2,7,40,0,0
189934,731.707317073171,4,2,3,40,1,0
189934,-100,4,2,3,40,0,0
192860,750,4,2,2,40,1,0
192860,-100,4,2,2,40,0,0
194360,681.818181818182,4,2,2,40,1,0
195723,681.818181818182,4,2,6,40,1,0
195723,-100,4,2,6,40,0,0
198450,-100,4,2,7,40,0,0
201177,-100,4,2,5,40,0,0
202541,-100,4,2,6,40,0,0

[Colours]
Combo1 : 255,155,255
Combo2 : 91,173,255
Combo3 : 128,255,255
Combo4 : 128,128,192

[HitObjects]
183,241,510,5,4,0:1:0:0:
120,209,843,1,0,0:0:0:0:
67,255,1176,1,0,0:0:0:0:
182,334,1843,5,0,0:0:0:0:
248,311,2176,1,0,0:0:0:0:
317,321,2510,1,0,0:0:0:0:
370,366,2843,1,0,0:0:0:0:
435,340,3176,5,4,0:0:0:0:
409,274,3510,1,0,0:0:0:0:
417,204,3843,1,0,0:0:0:0:
443,139,4176,1,0,0:0:0:0:
311,89,4843,6,0,P|314:51|320:7,2,70,2|2|2,0:0|0:0|0:0,0:0:0:0:
247,118,5843,5,4,0:1:0:0:
178,130,6176,1,0,0:0:0:0:
110,111,6510,1,0,0:0:0:0:
42,233,7176,1,0,0:0:0:0:
111,240,7510,1,0,0:0:0:0:
173,270,7843,1,0,0:0:0:0:
216,325,8176,1,0,0:0:0:0:
187,260,8510,5,4,0:0:0:0:
218,197,8843,1,0,0:0:0:0:
283,171,9176,1,0,0:0:0:0:
352,175,9510,1,0,0:0:0:0:
384,311,10176,6,0,P|423:297|459:284,2,70,2|2|2,0:0|0:0|0:0,0:0:0:0:
317,334,11176,5,4,0:0:0:0:
247,343,11510,1,0,0:0:0:0:
177,334,11843,1,0,0:0:0:0:
112,308,12176,1,4,0:1:0:0:
70,174,12843,6,0,P|40:143|8:118,2,70,2|2|2,0:0|0:0|0:0,0:0:0:0:
133,204,13843,5,4,0:0:0:0:
202,210,14176,1,0,0:0:0:0:
271,200,14510,1,0,0:0:0:0:
333,167,14843,1,4,0:1:0:0:
363,103,15176,5,4,0:0:0:0:
234,47,15843,1,4,0:1:0:0:
98,81,16510,5,4,0:1:0:0:
138,137,16843,1,0,0:0:0:0:
158,203,17176,1,0,0:0:0:0:
157,273,17510,1,0,0:3:0:0:
414,81,19176,5,4,0:1:0:0:
382,143,19510,2,0,P|365:190|356:225,2,70,2|2|2,0:0|0:0|0:0,0:0:0:0:
421,85,20510,1,0,0:0:0:0:
363,358,21843,5,4,0:0:0:0:
299,329,22176,2,0,P|240:318|100:301,1,175,0|2,0:0|0:0,0:0:0:0:
95,321,23176,1,2,0:0:0:0:
34,285,23510,2,0,P|30:223|22:65,1,210,2|4,0:0|0:0,0:0:0:0:
87,48,24843,5,2,0:0:0:0:
150,77,25176,1,2,0:0:0:0:
188,135,25510,1,2,0:0:0:0:
249,102,25843,5,2,0:0:0:0:
196,147,26176,1,2,0:0:0:0:
176,214,26510,1,2,0:0:0:0:
180,283,26843,1,2,0:0:0:0:
225,335,27176,1,4,0:0:0:0:
467,322,28343,5,2,0:0:0:0:
478,288,28510,1,2,0:0:0:0:
427,239,28843,2,0,P|412:161|390:25,1,210,2|4,0:0|0:3,0:0:0:0:
321,24,30176,1,0,0:0:0:0:
214,115,30843,5,0,0:0:0:0:
210,149,31010,1,0,0:0:0:0:
204,183,31176,1,4,0:3:0:0:
145,220,31510,1,2,0:0:0:0:
75,226,31843,1,2,0:0:0:0:
23,178,32176,1,2,0:0:0:0:
15,108,32510,1,4,0:1:0:0:
93,339,33676,5,2,0:0:0:0:
124,324,33843,1,2,0:0:0:0:
186,355,34176,2,0,P|242:322|408:296,1,210,2|4,0:0|0:1,0:0:0:0:
471,185,35843,5,2,0:0:0:0:
402,197,36176,1,2,0:0:0:0:
298,102,36843,1,2,0:0:0:0:
230,120,37176,1,2,0:0:0:0:
162,139,37510,1,2,0:0:0:0:
95,159,37843,1,4,0:0:0:0:
290,11,39010,5,0,0:0:0:0:
309,39,39176,2,0,P|303:83|296:123,1,70,0|0,0:0|0:0,0:0:0:0:
353,152,39843,2,0,P|347:208|339:322,1,140,0|4,0:0|0:0,0:0:0:0:
288,337,40843,5,2,0:0:0:0:
226,304,41176,1,2,0:0:0:0:
156,294,41510,1,2,0:0:0:0:
53,199,42176,1,2,0:0:0:0:
168,119,42843,1,2,0:0:0:0:
235,99,43176,1,4,0:0:0:0:
443,227,44343,5,2,0:0:0:0:
412,244,44510,1,2,0:0:0:0:
369,299,44843,2,0,P|322:292|148:267,1,210,2|4,0:0|0:0,0:0:0:0:
98,298,46176,5,2,0:0:0:0:
66,235,46510,1,2,0:0:0:0:
0,256,46843,1,2,0:0:0:0:
63,229,47176,5,2,0:0:0:0:
104,172,47510,1,2,0:0:0:0:
89,103,47843,1,2,0:0:0:0:
26,71,48176,1,2,0:0:0:0:
91,96,48510,1,4,0:0:0:0:
334,67,49676,5,2,0:0:0:0:
314,96,49843,1,2,0:0:0:0:
345,158,50176,2,0,P|354:224|475:224,1,210,2|4,0:0|0:3,0:0:0:0:
458,156,51510,1,0,0:0:0:0:
389,278,52176,5,0,0:0:0:0:
354,270,52343,1,0,0:0:0:0:
318,271,52510,1,4,0:3:0:0:
249,283,52843,1,0,0:0:0:0:
187,316,53176,1,0,0:0:0:0:
119,334,53510,1,0,0:0:0:0:
50,320,53843,1,4,0:0:0:0:
269,210,55010,5,0,0:0:0:0:
244,187,55176,1,0,0:0:0:0:
212,125,55510,2,0,P|190:111|146:87,2,70,2|2|2,0:0|0:0|0:0,0:0:0:0:
272,89,56510,2,0,P|311:117|487:17,1,280,4|2,0:1|0:0,0:0:0:0:
510,159,58510,1,2,0:0:0:0:
410,257,59176,6,0,P|432:264|453:274,2,46.6666666666667,4|2|2,0:1|0:0|0:0,0:0:0:0:
243,340,60510,6,0,P|221:297|177:202,1,140,2|2,0:0|0:0,0:0:0:0:
126,342,61843,2,0,P|154:211|92:41,1,280,4|2,0:0|0:0,0:0:0:0:
238,9,63843,1,0,0:0:0:0:
212,74,64176,1,2,0:0:0:0:
239,95,64343,1,2,0:0:0:0:
271,109,64510,6,0,P|243:157|371:189,1,245,4|2,0:0|0:0,0:0:0:0:
369,155,65843,1,2,0:0:0:0:
430,116,66176,2,0,P|404:176|369:318,1,210,2|4,0:0|0:0,0:0:0:0:
412,371,67510,1,2,0:0:0:0:
238,349,68343,1,2,0:0:0:0:
216,321,68510,1,4,0:0:0:0:
147,334,68843,2,0,P|72:339|65:228,1,210,2|4,0:0|0:1,0:0:0:0:
123,190,70176,5,2,0:0:0:0:
190,171,70510,1,2,0:0:0:0:
259,171,70843,1,2,0:0:0:0:
322,200,71176,1,2,0:0:0:0:
391,211,71510,1,2,0:0:0:0:
453,179,71843,1,2,0:0:0:0:
484,116,72176,5,2,0:0:0:0:
488,81,72343,1,2,0:0:0:0:
487,45,72510,1,6,0:0:0:0:
426,10,72843,1,2,0:0:0:0:
360,33,73176,1,2,0:0:0:0:
290,21,73510,1,2,0:0:0:0:
46,164,75176,5,4,0:0:0:0:
115,176,75510,1,2,0:0:0:0:
170,218,75843,1,2,0:0:0:0:
231,250,76176,1,2,0:0:0:0:
300,255,76510,1,2,0:0:0:0:
366,234,76843,1,2,0:0:0:0:
411,181,77176,1,2,0:0:0:0:
426,112,77510,6,0,P|430:90|434:73,3,23.3333333333333,2|2|2|4,0:0|0:0|0:0|0:0,0:0:0:0:
369,54,78176,5,2,0:0:0:0:
300,37,78510,1,2,0:0:0:0:
232,54,78843,1,2,0:0:0:0:
170,179,79510,5,2,0:0:0:0:
105,207,79843,1,2,0:0:0:0:
35,202,80176,1,2,0:0:0:0:
102,220,80510,5,4,0:0:0:0:
161,257,80843,1,2,0:0:0:0:
228,273,81176,1,2,0:0:0:0:
296,256,81510,1,2,0:0:0:0:
412,333,82176,5,2,0:0:0:0:
429,265,82510,1,2,0:0:0:0:
472,210,82843,1,2,0:0:0:0:
450,143,83176,5,4,0:0:0:0:
381,159,83510,1,2,0:0:0:0:
311,149,83843,1,2,0:0:0:0:
247,120,84176,1,2,0:0:0:0:
198,69,84510,5,4,0:1:0:0:
154,201,85176,1,2,0:0:0:0:
113,334,85843,5,4,0:1:0:0:
180,316,86176,1,2,0:0:0:0:
250,328,86510,1,2,0:0:0:0:
310,363,86843,1,2,0:0:0:0:
399,50,88510,5,4,0:1:0:0:
332,68,88843,1,2,0:0:0:0:
262,56,89177,1,2,0:0:0:0:
202,21,89510,1,2,0:0:0:0:
58,222,91176,5,4,0:0:0:0:
126,207,91510,2,0,P|172:196|310:179,1,175,0|2,0:0|0:0,0:0:0:0:
330,194,92510,1,2,0:0:0:0:
358,257,92843,2,0,P|381:203|510:223,1,210,2|4,0:0|0:0,0:0:0:0:
493,289,94176,5,2,0:0:0:0:
426,310,94510,1,2,0:0:0:0:
374,357,94843,1,2,0:0:0:0:
325,306,95176,5,2,0:0:0:0:
267,345,95510,1,2,0:0:0:0:
197,351,95843,1,2,0:0:0:0:
128,335,96176,1,2,0:0:0:0:
74,289,96510,1,4,0:0:0:0:
150,56,97676,5,2,0:0:0:0:
180,74,97843,1,2,0:0:0:0:
245,97,98176,1,2,0:0:0:0:
314,87,98510,2,0,P|363:68|480:67,1,140,0|4,0:0|0:3,0:0:0:0:
380,259,100176,5,2,0:0:0:0:
346,269,100343,1,2,0:0:0:0:
310,268,100510,1,4,0:3:0:0:
246,238,100843,1,0,0:0:0:0:
176,230,101176,1,0,0:0:0:0:
108,250,101510,1,0,0:0:0:0:
55,296,101843,1,4,0:1:0:0:
214,109,103010,5,2,0:0:0:0:
239,132,103176,1,2,0:0:0:0:
206,194,103510,2,0,P|127:176|-16:158,1,210,2|4,0:0|0:1,0:0:0:0:
90,53,105176,5,2,0:0:0:0:
153,82,105510,1,2,0:0:0:0:
279,140,106176,1,2,0:0:0:0:
340,105,106510,1,2,0:0:0:0:
409,95,106843,1,2,0:0:0:0:
477,106,107176,1,4,0:1:0:0:
306,282,108343,5,2,0:0:0:0:
294,248,108510,1,2,0:0:0:0:
241,202,108843,1,2,0:0:0:0:
171,196,109176,2,0,P|127:186|22:173,1,140,2|4,0:0|0:0,0:0:0:0:
32,313,110510,5,2,0:0:0:0:
89,352,110843,2,0,P|127:341|176:328,1,70,2|0,0:0|0:0,0:0:0:0:
213,292,111510,2,0,P|268:342|348:316,1,140,2|2,0:0|0:0,0:0:0:0:
380,286,112510,1,4,0:0:0:0:
477,121,113676,5,2,0:0:0:0:
443,131,113843,1,2,0:0:0:0:
376,109,114176,2,0,P|297:89|240:204,1,210,2|4,0:0|0:0,0:0:0:0:
211,250,115510,5,2,0:0:0:0:
141,240,115843,1,2,0:0:0:0:
80,275,116176,1,2,0:0:0:0:
144,248,116510,5,2,0:0:0:0:
212,263,116843,1,2,0:0:0:0:
274,294,117176,1,2,0:0:0:0:
344,297,117510,1,2,0:0:0:0:
274,307,117843,1,4,0:0:0:0:
441,127,119010,5,2,0:0:0:0:
414,149,119176,1,2,0:0:0:0:
347,172,119510,1,2,0:0:0:0:
280,150,119843,2,0,P|188:122|127:142,1,140,2|4,0:0|0:3,0:0:0:0:
87,168,120843,1,0,0:0:0:0:
145,40,121510,5,0,0:0:0:0:
179,32,121676,1,0,0:0:0:0:
213,29,121843,1,4,0:3:0:0:
282,36,122176,1,0,0:0:0:0:
344,66,122510,1,0,0:0:0:0:
412,77,122843,1,0,0:0:0:0:
473,42,123176,1,4,0:1:0:0:
380,268,124343,5,2,0:0:0:0:
366,300,124510,1,2,0:0:0:0:
297,313,124843,1,2,0:0:0:0:
228,298,125176,1,2,0:0:0:0:
157,300,125510,1,2,0:0:0:0:
95,333,125843,2,0,P|144:287|26:228,1,245,4|2,0:1|0:0,0:0:0:0:
4,201,127176,1,2,0:0:0:0:
9,131,127510,1,2,0:0:0:0:
47,72,127843,1,2,0:0:0:0:
187,72,128510,6,0,P|227:89|262:97,2,46.6666666666667,4|2|2,0:1|0:0|0:0,0:0:0:0:
370,106,129843,6,0,P|375:166|419:252,1,140,2|2,0:0|0:0,0:0:0:0:
512,297,131176,2,0,P|430:267|259:377,1,280,4|2,0:0|0:0,0:0:0:0:
136,310,133176,1,0,0:0:0:0:
114,243,133510,1,2,0:0:0:0:
103,209,133676,1,2,0:0:0:0:
92,171,133843,6,0,P|139:186|199:85,1,167.999994873047,4|0,0:2|0:0,0:0:0:0:
287,88,134843,2,0,P|294:138|301:197,1,83.9999974365235,2|4,0:0|0:0,0:0:0:0:
367,218,135510,1,0,0:0:0:0:
452,196,135843,5,4,0:1:0:0:
440,236,136010,1,4,0:3:0:0:
433,277,136176,1,4,0:3:0:0:
426,318,136343,1,4,0:0:0:0:
422,359,136510,6,0,P|390:328|134:334,1,293.999991027832,4|0,0:2|0:0,0:0:0:0:
121,340,137843,1,4,0:2:0:0:
53,290,138176,1,0,0:0:0:0:
34,208,138510,5,4,0:3:0:0:
59,175,138676,1,4,0:3:0:0:
94,152,138843,1,4,0:3:0:0:
133,138,139010,1,4,0:3:0:0:
174,136,139176,6,0,P|225:153|279:56,1,167.999994873047,4|0,0:0|0:0,0:0:0:0:
362,40,140176,2,0,P|383:102|397:143,1,83.9999974365235,2|4,0:0|0:1,0:0:0:0:
341,189,140843,1,0,0:0:0:0:
311,267,141176,5,4,0:1:0:0:
271,255,141343,1,4,0:3:0:0:
230,250,141510,1,4,0:3:0:0:
189,244,141676,1,4,0:3:0:0:
147,241,141843,2,0,P|134:334|42:220,1,335.999989746094,4|4,0:0|0:0,0:0:0:0:
92,159,143510,1,0,0:0:0:0:
175,149,143843,5,4,0:3:0:0:
217,148,144010,1,4,0:3:0:0:
257,157,144176,1,4,0:3:0:0:
291,181,144343,1,4,0:3:0:0:
318,213,144510,2,0,P|330:152|356:25,1,167.999994873047,4|0,0:0|0:0,0:0:0:0:
422,93,145510,2,0,P|412:149|401:205,1,83.9999974365235,2|4,0:0|0:0,0:0:0:0:
395,258,146176,1,0,0:0:0:0:
335,317,146510,5,4,0:1:0:0:
309,283,146676,1,4,0:1:0:0:
276,256,146843,1,4,0:3:0:0:
237,238,147010,1,4,0:3:0:0:
195,232,147176,6,0,P|126:243|83:148,1,167.999994873047,4|0,0:0|0:0,0:0:0:0:
9,216,148176,2,0,P|26:272|40:316,1,83.9999974365235,2|4,0:0|0:1,0:0:0:0:
101,345,148843,1,0,0:0:0:0:
184,356,149176,5,4,0:1:0:0:
225,350,149343,1,4,0:3:0:0:
267,349,149510,1,4,0:3:0:0:
308,352,149676,1,4,0:1:0:0:
349,359,149843,6,0,P|353:269|371:19,1,335.999989746094,4|2,0:3|0:0,0:0:0:0:
288,43,151510,1,0,0:0:0:0:
271,125,151843,5,4,0:3:0:0:
241,154,152010,1,4,0:3:0:0:
202,170,152176,1,4,0:3:0:0:
160,175,152343,1,4,0:3:0:0:
118,169,152510,2,0,P|259:196|240:361,1,335.999989746094,4|2,0:3|0:0,0:0:0:0:
168,321,154176,1,0,0:0:0:0:
85,305,154510,6,0,P|78:284|70:250,2,41.9999987182618,4|2|2,0:1|0:0|0:0,0:0:0:0:
36,355,155176,1,4,0:1:0:0:
137,188,156343,5,2,0:0:0:0:
168,171,156510,1,2,0:0:0:0:
216,221,156843,2,0,P|265:195|438:171,1,210,2|4,0:0|0:0,0:0:0:0:
354,134,158176,5,2,0:0:0:0:
287,110,158510,1,2,0:0:0:0:
236,61,158843,1,2,0:0:0:0:
278,116,159176,5,2,0:0:0:0:
214,145,159510,1,2,0:0:0:0:
144,156,159843,1,2,0:0:0:0:
75,143,160176,1,2,0:0:0:0:
140,168,160510,1,4,0:0:0:0:
107,324,161676,5,2,0:0:0:0:
135,303,161843,1,2,0:0:0:0:
195,337,162176,2,0,P|217:307|328:264,1,140,2|0,0:0|0:0,0:0:0:0:
375,246,163176,6,0,P|307:228|158:206,1,210,4|0,0:3|0:0,0:0:0:0:
134,209,164343,1,0,0:0:0:0:
101,220,164510,1,4,0:3:0:0:
36,192,164843,1,0,0:0:0:0:
16,124,165176,1,2,0:0:0:0:
30,192,165510,1,0,0:0:0:0:
20,261,165843,1,4,0:1:0:0:
255,327,167010,5,2,0:0:0:0:
283,306,167176,1,2,0:0:0:0:
351,320,167510,2,0,P|315:280|401:156,1,210,2|4,0:0|0:1,0:0:0:0:
306,171,168843,5,2,0:0:0:0:
237,182,169176,1,2,0:0:0:0:
168,165,169510,1,2,0:0:0:0:
117,212,169843,5,2,0:0:0:0:
165,161,170176,1,2,0:0:0:0:
182,92,170510,1,2,0:0:0:0:
166,23,170843,1,2,0:0:0:0:
187,89,171176,1,4,0:1:0:0:
324,291,172343,5,2,0:0:0:0:
334,257,172510,1,2,0:0:0:0:
288,203,172843,1,2,0:0:0:0:
222,228,173176,2,0,P|225:277|231:379,1,140,2|4,0:0|0:0,0:0:0:0:
161,379,174176,5,2,0:0:0:0:
51,312,174843,1,2,0:0:0:0:
170,191,175510,1,2,0:0:0:0:
7,99,176176,1,2,0:0:0:0:
71,55,176510,1,4,0:1:0:0:
315,56,177676,5,2,0:0:0:0:
303,89,177843,1,2,0:0:0:0:
346,143,178176,1,2,0:0:0:0:
415,130,178510,2,0,P|385:166|340:265,1,140,0|4,0:0|0:0,0:0:0:0:
309,310,179510,5,2,0:0:0:0:
241,290,179843,1,2,0:0:0:0:
171,290,180176,1,2,0:0:0:0:
240,301,180510,5,2,0:0:0:0:
169,307,180843,1,2,0:0:0:0:
100,293,181176,1,2,0:0:0:0:
42,253,181510,1,2,0:0:0:0:
18,187,181843,1,4,0:0:0:0:
106,18,183010,5,2,0:0:0:0:
94,50,183176,1,2,0:0:0:0:
124,113,183510,2,0,P|187:95|268:206,1,210,2|4,0:0|0:3,0:0:0:0:
339,191,184843,2,0,P|347:250|355:282,1,70,0|0,0:0|0:0,0:0:0:0:
416,281,185510,5,2,0:0:0:0:
412,315,185676,1,2,0:0:0:0:
407,349,185843,1,4,0:3:0:0:
339,367,186176,1,0,0:0:0:0:
272,345,186510,1,0,0:0:0:0:
202,342,186843,1,0,0:0:0:0:
137,362,187176,1,4,0:3:0:0:
44,135,188382,5,2,0:0:0:0:
73,115,188555,1,2,0:0:0:0:
133,150,188900,1,2,0:0:0:0:
202,156,189244,1,2,0:0:0:0:
266,128,189589,1,2,0:0:0:0:
209,162,189934,6,0,P|185:219|153:309,1,140,4|0,0:3|0:0,0:0:0:0:
260,316,191214,1,2,0:0:0:0:
247,348,191397,1,2,0:0:0:0:
313,371,191763,1,2,0:0:0:0:
382,363,192129,1,2,0:0:0:0:
436,237,192860,6,0,P|441:214|453:168,2,46.6666666666667,4|0|0,0:1|0:0|0:0,0:0:0:0:
237,183,194172,5,2,0:0:0:0:
228,145,194360,1,2,0:0:0:0:
164,115,194700,2,0,P|109:153|53:40,1,210,0|4,0:0|0:2,0:0:0:0:
41,58,196745,1,2,0:0:0:0:
41,58,197768,1,2,0:0:0:0:
107,36,198109,1,2,0:0:0:0:
141,31,198279,1,2,0:0:0:0:
176,30,198450,2,0,P|192:115|328:109,1,245,4|2,0:1|0:0,0:0:0:0:
346,82,199813,1,2,0:0:0:0:
404,120,200154,1,2,0:0:0:0:
482,314,201177,6,0,P|398:289|329:275,1,140,4|0,0:0|0:0,0:0:0:0:
255,226,202370,1,2,0:0:0:0:
280,201,202541,2,0,P|333:173|366:159,1,70,4|0,0:0|0:0,0:0:0:0:
402,132,203223,2,0,P|328:118|242:107,1,140,2|2,0:0|0:0,0:0:0:0:
256,192,204245,12,0,206632,0:0:0:0:
