osu file format v14

[General]
AudioFilename: audio.mp3
AudioLeadIn: 0
PreviewTime: -1
Countdown: 0
SampleSet: Normal
StackLeniency: 0.7
Mode: 0
LetterboxInBreaks: 0
WidescreenStoryboard: 1

[Editor]
Bookmarks: 658,893,1361,1830,2299,2768,3236,3705,4174,4408,4643,5111,5580,6049,6518,7221,7924,8158,8275,8393,8861,9330,9799,10268,10736,11205,11674,11908,12143,12611,13080,13549,14018,14486,14955,15424,15658,15775,15893,16361,16830,17299,17768,18236,18705,19174,19408,19643,20111,20580,21049,21518,21986,22455,22924,23158,23275,23393,23861,24330,24799,25268,25736,26205,26674,26908,27143,27611,28080,28549,29018,29486,29955,30424,30658,30775,30893,31361,31830,32299,32768,33236,33705,34174,34408,34643,35111,35580,36049,36518,36635,36752,36869,36986,37103,37221,37338,37455,37572,37689,37807,37924,38041,38158,38275,38393,38861,39330,39799,40268,40736,41205,41674,41908,42143,42611,43080,43549,44018,44486,44955,45424,45658,45775,45893,46361,46830,47299,47768,48236,48705,49174,49408,49643,50111,50580,51049,51518,51986,52455,52924,53041,53158,53275,53393,53861,54330,54799,55268,55736,56205,56674,56908,57143,57611,58080,58549,59018,59486,59955,60424,60658,60775,60893,61361,61830,62299,62768,63236,63705,64174,64408,64643,65111,65580,66049,66518,66986,67455,67924,68158,68275,68393,68861,69330,69799,70268,70736,71205,71674,71908,72143,72611,73080,73549,74018,74486,74955,75424,75658,75775,75893,76361,76830,77299,77768,78236,78705,79174,79408,79643,80111,80580,81049,81518,81986,82455,83393,83861,84330,84799,85268,85736,86205,86674,86908,87143,87611,88080,88549,89018,89252,89486,89721
DistanceSpacing: 0.8
BeatDivisor: 4
GridSize: 16
TimelineZoom: 1.1

[Metadata]
Title:Viva Namida (TV size)
TitleUnicode:Viva Namida (TV size)
Artist:Okamura Yasuyuki
ArtistUnicode:Okamura Yasuyuki
Creator:Zedriv
Version:Hard
Source:Space Dandy
Tags:Space Dandy Viva Namida Yasuyuki Okamura anime funk
BeatmapID:1314714
BeatmapSetID:623747

[Difficulty]
HPDrainRate:6
CircleSize:4
OverallDifficulty:7
ApproachRate:8
SliderMultiplier:2
SliderTickRate:2

[Events]
//Background and Video events
0,0,"43981_space_dandy.jpg",0,0
//Break Periods
//Storyboard Layer 0 (Background)
//Storyboard Layer 1 (Fail)
//Storyboard Layer 2 (Pass)
//Storyboard Layer 3 (Foreground)
//Storyboard Sound Samples

[TimingPoints]
893,468.75,4,1,0,100,1,0

[HitObjects]
158,192,658,5,0,0:0:0:0:
182,115,893,2,0,P|227:89|253:137,1,100
264,197,1361,1,0,0:0:0:0:
245,274,1596,6,0,P|207:303|171:261,1,100
162,195,2064,1,0,0:0:0:0:
182,115,2299,1,0,0:0:0:0:
248,70,2533,6,0,P|311:73|333:105,1,100
352,176,3002,1,0,0:0:0:0:
272,182,3236,1,0,0:0:0:0:
318,247,3471,6,0,P|359:264|410:234,1,100
445,170,3939,1,0,0:0:0:0:
443,89,4174,1,0,0:0:0:0:
373,50,4408,1,0,0:0:0:0:
294,64,4643,6,0,B|270:59|270:59|281:81|281:81|256:79|256:79|273:99|273:99,1,100
225,163,5111,1,0,0:0:0:0:
294,202,5346,6,0,B|318:207|318:207|307:184|307:184|332:187|332:187|315:166|315:166,1,100
272,98,5814,1,0,0:0:0:0:
191,100,6049,1,0,0:0:0:0:
128,149,6283,1,0,0:0:0:0:
123,229,6518,6,0,B|110:272|144:323|198:342|253:305|271:250|191:201|109:234,2,300
128,149,8158,1,0,0:0:0:0:
146,113,8275,1,0,0:0:0:0:
182,96,8393,5,0,0:0:0:0:
261,101,8627,1,0,0:0:0:0:
214,165,8861,1,0,0:0:0:0:
293,174,9096,1,0,0:0:0:0:
243,236,9330,1,0,0:0:0:0:
321,248,9564,1,0,0:0:0:0:
270,310,9799,1,0,0:0:0:0:
349,321,10033,6,0,P|397:317|421:266,2,100
275,289,10736,1,0,0:0:0:0:
226,224,10971,1,0,0:0:0:0:
212,145,11205,1,0,0:0:0:0:
243,71,11439,6,0,P|309:60|330:92,1,100
315,159,11908,2,0,P|249:170|228:138,1,100
197,77,12377,1,0,0:0:0:0:
122,47,12611,1,0,0:0:0:0:
59,97,12846,1,0,0:0:0:0:
133,124,13080,6,0,P|176:161|176:205,3,100
154,278,14018,1,0,0:0:0:0:
228,249,14252,1,0,0:0:0:0:
307,251,14486,1,0,0:0:0:0:
381,279,14721,6,0,B|444:321|386:341|379:268,1,100
373,199,15189,1,0,0:0:0:0:
397,122,15424,1,0,0:0:0:0:
362,50,15658,5,0,0:0:0:0:
325,34,15775,1,0,0:0:0:0:
284,37,15893,2,0,P|215:46|205:78,1,100
198,146,16361,2,0,P|178:187|124:188,1,100
91,118,16830,6,0,P|111:77|165:76,1,100
230,112,17299,1,0,0:0:0:0:
294,158,17533,6,0,P|324:192|316:248,1,100
271,308,18002,2,0,P|227:327|159:291,1,100
135,245,18471,1,0,0:0:0:0:
116,167,18705,5,0,0:0:0:0:
146,93,18939,2,0,P|194:74|208:113,1,100
210,189,19408,1,0,0:0:0:0:
233,265,19643,1,0,0:0:0:0:
299,308,19877,6,0,P|358:305|376:252,1,100
378,193,20346,1,0,0:0:0:0:
354,116,20580,2,0,B|355:81|312:59|296:98|376:125,1,100
432,125,21049,1,0,0:0:0:0:
479,61,21283,6,0,P|417:32|356:52,1,100
310,57,21752,1,0,0:0:0:0:
235,86,21986,1,0,0:0:0:0:
168,131,22221,6,0,B|123:157|112:189|109:214,3,100
112,287,23158,1,0,0:0:0:0:
129,323,23275,1,0,0:0:0:0:
164,342,23393,6,0,P|215:348|258:318,1,100
296,255,23861,2,0,P|350:213|395:226,1,100
453,241,24330,1,0,0:0:0:0:
389,289,24564,1,0,0:0:0:0:
308,289,24799,6,0,P|256:277|231:221,1,100
214,161,25268,1,0,0:0:0:0:
214,81,25502,2,0,P|267:101|296:172,2,100
133,81,26205,5,0,0:0:0:0:
75,136,26439,1,0,0:0:0:0:
67,215,26674,2,0,P|80:273|110:299,3,100
183,328,27611,5,0,0:0:0:0:
263,328,27846,1,0,0:0:0:0:
339,304,28080,6,0,P|357:247|309:242,1,100
252,223,28549,1,0,0:0:0:0:
176,198,28783,1,0,0:0:0:0:
130,131,29018,1,0,0:0:0:0:
140,51,29252,6,0,P|187:58|204:104,1,100
201,182,29721,2,0,P|208:235|267:253,1,100
326,260,30189,1,0,0:0:0:0:
402,235,30424,6,0,B|399:222|399:222|413:224|413:224|407:212|407:212|422:213|422:213|411:205|411:205|425:205|425:205|415:194|415:194|427:194|427:194,1,100
435,158,30775,1,0,0:0:0:0:
438,117,30893,2,0,P|424:65|353:54,1,100
305,49,31361,5,0,0:0:0:0:
229,75,31596,1,0,0:0:0:0:
174,133,31830,2,0,B|128:159|220:181|152:220,1,100
90,256,32299,1,0,0:0:0:0:
35,314,32533,6,0,B|22:350|62:372|140:330,1,100
182,326,33002,2,0,P|229:305|249:256,2,100
102,332,33705,1,0,0:0:0:0:
38,283,33939,1,0,0:0:0:0:
37,202,34174,1,0,0:0:0:0:
93,146,34408,6,0,B|123:108|166:108|187:126,1,100
254,155,34877,1,0,0:0:0:0:
328,184,35111,2,0,P|400:191|429:164,1,100
420,97,35580,2,0,P|375:76|328:91,1,100
264,137,36049,2,0,P|234:175|227:248,1,100
244,303,36518,6,0,L|275:352,3,50
310,347,36986,2,0,L|331:293,3,50
368,299,37455,2,0,L|388:348,3,50
427,348,37924,2,0,L|451:295,1,50
455,263,38158,1,0,0:0:0:0:
460,223,38275,1,0,0:0:0:0:
457,182,38393,6,0,P|425:130|375:116,1,100
310,113,38861,1,0,0:0:0:0:
230,123,39096,2,0,P|164:162|162:204,1,100
153,258,39564,1,0,0:0:0:0:
163,337,39799,6,0,P|224:294|227:242,1,100
242,193,40268,1,0,0:0:0:0:
270,118,40502,1,0,0:0:0:0:
324,59,40736,2,0,P|373:40|421:60,4,100
270,118,41908,5,0,0:0:0:0:
226,185,42143,2,0,P|194:227|121:247,1,100
73,253,42611,1,0,0:0:0:0:
131,308,42846,1,0,0:0:0:0:
210,317,43080,6,0,P|283:306|315:267,1,100
347,226,43549,1,0,0:0:0:0:
376,151,43783,2,0,B|413:97|365:79|376:163,2,100
378,231,44486,1,0,0:0:0:0:
415,301,44721,1,0,0:0:0:0:
446,227,44955,1,0,0:0:0:0:
411,154,45189,1,0,0:0:0:0:
337,121,45424,5,0,0:0:0:0:
257,122,45658,1,0,0:0:0:0:
220,137,45775,1,0,0:0:0:0:
191,164,45893,2,0,P|177:239|197:273,1,100
232,323,46361,1,0,0:0:0:0:
273,254,46596,2,0,P|288:207|246:150,1,100
227,94,47064,1,0,0:0:0:0:
158,52,47299,6,0,P|106:54|88:96,1,100
104,172,47768,1,0,0:0:0:0:
133,246,48002,2,0,B|166:289|211:293|235:284,1,100
299,284,48471,1,0,0:0:0:0:
369,247,48705,1,0,0:0:0:0:
404,175,48939,6,0,P|403:120|359:88,1,100
297,62,49408,1,0,0:0:0:0:
217,54,49643,1,0,0:0:0:0:
139,73,49877,1,0,0:0:0:0:
78,124,50111,6,0,B|36:171|59:235|60:234,1,100
80,293,50580,2,0,P|128:332|195:319,1,100
243,324,51049,1,0,0:0:0:0:
320,304,51283,6,0,P|376:288|389:241,1,100
312,231,51752,2,0,P|259:214|249:169,1,100
326,159,52221,2,0,P|380:153|392:108,1,100
317,93,52689,1,0,0:0:0:0:
236,98,52924,1,0,0:0:0:0:
197,108,53041,1,0,0:0:0:0:
164,131,53158,1,0,0:0:0:0:
147,167,53275,1,0,0:0:0:0:
144,207,53393,6,0,B|130:274|85:265|47:200,1,100
42,167,53861,2,0,P|47:116|108:75,1,100
155,56,54330,2,0,P|224:66|247:99,1,100
271,160,54799,1,0,0:0:0:0:
320,222,55033,1,0,0:0:0:0:
398,237,55268,6,0,P|451:233|467:183,2,100
320,222,55971,1,0,0:0:0:0:
245,193,56205,1,0,0:0:0:0:
166,177,56439,2,0,B|104:179|107:245|108:245,1,100
122,322,56908,1,0,0:0:0:0:
196,352,57143,6,0,P|256:338|287:299,2,100
122,322,57846,1,0,0:0:0:0:
64,266,58080,2,0,P|44:215|65:165,1,100
101,106,58549,6,0,P|185:90|214:129,1,100
250,146,59018,1,0,0:0:0:0:
326,167,59252,1,0,0:0:0:0:
401,140,59486,1,0,0:0:0:0:
456,82,59721,1,0,0:0:0:0:
466,161,59955,1,0,0:0:0:0:
448,238,60189,1,0,0:0:0:0:
388,292,60424,6,0,P|325:308|284:292,1,100
256,281,60775,1,0,0:0:0:0:
222,259,60893,2,0,P|178:220|176:159,1,100
178,101,61361,2,0,B|181:67|195:39|238:62|180:103,2,100
113,149,62064,1,0,0:0:0:0:
32,144,62299,1,0,0:0:0:0:
73,211,62533,6,0,P|111:243|162:221,1,100
212,173,63002,2,0,P|265:150|315:184,1,100
362,217,63471,1,0,0:0:0:0:
316,282,63705,1,0,0:0:0:0:
237,269,63939,1,0,0:0:0:0:
176,216,64174,2,0,P|154:157|170:123,1,100
231,76,64643,1,0,0:0:0:0:
309,58,64877,6,0,P|370:66|406:101,2,100
254,117,65580,1,0,0:0:0:0:
192,167,65814,6,0,P|131:159|95:124,2,100
270,151,66518,1,0,0:0:0:0:
349,151,66752,6,0,P|399:179|400:228,1,100
387,295,67221,2,0,B|358:356|287:341,1,100
228,329,67689,2,0,P|171:276|174:229,1,100
168,177,68158,1,0,0:0:0:0:
181,139,68275,1,0,0:0:0:0:
216,119,68393,6,0,P|266:104|318:121,1,100
374,164,68861,2,0,P|332:192|266:170,1,100
214,147,69330,2,0,P|156:127|112:151,1,100
67,199,69799,1,0,0:0:0:0:
79,277,70033,5,0,0:0:0:0:
140,328,70268,2,0,P|200:336|232:299,1,100
272,246,70736,2,0,P|316:206|367:206,3,100
433,216,71674,6,0,P|428:161|361:121,1,100
325,95,72143,2,0,P|268:76|227:81,1,100
274,146,72611,2,0,P|226:149|167:174,1,100
111,211,73080,1,0,0:0:0:0:
183,244,73314,2,0,P|237:218|307:232,1,100
353,241,73783,5,0,0:0:0:0:
420,284,74018,1,0,0:0:0:0:
467,348,74252,1,0,0:0:0:0:
475,268,74486,6,0,P|469:216|433:175,1,100
365,149,74955,1,0,0:0:0:0:
288,125,75189,2,0,P|230:97|209:55,1,100
142,29,75658,1,0,0:0:0:0:
103,37,75775,1,0,0:0:0:0:
79,70,75893,6,0,P|68:147|96:180,1,100
126,225,76361,2,0,P|161:261|213:272,2,100
102,148,77064,1,0,0:0:0:0:
132,73,77299,1,0,0:0:0:0:
202,36,77533,6,0,P|283:41|306:63,1,100
280,129,78002,2,0,P|227:103|176:122,1,100
126,162,78471,1,0,0:0:0:0:
88,232,78705,2,0,P|91:283|162:305,1,100
207,319,79174,1,0,0:0:0:0:
285,304,79408,1,0,0:0:0:0:
357,270,79643,1,0,0:0:0:0:
414,214,79877,6,0,B|449:168|434:114,2,100
357,270,80580,1,0,0:0:0:0:
277,266,80814,2,0,P|234:234|219:189,2,100
354,286,81518,1,0,0:0:0:0:
448,157,81986,1,0,0:0:0:0:
290,129,82455,6,0,B|242:89|182:96|57:157|298:236|278:290|124:167|8:285|244:346,1,400,0|0,0:0|0:0,1:0:0:0:
288,342,83627,1,0,0:0:0:0:
365,322,83861,1,0,0:0:0:0:
430,276,84096,6,0,P|457:228|441:176,1,100
394,126,84564,1,0,0:0:0:0:
321,91,84799,1,0,0:0:0:0:
241,95,85033,1,0,0:0:0:0:
167,127,85268,6,0,P|133:178|151:216,1,100
198,268,85736,1,0,0:0:0:0:
268,306,85971,6,0,P|329:306|358:276,1,100
379,205,86439,1,0,0:0:0:0:
356,128,86674,2,0,B|319:80|374:46|355:146,2,100
379,205,87377,5,0,0:0:0:0:
341,275,87611,1,0,0:0:0:0:
264,300,87846,6,0,P|199:285|170:220,1,100
144,189,88314,1,0,0:0:0:0:
150,109,88549,1,0,0:0:0:0:
213,60,88783,1,0,0:0:0:0:
291,76,89018,5,0,0:0:0:0:
338,141,89252,1,0,0:0:0:0:
275,190,89486,1,0,0:0:0:0:
226,124,89721,1,0,0:0:0:0:
