osu file format v14

[General]
AudioFilename: audio.mp3
AudioLeadIn: 0
PreviewTime: 51420
Countdown: 0
SampleSet: Soft
StackLeniency: 0.7
Mode: 0
LetterboxInBreaks: 0
WidescreenStoryboard: 1

[Editor]
Bookmarks: 150420
DistanceSpacing: 0.3
BeatDivisor: 4
GridSize: 32
TimelineZoom: 1.8

[Metadata]
Title:Romance Shitai (massaji Remix)
TitleUnicode:ロマンスしたい (massaji Remix)
Artist:Okamoto Maiko
ArtistUnicode:岡本舞子
Creator:Kujinn
Version:Insane
Source:
Tags:reform future funk city pop japanese jpop j 80s synth i want heart no tobira ハートの扉
BeatmapID:3017759
BeatmapSetID:1467799

[Difficulty]
HPDrainRate:5
CircleSize:4
OverallDifficulty:7.5
ApproachRate:8
SliderMultiplier:1.6
SliderTickRate:1

[Events]
//Background and Video events
0,0,"BG.jpg",0,0
//Break Periods
//Storyboard Layer 0 (Background)
//Storyboard Layer 1 (Fail)
//Storyboard Layer 2 (Pass)
//Storyboard Layer 3 (Foreground)
//Storyboard Layer 4 (Overlay)
//Storyboard Sound Samples

[TimingPoints]
20,400,4,2,2,35,1,0
12820,-153.846153846153,4,2,2,35,0,0
25620,-95.238095238095,4,2,2,65,0,0
38420,-117.647058823529,4,2,2,55,0,0
52820,-95.2380952380952,4,2,2,75,0,1
78020,-95.2380952380952,4,2,2,65,0,1
78420,-95.2380952380952,4,2,2,75,0,0
91220,-133.333333333333,4,2,2,35,0,0
104020,-95.2380952380952,4,2,2,65,0,0
116820,-117.647058823529,4,2,2,55,0,0
131220,-95.238095238095,4,2,2,75,0,1
153620,-133.333333333333,4,2,2,65,0,0
154020,-133.333333333333,4,2,2,55,0,0
154420,-133.333333333333,4,2,2,45,0,0
154820,-133.333333333333,4,2,2,35,0,0
155320,-133.333333333333,4,2,2,5,0,0

[Colours]
Combo1 : 249,200,209
Combo2 : 226,31,55
Combo3 : 240,83,106
Combo4 : 242,136,145

[HitObjects]
452,139,12820,6,0,P|439:117|359:110,1,103.999995239258,6|8,0:0|0:0,0:0:0:0:
295,166,13420,1,2,0:0:0:0:
295,166,13520,1,0,0:0:0:0:
295,166,13620,2,0,P|282:188|202:195,1,103.999995239258,2|8,0:0|0:0,0:0:0:0:
108,140,14220,6,0,P|116:191|123:242,1,103.999995239258,2|0,0:0|0:0,0:0:0:0:
64,298,14820,2,0,P|90:319|127:319,1,51.999997619629,10|0,0:0|0:0,0:0:0:0:
161,384,15220,2,0,P|192:371|210:339,1,51.999997619629,2|0,0:0|0:0,0:0:0:0:
293,349,15620,2,0,P|298:315|279:283,1,51.999997619629,10|0,0:0|0:0,0:0:0:0:
243,161,16020,6,0,P|255:185|330:191,1,103.999995239258,2|8,0:0|0:0,0:0:0:0:
406,154,16620,1,2,0:0:0:0:
406,154,16720,1,0,0:0:0:0:
406,154,16820,2,0,P|399:111|387:40,1,103.999995239258,2|8,0:0|0:0,0:0:0:0:
309,11,17420,6,0,P|259:6|227:44,1,103.999995239258,2|0,0:0|0:0,0:0:0:0:
176,120,18020,2,0,P|148:112|106:102,1,51.999997619629,10|0,0:0|0:0,0:0:0:0:
59,201,18420,2,0,P|87:193|129:183,1,51.999997619629,2|0,0:0|0:0,0:0:0:0:
178,282,18820,2,0,P|150:274|108:264,1,51.999997619629,10|0,0:0|0:0,0:0:0:0:
252,210,19220,6,0,P|260:261|269:312,1,103.999995239258,2|8,0:0|0:0,0:0:0:0:
349,374,19820,1,2,0:0:0:0:
349,374,19920,1,0,0:0:0:0:
349,374,20020,2,0,P|357:322|366:271,1,103.999995239258,2|8,0:0|0:0,0:0:0:0:
438,217,20620,6,0,P|397:186|346:188,1,103.999995239258,2|0,0:0|0:0,0:0:0:0:
261,234,21220,2,0,L|274:167,1,51.999997619629,10|0,0:0|0:0,0:0:0:0:
177,111,21620,2,0,L|186:162,1,51.999997619629,2|0,0:0|0:0,0:0:0:0:
87,229,22020,2,0,L|100:162,1,51.999997619629,10|0,0:0|0:0,0:0:0:0:
63,315,22420,6,0,P|113:317|154:286,1,103.999995239258,2|8,0:0|0:0,0:0:0:0:
219,222,23020,1,2,0:0:0:0:
219,222,23120,1,0,0:0:0:0:
219,222,23220,2,0,P|269:219|310:250,1,103.999995239258,2|8,0:0|0:0,0:0:0:0:
370,331,23820,6,0,L|393:208,1,103.999995239258,2|0,0:0|0:0,0:0:0:0:
440,161,24420,2,0,P|416:149|391:146,1,51.999997619629,10|0,0:0|0:0,0:0:0:0:
351,62,24820,2,0,P|329:76|314:97,1,51.999997619629,2|0,0:0|0:0,0:0:0:0:
225,76,25220,2,0,P|226:101|237:125,1,51.999997619629,10|0,0:0|0:0,0:0:0:0:
196,267,25620,6,0,B|153:254|108:287|142:303|86:346|38:319,1,167.999994873047,6|8,1:2|0:0,0:0:0:0:
12,248,26220,1,2,0:0:0:0:
12,248,26320,1,0,0:0:0:0:
12,248,26420,2,0,P|-2:200|20:157,1,83.9999974365235,2|0,1:2|0:0,0:0:0:0:
74,80,26820,1,8,0:0:0:0:
175,173,27020,6,0,P|189:221|167:264,1,83.9999974365235,2|0,0:0|1:2,0:0:0:0:
118,323,27420,1,2,0:0:0:0:
208,374,27620,2,0,P|254:382|296:353,1,83.9999974365235,10|0,0:0|0:0,0:0:0:0:
285,365,27920,1,8,2:3:0:0:
285,365,28020,1,2,1:2:0:0:
358,271,28220,1,4,2:3:0:0:
453,359,28420,2,0,P|463:315|480:256,1,83.9999974365235,10|0,0:0|0:0,0:0:0:0:
302,146,28820,6,0,P|320:193|435:193,1,167.999994873047,2|8,1:2|0:0,0:0:0:0:
396,55,29420,1,2,0:0:0:0:
396,55,29520,1,0,0:0:0:0:
396,55,29620,2,0,P|384:111|371:172,1,83.9999974365235,2|0,1:2|0:0,0:0:0:0:
277,245,30020,2,0,P|268:203|259:162,1,83.9999974365235,8|2,0:0|0:0,0:0:0:0:
104,62,30420,6,0,P|142:88|189:80,1,83.9999974365235,0|2,1:2|0:0,0:0:0:0:
285,27,30820,1,10,0:0:0:0:
224,195,31020,1,8,2:3:0:0:
224,195,31120,1,8,2:3:0:0:
224,195,31220,2,0,P|178:187|102:170,1,83.9999974365235,2|4,1:2|2:3,0:0:0:0:
297,306,31620,2,0,P|338:297|379:290,1,83.9999974365235,10|0,0:0|0:0,0:0:0:0:
129,372,32020,6,0,P|83:372|53:249,1,167.999994873047,2|8,1:2|0:0,0:0:0:0:
121,192,32620,1,2,0:0:0:0:
121,192,32720,1,0,0:0:0:0:
121,192,32820,2,0,P|130:241|141:302,1,83.9999974365235,2|0,1:2|0:0,0:0:0:0:
189,116,33220,2,0,P|149:93|108:96,1,83.9999974365235,8|2,0:0|0:0,0:0:0:0:
244,241,33620,6,0,P|291:251|340:216,1,83.9999974365235,0|2,1:2|0:0,0:0:0:0:
322,236,33920,1,0,0:0:0:0:
322,236,34020,1,10,0:0:0:0:
314,69,34220,1,8,2:3:0:0:
314,69,34320,1,8,2:3:0:0:
314,69,34420,2,0,P|285:103|284:155,1,83.9999974365235,2|4,1:2|2:3,0:0:0:0:
475,177,34820,2,0,P|460:134|415:108,1,83.9999974365235,10|0,0:0|0:0,0:0:0:0:
319,286,35220,6,0,P|379:303|484:343,1,167.999994873047,2|8,1:2|0:0,0:0:0:0:
258,180,35820,1,2,0:0:0:0:
258,180,35920,1,0,0:0:0:0:
258,180,36020,2,0,P|204:199|152:211,1,83.9999974365235,2|0,1:2|0:0,0:0:0:0:
338,80,36420,2,0,P|378:91|417:105,1,83.9999974365235,8|2,0:0|0:0,0:0:0:0:
280,213,36820,5,0,1:2:0:0:
215,81,37020,2,0,P|227:30|244:-19,1,83.9999974365235,2|10,0:0|0:0,0:0:0:0:
322,156,37420,1,8,2:3:0:0:
322,156,37520,1,8,2:3:0:0:
322,156,37620,1,2,1:2:0:0:
238,207,37820,1,4,2:3:0:0:
322,254,38020,1,10,0:0:0:0:
253,310,38220,1,2,0:0:0:0:
378,374,38420,6,0,P|443:382|485:306,1,136.000002593994,6|10,1:2|0:0,0:0:0:0:
512,264,39020,1,2,1:2:0:0:
512,264,39420,5,2,0:0:0:0:
433,245,39620,1,10,0:0:0:0:
354,226,39820,1,2,0:0:0:0:
245,307,40020,5,2,1:2:0:0:
245,307,40220,2,0,P|237:268|224:221,1,68.0000012969971,2|8,0:0|0:0,0:0:0:0:
276,140,40620,2,0,P|266:182|169:193,1,136.000002593994,2|0,1:2|1:2,0:0:0:0:
138,118,41220,2,0,P|146:79|159:32,1,68.0000012969971,8|0,0:0|1:2,0:0:0:0:
5,173,41620,6,0,P|20:226|40:318,1,136.000002593994,2|10,1:2|0:0,0:0:0:0:
42,383,42220,1,2,1:2:0:0:
42,383,42620,5,2,0:0:0:0:
121,364,42820,1,10,0:0:0:0:
200,345,43020,1,2,0:0:0:0:
322,384,43220,5,2,1:2:0:0:
322,384,43420,2,0,P|331:344|346:291,1,68.0000012969971,2|8,0:0|0:0,0:0:0:0:
224,165,43820,2,0,P|232:197|239:231,1,68.0000012969971,2|0,1:2|1:2,0:0:0:0:
377,133,44220,1,0,1:2:0:0:
377,133,44320,1,0,1:2:0:0:
377,133,44420,2,0,L|387:88,3,34.0000006484985,8|0|0|0,0:0|1:2|1:2|1:2,0:0:0:0:
392,51,44820,6,0,P|369:22|264:38,1,136.000002593994,2|8,1:2|0:0,0:0:0:0:
217,88,45420,2,0,P|194:117|89:101,1,136.000002593994,2|0,0:0|1:2,0:0:0:0:
42,62,46020,1,8,0:0:0:0:
1,242,46220,5,0,1:2:0:0:
1,242,46320,1,0,0:0:0:0:
1,242,46420,2,0,P|41:230|146:198,1,136.000002593994,2|8,1:2|0:0,0:0:0:0:
190,275,47020,2,0,P|255:294|320:314,1,136.000002593994,2|0,0:0|0:0,0:0:0:0:
401,269,47620,2,0,P|412:230|424:191,1,68.0000012969971,8|0,0:0|0:0,0:0:0:0:
371,75,48020,6,0,P|348:112|242:112,1,136.000002593994,2|8,1:2|0:0,0:0:0:0:
134,66,48620,2,0,P|177:67|230:159,1,136.000002593994,2|0,0:0|0:0,0:0:0:0:
219,224,49220,2,0,P|221:182|250:150,1,68.0000012969971,8|0,0:0|0:0,0:0:0:0:
283,323,49620,6,0,P|255:340|221:340,1,68.0000012969971,0|0,1:2|0:0,0:0:0:0:
161,282,50020,1,8,0:0:0:0:
84,342,50220,1,0,0:0:0:0:
84,342,50420,2,0,P|78:302|58:211,1,102.000001945496,0|0,1:2|0:0,0:0:0:0:
131,183,50820,2,0,P|137:143|157:52,1,102.000001945496,8|0,0:0|0:0,0:0:0:0:
106,12,51220,5,4,1:2:0:0:
449,204,51820,5,0,1:2:0:0:
373,266,52020,1,8,2:3:0:0:
373,266,52220,1,8,2:3:0:0:
312,215,52420,1,4,2:3:0:0:
312,215,52620,1,4,2:3:0:0:
202,296,52820,6,0,B|157:279|108:313|149:328|93:365|45:345,1,167.999994873047,6|10,1:2|0:0,0:0:0:0:
0,256,53420,1,2,0:0:0:0:
0,256,53520,1,0,0:0:0:0:
0,256,53620,2,0,P|11:211|21:147,1,83.9999974365235,0|2,1:2|0:0,0:0:0:0:
130,85,54020,2,0,P|137:126|147:167,1,83.9999974365235,8|0,0:0|0:0,0:0:0:0:
317,304,54420,6,0,P|309:253|194:239,1,167.999994873047,2|10,1:2|0:0,0:0:0:0:
144,339,55020,1,2,0:0:0:0:
144,339,55120,1,0,0:0:0:0:
144,339,55220,2,0,P|191:351|247:373,1,83.9999974365235,0|0,1:2|0:0,0:0:0:0:
148,167,55620,1,8,0:0:0:0:
89,264,55820,1,0,0:0:0:0:
306,232,56020,6,0,P|293:172|273:48,1,167.999994873047,2|10,1:2|0:0,0:0:0:0:
189,16,56620,2,0,P|178:54|202:102,1,83.9999974365235,2|0,0:0|1:2,0:0:0:0:
384,170,57020,2,0,P|395:132|371:84,1,83.9999974365235,2|8,0:0|0:0,0:0:0:0:
340,26,57420,1,0,0:0:0:0:
230,221,57620,6,0,P|286:236|418:287,1,167.999994873047,2|10,1:2|0:0,0:0:0:0:
155,149,58220,2,0,P|109:171|54:189,1,83.9999974365235,2|0,0:0|1:2,0:0:0:0:
246,3,58620,1,0,0:0:0:0:
258,144,58820,1,8,0:0:0:0:
142,49,59020,1,0,0:0:0:0:
327,75,59220,6,0,P|375:95|432:109,1,83.9999974365235,0|0,1:2|0:0,0:0:0:0:
257,214,59620,2,0,P|216:226|178:242,1,83.9999974365235,10|0,0:0|0:0,0:0:0:0:
178,242,59920,1,0,0:0:0:0:
178,242,60020,1,2,1:2:0:0:
353,309,60220,1,2,0:0:0:0:
311,127,60420,2,0,P|302:177|289:237,1,83.9999974365235,8|2,0:0|0:0,0:0:0:0:
453,356,60820,6,0,P|496:334|487:208,1,167.999994873047,0|10,1:2|0:0,0:0:0:0:
362,248,61420,2,0,P|412:261|464:280,1,83.9999974365235,2|0,0:0|1:2,0:0:0:0:
317,148,61820,1,2,0:0:0:0:
405,82,62020,1,10,0:0:0:0:
405,82,62220,1,2,0:0:0:0:
271,14,62420,6,0,B|219:0|183:47|216:59|173:106|116:86,1,167.999994873047,2|8,1:2|0:0,0:0:0:0:
35,41,63020,1,0,0:0:0:0:
35,41,63120,1,0,0:0:0:0:
35,41,63220,2,0,P|45:89|57:146,1,83.9999974365235,0|0,1:2|0:0,0:0:0:0:
157,185,63620,1,8,0:0:0:0:
79,273,63820,1,0,0:0:0:0:
239,361,64020,5,2,1:2:0:0:
239,361,64620,5,8,2:3:0:0:
260,351,64820,1,4,2:3:0:0:
388,256,65020,1,0,1:2:0:0:
375,252,65120,1,0,1:2:0:0:
362,248,65220,2,0,L|374:194,3,41.9999987182618,0|0|0|0,1:2|1:2|1:2|1:2,0:0:0:0:
451,162,65620,6,0,P|400:177|339:85,1,167.999994873047,6|10,1:2|0:0,0:0:0:0:
414,17,66220,1,2,0:0:0:0:
414,17,66320,1,0,0:0:0:0:
414,17,66420,2,0,P|453:36|503:56,1,83.9999974365235,0|2,1:2|0:0,0:0:0:0:
314,107,66820,2,0,P|275:123|237:141,1,83.9999974365235,8|0,0:0|0:0,0:0:0:0:
418,308,67220,6,0,P|427:246|448:120,1,167.999994873047,2|10,1:2|0:0,0:0:0:0:
269,241,67820,1,2,0:0:0:0:
269,241,67920,1,0,0:0:0:0:
269,241,68020,2,0,P|298:273|345:273,1,83.9999974365235,0|0,1:2|0:0,0:0:0:0:
429,96,68420,1,8,0:0:0:0:
290,156,68620,1,0,0:0:0:0:
419,325,68820,6,0,P|458:277|400:173,1,167.999994873047,2|10,1:2|0:0,0:0:0:0:
308,275,69420,2,0,P|265:294|224:316,1,83.9999974365235,2|0,0:0|1:2,0:0:0:0:
138,133,69820,2,0,P|175:152|213:169,1,83.9999974365235,2|8,0:0|0:0,0:0:0:0:
77,245,70220,1,0,0:0:0:0:
249,75,70420,6,0,P|261:150|284:270,1,167.999994873047,2|10,1:2|0:0,0:0:0:0:
212,331,71020,2,0,B|184:291|184:291|199:242,1,83.9999974365235,2|0,0:0|1:2,0:0:0:0:
335,152,71420,1,0,0:0:0:0:
284,279,71620,1,8,0:0:0:0:
200,170,71820,1,0,0:0:0:0:
389,278,72020,6,0,P|437:294|487:315,1,83.9999974365235,0|0,1:2|0:0,0:0:0:0:
327,120,72420,2,0,P|305:155|327:214,1,83.9999974365235,10|0,0:0|0:0,0:0:0:0:
311,195,72720,1,0,0:0:0:0:
311,195,72820,1,2,1:2:0:0:
451,133,73020,1,2,0:0:0:0:
332,30,73220,2,0,P|289:45|227:63,1,83.9999974365235,8|2,0:0|0:0,0:0:0:0:
40,131,73620,6,0,P|93:107|176:194,1,167.999994873047,0|10,1:2|0:0,0:0:0:0:
215,252,74220,2,0,P|242:290|297:295,1,83.9999974365235,2|0,0:0|1:2,0:0:0:0:
346,217,74620,1,2,0:0:0:0:
421,365,74820,2,0,P|434:313|449:266,1,83.9999974365235,10|2,0:0|0:0,0:0:0:0:
304,93,75220,6,0,P|242:114|167:142,1,125.999996154785,2|0,1:2|0:0,0:0:0:0:
120,198,75620,1,2,1:2:0:0:
120,198,75720,1,2,1:2:0:0:
120,198,75820,2,0,L|49:181,1,41.9999987182618,2|2,1:2|1:2,0:0:0:0:
190,276,76020,6,0,P|249:254|308:234,1,125.999996154785,2|0,1:2|0:0,0:0:0:0:
385,285,76420,1,2,1:2:0:0:
385,285,76520,1,2,1:2:0:0:
385,285,76620,1,2,1:2:0:0:
493,204,76820,5,2,1:2:0:0:
397,136,77020,1,2,1:2:0:0:
512,81,77220,1,10,0:0:0:0:
415,16,77420,1,10,0:0:0:0:
267,65,77620,6,0,L|294:220,1,125.999996154785,2|0,1:2|0:0,0:0:0:0:
268,226,78020,2,0,L|260:261,6,20.9999993591309,2|2|2|2|2|2|2,1:2|1:2|1:2|1:2|1:2|1:2|1:2,0:0:0:0:
284,285,78420,6,0,P|231:270|174:322,1,125.999996154785,4|0,1:2|0:0,0:0:0:0:
137,361,78820,2,0,P|121:308|96:256,1,83.9999974365235,10|0,0:0|0:0,0:0:0:0:
216,145,79220,2,0,P|178:185|145:233,1,83.9999974365235,2|0,1:2|0:0,0:0:0:0:
0,174,79620,2,0,P|53:186|111:190,1,83.9999974365235,10|0,0:0|0:0,0:0:0:0:
293,50,80020,6,0,P|234:34|123:21,1,167.999994873047,2|10,1:2|0:0,0:0:0:0:
59,98,80620,2,0,P|96:121|154:113,1,83.9999974365235,2|0,0:0|1:2,0:0:0:0:
312,37,81020,2,0,P|275:14|217:22,1,83.9999974365235,2|8,0:0|0:0,0:0:0:0:
288,159,81420,1,2,0:0:0:0:
424,86,81620,6,0,P|411:154|389:268,1,167.999994873047,0|8,1:2|0:0,0:0:0:0:
290,354,82220,1,0,0:0:0:0:
290,354,82420,2,0,B|279:309|279:309|300:277,1,83.9999974365235,0|2,1:2|0:0,0:0:0:0:
400,260,82820,1,10,0:0:0:0:
400,260,82920,1,0,0:0:0:0:
400,260,83020,1,2,0:0:0:0:
290,153,83220,6,0,P|343:175|422:99,1,167.999994873047,0|10,1:2|0:0,0:0:0:0:
336,59,83820,1,2,0:0:0:0:
336,59,84020,2,0,P|292:47|244:33,1,83.9999974365235,0|2,1:2|0:0,0:0:0:0:
174,192,84420,2,0,P|206:159|242:125,1,83.9999974365235,8|0,0:0|0:0,0:0:0:0:
139,0,84820,6,0,P|150:44|162:92,1,83.9999974365235,2|0,1:2|0:0,0:0:0:0:
11,186,85220,2,0,P|21:145|31:104,1,83.9999974365235,10|0,0:0|0:0,0:0:0:0:
200,230,85620,2,0,P|155:215|95:196,1,83.9999974365235,2|0,1:2|0:0,0:0:0:0:
329,88,86020,2,0,P|284:103|224:122,1,83.9999974365235,10|0,0:0|0:0,0:0:0:0:
349,251,86420,6,0,P|375:199|491:215,1,167.999994873047,2|10,1:2|0:0,0:0:0:0:
512,294,87020,2,0,P|470:295|434:275,1,83.9999974365235,2|0,0:0|1:2,0:0:0:0:
390,178,87420,1,2,0:0:0:0:
452,120,87620,2,0,P|474:154|474:196,1,83.9999974365235,10|2,0:0|0:0,0:0:0:0:
344,319,88020,6,0,P|315:276|197:285,1,167.999994873047,2|8,1:2|0:0,0:0:0:0:
135,332,88620,1,2,0:0:0:0:
135,332,88820,2,0,P|88:313|34:300,1,83.9999974365235,0|8,1:2|2:3,0:0:0:0:
0,232,89220,2,0,P|47:213|101:200,1,83.9999974365235,8|0,0:0|0:0,0:0:0:0:
110,94,89620,6,0,P|143:144|248:130,1,167.999994873047,2|8,1:2|0:0,0:0:0:0:
308,60,90220,1,2,0:0:0:0:
308,60,90420,2,0,P|319:110|329:166,1,83.9999974365235,0|0,1:2|0:0,0:0:0:0:
415,194,90820,2,0,P|422:152|432:111,1,83.9999974365235,8|0,0:0|0:0,0:0:0:0:
481,312,91220,6,0,P|423:295|365:283,1,120.000004577637,6|8,0:0|0:0,0:0:0:0:
296,340,91820,1,2,0:0:0:0:
296,340,91920,1,0,0:0:0:0:
296,340,92020,2,0,P|238:357|179:369,1,120.000004577637,2|8,0:0|0:0,0:0:0:0:
54,336,92620,6,0,P|43:299|102:228,1,120.000004577637,2|0,0:0|0:0,0:0:0:0:
184,183,93220,2,0,P|143:167|105:159,1,60.0000022888184,10|0,0:0|0:0,0:0:0:0:
66,103,93620,2,0,P|94:92|123:84,1,60.0000022888184,2|0,0:0|0:0,0:0:0:0:
196,29,94020,2,0,P|168:17|139:9,1,60.0000022888184,10|0,0:0|0:0,0:0:0:0:
288,122,94420,6,0,P|328:105|428:79,1,120.000004577637,2|8,0:0|0:0,0:0:0:0:
500,20,95020,1,2,0:0:0:0:
500,20,95120,1,0,0:0:0:0:
500,20,95220,2,0,P|478:48|507:134,1,120.000004577637,2|8,0:0|0:0,0:0:0:0:
492,242,95820,6,0,P|452:225|352:199,1,120.000004577637,2|0,0:0|0:0,0:0:0:0:
305,258,96420,2,0,P|315:293|324:327,1,60.0000022888184,10|0,0:0|0:0,0:0:0:0:
233,214,96820,2,0,P|223:249|214:283,1,60.0000022888184,2|0,0:0|0:0,0:0:0:0:
131,159,97220,2,0,P|141:194|150:228,1,60.0000022888184,10|0,0:0|0:0,0:0:0:0:
16,101,97620,6,0,P|62:104|110:31,1,120.000004577637,2|8,0:0|0:0,0:0:0:0:
204,17,98220,1,2,0:0:0:0:
204,17,98320,1,0,0:0:0:0:
204,17,98420,2,0,P|194:69|176:161,1,120.000004577637,2|8,0:0|0:0,0:0:0:0:
204,227,99020,6,0,P|158:230|110:157,1,120.000004577637,2|0,0:0|0:0,0:0:0:0:
214,114,99620,2,0,P|248:103|288:80,1,60.0000022888184,10|0,0:0|0:0,0:0:0:0:
360,43,100020,2,0,P|352:77|352:124,1,60.0000022888184,2|0,0:0|0:0,0:0:0:0:
341,200,100420,2,0,P|314:176|274:152,1,60.0000022888184,10|0,0:0|0:0,0:0:0:0:
456,153,100820,6,0,P|449:211|434:295,1,120.000004577637,2|8,0:0|0:0,0:0:0:0:
368,330,101420,1,2,0:0:0:0:
368,330,101520,1,0,0:0:0:0:
368,330,101620,2,0,P|332:288|255:294,1,120.000004577637,2|8,0:0|0:0,0:0:0:0:
169,341,102220,6,0,P|179:281|186:222,1,120.000004577637,2|0,0:0|0:0,0:0:0:0:
142,144,102820,2,0,P|113:154|72:164,1,60.0000022888184,10|0,0:0|0:0,0:0:0:0:
243,136,103220,2,0,P|272:143|300:153,1,60.0000022888184,2|0,0:0|0:0,0:0:0:0:
182,73,103620,2,0,P|187:34|193:2,1,60.0000022888184,10|0,0:0|0:0,0:0:0:0:
490,29,104020,6,0,P|472:84|369:104,1,167.999994873047,6|8,1:2|0:0,0:0:0:0:
315,3,104620,1,2,0:0:0:0:
315,3,104720,1,0,0:0:0:0:
315,3,104820,2,0,P|361:18|403:23,1,83.9999974365235,2|0,1:2|0:0,0:0:0:0:
266,105,105220,1,8,0:0:0:0:
354,195,105420,6,0,P|366:146|380:96,1,83.9999974365235,2|0,0:0|1:2,0:0:0:0:
266,214,105820,1,2,0:0:0:0:
458,292,106020,2,0,P|446:243|432:193,1,83.9999974365235,10|0,0:0|0:0,0:0:0:0:
437,210,106320,1,8,2:3:0:0:
437,210,106420,1,2,1:2:0:0:
327,297,106620,1,4,2:3:0:0:
406,363,106820,2,0,P|455:375|515:394,1,83.9999974365235,10|0,0:0|0:0,0:0:0:0:
295,258,107220,6,0,P|246:278|134:314,1,167.999994873047,2|8,1:2|0:0,0:0:0:0:
45,252,107820,1,2,0:0:0:0:
45,252,107920,1,0,0:0:0:0:
45,252,108020,2,0,P|80:222|137:229,1,83.9999974365235,2|0,1:2|0:0,0:0:0:0:
265,351,108420,2,0,P|230:381|173:374,1,83.9999974365235,8|2,0:0|0:0,0:0:0:0:
195,173,108820,6,0,P|202:223|212:270,1,83.9999974365235,0|2,1:2|0:0,0:0:0:0:
95,134,109220,1,10,0:0:0:0:
263,65,109420,1,8,2:3:0:0:
263,65,109520,1,8,2:3:0:0:
263,65,109620,2,0,P|271:106|276:147,1,83.9999974365235,2|4,1:2|2:3,0:0:0:0:
223,266,110020,2,0,P|182:285|142:315,1,83.9999974365235,10|0,0:0|0:0,0:0:0:0:
392,160,110420,6,0,P|429:196|388:319,1,167.999994873047,2|8,1:2|0:0,0:0:0:0:
294,379,111020,1,2,0:0:0:0:
294,379,111120,1,0,0:0:0:0:
294,379,111220,2,0,P|304:327|317:270,1,83.9999974365235,2|0,1:2|0:0,0:0:0:0:
127,204,111620,2,0,P|135:245|143:286,1,83.9999974365235,8|2,0:0|0:0,0:0:0:0:
238,119,112020,6,0,P|176:105|129:93,1,83.9999974365235,0|2,1:2|0:0,0:0:0:0:
156,100,112320,1,0,0:0:0:0:
156,100,112420,1,10,0:0:0:0:
20,166,112620,1,8,2:3:0:0:
20,166,112720,1,8,2:3:0:0:
20,166,112820,2,0,P|9:119|-4:74,1,83.9999974365235,2|4,1:2|2:3,0:0:0:0:
113,234,113220,2,0,P|62:255|10:285,1,83.9999974365235,10|0,0:0|0:0,0:0:0:0:
219,84,113620,6,0,P|247:137|355:128,1,167.999994873047,2|8,1:2|0:0,0:0:0:0:
418,35,114220,1,2,0:0:0:0:
418,35,114320,1,0,0:0:0:0:
418,35,114420,2,0,P|464:53|515:65,1,83.9999974365235,2|0,1:2|0:0,0:0:0:0:
381,221,114820,2,0,P|365:167|345:110,1,83.9999974365235,8|2,0:0|0:0,0:0:0:0:
479,203,115220,5,0,1:2:0:0:
390,315,115420,2,0,P|341:301|290:290,1,83.9999974365235,2|10,0:0|0:0,0:0:0:0:
194,375,115820,1,8,2:3:0:0:
194,375,115920,1,8,2:3:0:0:
194,375,116020,1,2,1:2:0:0:
130,310,116220,1,4,2:3:0:0:
196,249,116420,1,10,0:0:0:0:
127,193,116620,1,2,0:0:0:0:
262,30,116820,6,0,P|270:94|283:189,1,136.000002593994,6|10,1:2|0:0,0:0:0:0:
291,245,117420,1,2,1:2:0:0:
291,245,117820,5,2,0:0:0:0:
218,272,118020,1,10,0:0:0:0:
145,300,118220,1,2,0:0:0:0:
34,373,118420,5,2,1:2:0:0:
34,373,118620,2,0,P|24:326|12:282,1,68.0000012969971,2|8,0:0|0:0,0:0:0:0:
12,177,119020,2,0,P|36:217|130:208,1,136.000002593994,2|0,1:2|1:2,0:0:0:0:
174,137,119620,2,0,P|184:90|196:46,1,68.0000012969971,8|0,0:0|1:2,0:0:0:0:
337,213,120020,6,0,P|286:230|188:268,1,136.000002593994,2|10,1:2|0:0,0:0:0:0:
133,296,120620,1,2,1:2:0:0:
133,296,121020,5,2,0:0:0:0:
206,323,121220,1,10,0:0:0:0:
279,351,121420,1,2,0:0:0:0:
453,304,121620,5,2,1:2:0:0:
453,304,121820,2,0,P|466:354|474:391,1,68.0000012969971,2|8,0:0|0:0,0:0:0:0:
321,234,122220,2,0,P|328:200|337:168,1,68.0000012969971,2|0,1:2|1:2,0:0:0:0:
462,84,122620,1,0,1:2:0:0:
462,84,122720,1,0,1:2:0:0:
462,84,122820,2,0,L|451:36,3,34.0000006484985,8|0|0|0,0:0|1:2|1:2|1:2,0:0:0:0:
430,19,123220,6,0,P|392:63|310:36,1,136.000002593994,2|8,1:2|0:0,0:0:0:0:
240,3,123820,2,0,P|176:-12|131:34,1,136.000002593994,2|0,0:0|1:2,0:0:0:0:
89,117,124420,1,8,0:0:0:0:
162,197,124620,1,0,1:2:0:0:
162,197,124720,1,0,0:0:0:0:
162,197,124820,6,0,P|204:212|318:231,1,136.000002593994,2|8,1:2|0:0,0:0:0:0:
473,259,125420,2,0,P|406:270|341:291,1,136.000002593994,2|0,0:0|0:0,0:0:0:0:
261,376,126020,2,0,P|254:328|242:279,1,68.0000012969971,8|0,0:0|0:0,0:0:0:0:
114,253,126420,6,0,P|126:187|144:121,1,136.000002593994,2|8,1:2|0:0,0:0:0:0:
298,113,127020,2,0,P|234:135|169:152,1,136.000002593994,2|0,0:0|0:0,0:0:0:0:
104,57,127620,2,0,P|130:80|155:103,1,68.0000012969971,8|0,0:0|0:0,0:0:0:0:
194,281,128020,6,0,P|201:247|212:215,1,68.0000012969971,0|0,1:2|0:0,0:0:0:0:
306,297,128420,1,8,0:0:0:0:
304,176,128620,1,0,0:0:0:0:
304,176,128820,2,0,P|336:186|414:204,1,102.000001945496,0|0,1:2|0:0,0:0:0:0:
470,168,129220,2,0,P|490:118|465:57,1,102.000001945496,8|0,0:0|0:0,0:0:0:0:
437,11,129620,5,4,1:2:0:0:
100,105,130220,5,0,1:2:0:0:
173,175,130420,1,8,2:3:0:0:
173,175,130620,1,8,2:3:0:0:
245,125,130820,1,4,2:3:0:0:
245,125,131020,1,4,2:3:0:0:
344,204,131220,6,0,P|320:277|303:385,1,167.999994873047,6|10,1:2|0:0,0:0:0:0:
213,358,131820,1,2,0:0:0:0:
213,358,131920,1,0,0:0:0:0:
213,358,132020,2,0,P|203:313|232:263,1,83.9999974365235,0|2,1:2|0:0,0:0:0:0:
410,262,132420,2,0,P|420:307|391:357,1,83.9999974365235,8|0,0:0|0:0,0:0:0:0:
263,180,132820,6,0,P|314:194|378:106,1,167.999994873047,2|10,1:2|0:0,0:0:0:0:
286,51,133420,1,2,0:0:0:0:
286,51,133520,1,0,0:0:0:0:
286,51,133620,2,0,P|231:37|180:16,1,83.9999974365235,0|0,1:2|0:0,0:0:0:0:
79,179,134020,1,8,0:0:0:0:
184,113,134220,1,0,0:0:0:0:
22,69,134420,6,0,P|37:121|64:245,1,167.999994873047,2|10,1:2|0:0,0:0:0:0:
30,357,135020,2,0,P|73:333|125:316,1,83.9999974365235,2|0,0:0|1:2,0:0:0:0:
227,222,135420,2,0,P|187:206|151:186,1,83.9999974365235,2|8,0:0|0:0,0:0:0:0:
204,321,135820,1,0,0:0:0:0:
356,236,136020,6,0,P|399:231|470:342,1,167.999994873047,2|10,1:2|0:0,0:0:0:0:
290,310,136620,2,0,P|267:270|274:209,1,83.9999974365235,2|0,0:0|1:2,0:0:0:0:
359,90,137020,1,0,0:0:0:0:
254,150,137220,1,8,0:0:0:0:
358,199,137420,1,0,0:0:0:0:
249,49,137620,6,0,P|208:66|155:80,1,83.9999974365235,0|0,1:2|0:0,0:0:0:0:
61,172,138020,2,0,P|101:183|140:199,1,83.9999974365235,10|0,0:0|0:0,0:0:0:0:
140,199,138320,1,0,0:0:0:0:
140,199,138420,1,2,1:2:0:0:
261,137,138620,1,2,0:0:0:0:
116,15,138820,2,0,P|88:49|93:107,1,83.9999974365235,8|2,0:0|0:0,0:0:0:0:
203,241,139220,6,0,P|189:179|168:69,1,167.999994873047,0|10,1:2|0:0,0:0:0:0:
292,12,139820,2,0,P|277:73|268:111,1,83.9999974365235,2|0,0:0|1:2,0:0:0:0:
335,197,140220,1,2,0:0:0:0:
423,111,140420,1,10,0:0:0:0:
423,111,140620,1,2,0:0:0:0:
472,310,140820,6,0,P|425:243|344:243,1,167.999994873047,2|8,1:2|0:0,0:0:0:0:
244,326,141420,1,0,0:0:0:0:
244,326,141520,1,0,0:0:0:0:
244,326,141620,2,0,P|204:357|146:344,1,83.9999974365235,0|0,1:2|0:0,0:0:0:0:
79,275,142020,1,8,0:0:0:0:
166,185,142220,1,0,0:0:0:0:
60,102,142420,5,2,1:2:0:0:
60,102,143020,5,8,2:3:0:0:
77,109,143220,1,4,2:3:0:0:
217,15,143420,1,0,1:2:0:0:
204,20,143520,1,0,1:2:0:0:
190,25,143620,2,0,L|200:81,3,41.9999987182618,0|0|0|0,1:2|1:2|1:2|1:2,0:0:0:0:
162,136,144020,6,0,P|208:109|304:192,1,167.999994873047,6|10,1:2|0:0,0:0:0:0:
246,270,144620,1,2,0:0:0:0:
246,270,144720,1,0,0:0:0:0:
246,270,144820,2,0,P|205:285|146:313,1,83.9999974365235,0|2,1:2|0:0,0:0:0:0:
315,164,145220,2,0,P|353:181|392:195,1,83.9999974365235,8|0,0:0|0:0,0:0:0:0:
443,329,145620,6,0,P|460:264|494:155,1,167.999994873047,2|10,1:2|0:0,0:0:0:0:
351,27,146220,1,2,0:0:0:0:
351,27,146320,1,0,0:0:0:0:
351,27,146420,2,0,P|363:70|379:130,1,83.9999974365235,0|0,1:2|0:0,0:0:0:0:
347,232,146820,1,8,0:0:0:0:
466,149,147020,1,0,0:0:0:0:
267,69,147220,6,0,B|224:52|174:87|211:96|165:136|106:113,1,167.999994873047,2|10,1:2|0:0,0:0:0:0:
49,4,147820,2,0,P|101:25|145:34,1,83.9999974365235,2|0,0:0|1:2,0:0:0:0:
39,183,148220,2,0,P|31:127|16:84,1,83.9999974365235,2|8,0:0|0:0,0:0:0:0:
168,149,148620,1,0,0:0:0:0:
80,279,148820,6,0,P|141:260|218:336,1,167.999994873047,2|10,1:2|0:0,0:0:0:0:
336,290,149420,2,0,P|322:344|308:398,1,83.9999974365235,2|0,0:0|1:2,0:0:0:0:
288,144,149820,1,0,0:0:0:0:
394,216,150020,1,8,0:0:0:0:
270,258,150220,1,0,0:0:0:0:
393,122,150420,6,0,P|449:145|508:159,1,83.9999974365235,0|0,1:2|0:0,0:0:0:0:
296,12,150820,2,0,P|255:24|217:41,1,83.9999974365235,10|0,0:0|0:0,0:0:0:0:
217,41,151120,1,0,0:0:0:0:
217,41,151220,1,2,1:2:0:0:
329,181,151420,1,2,0:0:0:0:
423,89,151620,2,0,P|440:24|452:-17,1,83.9999974365235,8|2,0:0|0:0,0:0:0:0:
222,143,152020,6,0,P|239:200|265:323,1,167.999994873047,0|10,1:2|0:0,0:0:0:0:
182,369,152620,2,0,P|137:370|95:320,1,83.9999974365235,2|0,0:0|1:2,0:0:0:0:
173,270,153020,1,2,0:0:0:0:
301,381,153220,2,0,P|350:361|398:344,1,83.9999974365235,10|2,0:0|0:0,0:0:0:0:
204,206,153620,6,0,P|152:190|73:153,1,120.000004577637,0|8,1:2|0:0,0:0:0:0:
48,81,154220,1,0,0:0:0:0:
48,81,154420,2,0,P|100:65|179:28,1,120.000004577637,0|8,1:2|0:0,0:0:0:0:
236,81,155020,1,0,0:0:0:0:
256,192,155120,12,0,160020,0:0:0:0:
