osu file format v14

[General]
AudioFilename: audio.mp3
AudioLeadIn: 0
PreviewTime: 51420
Countdown: 0
SampleSet: Soft
StackLeniency: 0.7
Mode: 0
LetterboxInBreaks: 0
WidescreenStoryboard: 0

[Editor]
Bookmarks: 150420
DistanceSpacing: 0.3
BeatDivisor: 4
GridSize: 32
TimelineZoom: 2.4

[Metadata]
Title:Romance Shitai (massaji Remix)
TitleUnicode:ロマンスしたい (massaji Remix)
Artist:Okamoto Maiko
ArtistUnicode:岡本舞子
Creator:Kujinn
Version:Expert
Source:
Tags:reform future funk city pop japanese jpop j 80s synth i want heart no tobira ハートの扉
BeatmapID:3014090
BeatmapSetID:1467799

[Difficulty]
HPDrainRate:5
CircleSize:4
OverallDifficulty:8
ApproachRate:8.5
SliderMultiplier:1.7
SliderTickRate:1

[Events]
//Background and Video events
0,0,"BG.jpg",0,0
//Break Periods
//Storyboard Layer 0 (Background)
//Storyboard Layer 1 (Fail)
//Storyboard Layer 2 (Pass)
//Storyboard Layer 3 (Foreground)
//Storyboard Layer 4 (Overlay)
//Storyboard Sound Samples

[TimingPoints]
20,400,4,2,2,35,1,0
12820,-153.846153846153,4,2,2,35,0,0
25620,-95.238095238095,4,2,2,65,0,0
38420,-117.647058823529,4,2,2,55,0,0
52820,-95.2380952380952,4,2,2,75,0,1
76820,-68.9655172413793,4,2,2,75,0,1
78020,-68.9655172413793,4,2,2,65,0,1
78420,-95.2380952380952,4,2,2,75,0,0
91220,-133.333333333333,4,2,2,35,0,0
104020,-95.2380952380952,4,2,2,65,0,0
116820,-117.647058823529,4,2,2,55,0,0
131220,-95.238095238095,4,2,2,75,0,1
153620,-133.333333333333,4,2,2,65,0,0
154020,-133.333333333333,4,2,2,55,0,0
154420,-133.333333333333,4,2,2,45,0,0
154820,-133.333333333333,4,2,2,35,0,0
155320,-133.333333333333,4,2,2,5,0,0

[Colours]
Combo1 : 249,200,209
Combo2 : 226,31,55
Combo3 : 240,83,106
Combo4 : 242,136,145

[HitObjects]
61,40,12820,6,0,P|72:91|83:160,1,110.499994941712,6|8,0:0|0:0,0:0:0:0:
152,217,13420,1,2,0:0:0:0:
152,217,13520,1,0,0:0:0:0:
152,217,13620,2,0,P|141:268|130:337,1,110.499994941712,2|8,0:0|0:0,0:0:0:0:
228,371,14220,6,0,P|273:386|336:340,1,110.499994941712,2|0,0:0|0:0,0:0:0:0:
391,292,14820,2,0,P|437:303|467:316,1,55.2499974708558,10|0,0:0|0:0,0:0:0:0:
340,213,15220,2,0,P|366:204|393:199,1,55.2499974708558,2|0,0:0|0:0,0:0:0:0:
294,109,15620,2,0,P|340:120|370:133,1,55.2499974708558,10|0,0:0|0:0,0:0:0:0:
511,98,16020,6,0,P|462:99|423:33,1,110.499994941712,2|8,0:0|0:0,0:0:0:0:
336,15,16620,1,2,0:0:0:0:
336,15,16720,1,0,0:0:0:0:
336,15,16820,2,0,P|287:14|248:80,1,110.499994941712,2|8,0:0|0:0,0:0:0:0:
145,99,17420,6,0,P|156:155|172:232,1,110.499994941712,2|0,0:0|0:0,0:0:0:0:
243,246,18020,2,0,L|232:311,1,55.2499974708558,10|0,0:0|0:0,0:0:0:0:
318,297,18420,2,0,L|329:362,1,55.2499974708558,2|0,0:0|0:0,0:0:0:0:
412,330,18820,2,0,L|401:395,1,55.2499974708558,10|0,0:0|0:0,0:0:0:0:
492,234,19220,6,0,P|435:223|367:209,1,110.499994941712,2|8,0:0|0:0,0:0:0:0:
281,135,19820,1,2,0:0:0:0:
281,135,19920,1,0,0:0:0:0:
281,135,20020,2,0,P|338:124|406:110,1,110.499994941712,2|8,0:0|0:0,0:0:0:0:
512,68,20620,6,0,P|472:75|413:13,1,110.499994941712,2|0,0:0|0:0,0:0:0:0:
335,2,21220,2,0,P|323:34|323:65,1,55.2499974708558,10|0,0:0|0:0,0:0:0:0:
231,87,21620,2,0,P|252:113|279:128,1,55.2499974708558,2|0,0:0|0:0,0:0:0:0:
262,213,22020,2,0,P|295:207|322:191,1,55.2499974708558,10|0,0:0|0:0,0:0:0:0:
507,315,22420,6,0,P|486:287|412:287,1,110.499994941712,2|8,0:0|0:0,0:0:0:0:
328,348,23020,1,2,0:0:0:0:
328,348,23120,1,0,0:0:0:0:
328,348,23220,2,0,P|307:376|233:376,1,110.499994941712,2|8,0:0|0:0,0:0:0:0:
114,369,23820,6,0,P|123:323|146:237,1,110.499994941712,2|0,0:0|0:0,0:0:0:0:
18,151,24420,2,0,P|45:181|77:188,1,55.2499974708558,10|0,0:0|0:0,0:0:0:0:
113,57,24820,2,0,P|100:95|110:126,1,55.2499974708558,2|0,0:0|0:0,0:0:0:0:
254,82,25220,2,0,P|214:90|192:114,1,55.2499974708558,10|0,0:0|0:0,0:0:0:0:
315,246,25620,6,0,P|368:261|498:316,1,178.499994552612,6|8,1:2|0:0,0:0:0:0:
505,164,26220,1,2,0:0:0:0:
505,164,26320,1,0,0:0:0:0:
505,164,26420,2,0,P|457:169|428:216,1,89.2499972763062,2|0,1:2|0:0,0:0:0:0:
381,301,26820,1,8,0:0:0:0:
235,198,27020,6,0,P|222:146|207:96,1,89.2499972763062,2|0,0:0|1:2,0:0:0:0:
110,257,27420,1,2,0:0:0:0:
40,106,27620,2,0,P|53:54|68:4,1,89.2499972763062,10|0,0:0|0:0,0:0:0:0:
62,19,27920,1,8,2:3:0:0:
62,19,28020,1,2,1:2:0:0:
177,128,28220,1,4,2:3:0:0:
74,231,28420,2,0,P|26:249|-22:280,1,89.2499972763062,10|0,0:0|0:0,0:0:0:0:
258,305,28820,6,0,B|310:287|353:333|317:347|362:391|415:372,1,178.499994552612,2|8,1:2|0:0,0:0:0:0:
512,229,29420,1,2,0:0:0:0:
512,229,29520,1,0,0:0:0:0:
512,229,29620,2,0,P|501:281|491:330,1,89.2499972763062,2|0,1:2|0:0,0:0:0:0:
330,122,30020,2,0,P|341:174|351:223,1,89.2499972763062,8|2,0:0|0:0,0:0:0:0:
453,39,30420,6,0,P|405:25|353:8,1,89.2499972763062,0|2,1:2|0:0,0:0:0:0:
244,104,30820,1,10,0:0:0:0:
423,180,31020,1,8,2:3:0:0:
423,180,31120,1,8,2:3:0:0:
423,180,31220,2,0,P|465:166|508:153,1,89.2499972763062,2|4,1:2|2:3,0:0:0:0:
273,284,31620,1,10,0:0:0:0:
316,143,31820,1,0,0:0:0:0:
495,296,32020,6,0,P|479:351|362:354,1,178.499994552612,2|8,1:2|0:0,0:0:0:0:
263,216,32620,1,2,0:0:0:0:
263,216,32720,1,0,0:0:0:0:
263,216,32820,2,0,P|213:224|184:261,1,89.2499972763062,2|0,1:2|0:0,0:0:0:0:
402,180,33220,2,0,P|411:126|424:61,1,89.2499972763062,8|2,0:0|0:0,0:0:0:0:
102,204,33620,6,0,P|110:247|122:334,1,89.2499972763062,0|2,1:2|0:0,0:0:0:0:
116,291,33920,1,0,0:0:0:0:
116,291,34020,1,10,0:0:0:0:
220,150,34220,1,8,2:3:0:0:
220,150,34320,1,8,2:3:0:0:
220,150,34420,1,2,1:2:0:0:
42,210,34620,1,4,2:3:0:0:
242,308,34820,2,0,P|255:252|269:191,1,89.2499972763062,10|0,0:0|0:0,0:0:0:0:
126,26,35220,6,0,P|78:11|3:115,1,178.499994552612,2|8,1:2|0:0,0:0:0:0:
101,206,35820,1,2,0:0:0:0:
101,206,35920,1,0,0:0:0:0:
101,206,36020,2,0,P|150:187|207:171,1,89.2499972763062,2|0,1:2|0:0,0:0:0:0:
315,44,36420,2,0,P|266:25|209:9,1,89.2499972763062,8|2,0:0|0:0,0:0:0:0:
306,242,36820,5,0,1:2:0:0:
437,98,37020,2,0,P|432:42|419:-20,1,89.2499972763062,2|10,0:0|0:0,0:0:0:0:
279,144,37420,1,8,2:3:0:0:
279,144,37520,1,8,2:3:0:0:
279,144,37620,1,2,1:2:0:0:
408,210,37820,1,4,2:3:0:0:
279,283,38020,1,10,0:0:0:0:
432,355,38220,1,2,0:0:0:0:
283,206,38420,6,0,P|208:233|205:317,1,144.500002756119,6|10,1:2|0:0,0:0:0:0:
225,362,39020,1,2,1:2:0:0:
225,362,39420,5,2,0:0:0:0:
305,343,39620,1,10,0:0:0:0:
386,325,39820,1,2,0:0:0:0:
512,234,40020,5,2,1:2:0:0:
475,374,40220,2,0,P|462:323|449:275,1,72.2500013780594,2|8,0:0|0:0,0:0:0:0:
359,148,40620,2,0,P|345:196|322:305,1,144.500002756119,2|0,1:2|1:2,0:0:0:0:
244,333,41220,1,8,0:0:0:0:
235,328,41420,1,0,1:2:0:0:
220,108,41620,6,0,P|268:124|361:148,1,144.500002756119,2|10,1:2|0:0,0:0:0:0:
439,134,42220,1,2,1:2:0:0:
439,134,42620,5,2,0:0:0:0:
420,213,42820,1,10,0:0:0:0:
402,294,43020,1,2,0:0:0:0:
305,377,43220,5,2,1:2:0:0:
230,224,43420,2,0,P|215:275|205:316,1,72.2500013780594,2|8,0:0|0:0,0:0:0:0:
349,188,43820,2,0,P|340:153|330:119,1,72.2500013780594,2|0,1:2|1:2,0:0:0:0:
184,34,44220,5,0,1:2:0:0:
174,38,44320,1,0,1:2:0:0:
164,42,44420,1,8,0:0:0:0:
154,46,44520,1,0,1:2:0:0:
144,50,44620,1,0,1:2:0:0:
134,54,44720,1,0,1:2:0:0:
124,58,44820,6,0,P|173:79|253:131,1,144.500002756119,2|8,1:2|0:0,0:0:0:0:
100,283,45420,2,0,P|152:256|247:229,1,144.500002756119,2|0,0:0|1:2,0:0:0:0:
321,332,46020,1,8,0:0:0:0:
449,247,46220,5,0,1:2:0:0:
449,247,46320,1,0,0:0:0:0:
449,247,46420,2,0,P|439:199|415:81,1,144.500002756119,2|8,1:2|0:0,0:0:0:0:
245,335,47020,2,0,P|255:287|279:169,1,144.500002756119,2|0,0:0|0:0,0:0:0:0:
377,384,47620,1,8,0:0:0:0:
446,254,47820,1,0,0:0:0:0:
245,335,48020,6,0,P|171:340|128:268,1,144.500002756119,2|8,1:2|0:0,0:0:0:0:
34,254,48620,2,0,P|108:259|151:187,1,144.500002756119,2|0,0:0|0:0,0:0:0:0:
106,119,49220,2,0,P|56:105|15:92,1,72.2500013780594,8|0,0:0|0:0,0:0:0:0:
207,1,49620,6,0,P|198:44|187:87,1,72.2500013780594,0|0,1:2|0:0,0:0:0:0:
236,190,50020,1,8,0:0:0:0:
336,144,50220,1,0,0:0:0:0:
336,144,50420,2,0,P|327:99|389:57,1,108.375002067089,0|0,1:2|0:0,0:0:0:0:
384,34,50820,2,0,P|427:48|432:123,1,108.375002067089,8|0,0:0|0:0,0:0:0:0:
462,129,51220,5,4,1:2:0:0:
462,129,51820,1,0,1:2:0:0:
402,268,52020,1,8,2:3:0:0:
338,138,52220,1,8,2:3:0:0:
483,211,52420,1,4,2:3:0:0:
483,211,52620,1,4,2:3:0:0:
304,111,52820,6,0,B|255:96|205:141|258:156|202:213|135:184,1,178.499994552612,6|10,1:2|0:0,0:0:0:0:
0,21,53420,1,2,0:0:0:0:
0,21,53520,1,0,0:0:0:0:
0,21,53620,1,0,1:2:0:0:
168,90,53820,1,2,0:0:0:0:
21,222,54020,2,0,P|12:169|-6:109,1,89.2499972763062,8|0,0:0|0:0,0:0:0:0:
231,198,54420,6,0,P|213:274|198:379,1,178.499994552612,2|10,1:2|0:0,0:0:0:0:
56,226,55020,1,2,0:0:0:0:
56,226,55120,1,0,0:0:0:0:
56,226,55220,2,0,P|88:195|147:201,1,89.2499972763062,0|0,1:2|0:0,0:0:0:0:
316,291,55620,1,8,0:0:0:0:
171,384,55820,1,0,0:0:0:0:
447,189,56020,6,0,P|426:275|414:364,1,178.499994552612,2|10,1:2|0:0,0:0:0:0:
293,122,56620,2,0,B|277:163|277:163|310:214,1,89.2499972763062,2|0,0:0|1:2,0:0:0:0:
351,274,57020,1,2,0:0:0:0:
512,93,57220,2,0,B|528:52|528:52|495:1,1,89.2499972763062,8|0,0:0|0:0,0:0:0:0:
225,57,57620,6,0,P|279:72|419:121,1,178.499994552612,2|10,1:2|0:0,0:0:0:0:
184,203,58220,2,0,P|138:220|80:249,1,89.2499972763062,2|0,0:0|1:2,0:0:0:0:
239,31,58620,1,0,0:0:0:0:
332,235,58820,1,8,0:0:0:0:
122,143,59020,1,0,0:0:0:0:
397,95,59220,6,0,P|407:160|419:211,1,89.2499972763062,0|0,1:2|0:0,0:0:0:0:
225,336,59620,2,0,P|233:292|239:248,1,89.2499972763062,10|0,0:0|0:0,0:0:0:0:
239,248,59920,1,0,0:0:0:0:
239,248,60020,1,2,1:2:0:0:
122,141,60220,1,2,0:0:0:0:
67,302,60420,2,0,P|11:322|-36:342,1,89.2499972763062,8|2,0:0|0:0,0:0:0:0:
158,151,60820,6,0,P|209:174|342:202,1,178.499994552612,0|10,1:2|0:0,0:0:0:0:
470,24,61420,1,2,0:0:0:0:
470,24,61520,1,0,0:0:0:0:
470,24,61620,1,0,1:2:0:0:
280,112,61820,1,2,0:0:0:0:
476,219,62020,1,10,0:0:0:0:
367,22,62220,1,2,0:0:0:0:
303,307,62420,6,0,P|350:355|472:342,1,178.499994552612,2|8,1:2|0:0,0:0:0:0:
262,128,63020,1,0,0:0:0:0:
262,128,63120,1,0,0:0:0:0:
262,128,63220,1,0,1:2:0:0:
144,297,63420,1,0,0:0:0:0:
387,174,63620,1,8,0:0:0:0:
153,34,63820,1,0,0:0:0:0:
275,346,64020,5,2,1:2:0:0:
275,346,64620,5,8,2:3:0:0:
290,351,64820,1,4,2:3:0:0:
377,182,65020,5,0,1:2:0:0:
364,186,65120,1,0,1:2:0:0:
351,190,65220,1,0,1:2:0:0:
338,194,65320,1,0,1:2:0:0:
325,198,65420,1,0,1:2:0:0:
312,202,65520,1,0,1:2:0:0:
299,207,65620,6,0,P|314:144|355:15,1,178.499994552612,6|10,1:2|0:0,0:0:0:0:
215,85,66220,1,2,0:0:0:0:
215,85,66320,1,0,0:0:0:0:
215,85,66420,1,0,1:2:0:0:
394,180,66620,1,2,0:0:0:0:
213,257,66820,2,0,P|156:278|99:310,1,89.2499972763062,8|0,0:0|0:0,0:0:0:0:
362,360,67220,6,0,P|430:377|491:281,1,178.499994552612,2|10,1:2|0:0,0:0:0:0:
387,204,67820,1,2,0:0:0:0:
387,204,67920,1,0,0:0:0:0:
387,204,68020,2,0,P|402:255|419:315,1,89.2499972763062,0|0,1:2|0:0,0:0:0:0:
275,101,68420,1,8,0:0:0:0:
490,206,68620,1,0,0:0:0:0:
511,35,68820,6,0,B|460:24|412:66|461:80|405:137|338:108,1,178.499994552612,2|10,1:2|0:0,0:0:0:0:
257,0,69420,2,0,P|309:22|355:36,1,89.2499972763062,2|0,0:0|1:2,0:0:0:0:
170,118,69820,1,2,0:0:0:0:
381,232,70020,2,0,P|338:246|297:264,1,89.2499972763062,8|0,0:0|0:0,0:0:0:0:
107,360,70420,6,0,P|95:282|71:152,1,178.499994552612,2|10,1:2|0:0,0:0:0:0:
138,75,71020,2,0,B|166:114|166:114|145:168,1,89.2499972763062,2|0,0:0|1:2,0:0:0:0:
13,271,71420,1,0,0:0:0:0:
13,271,71620,2,0,B|-15:232|-15:232|6:178,1,89.2499972763062,8|0,0:0|0:0,0:0:0:0:
196,329,72020,6,0,P|143:346|96:367,1,89.2499972763062,0|0,1:2|0:0,0:0:0:0:
303,200,72420,2,0,P|344:216|386:230,1,89.2499972763062,10|0,0:0|0:0,0:0:0:0:
386,230,72720,1,0,0:0:0:0:
386,230,72820,1,2,1:2:0:0:
286,365,73020,1,2,0:0:0:0:
144,206,73220,2,0,P|159:260|172:321,1,89.2499972763062,8|2,0:0|0:0,0:0:0:0:
318,178,73620,6,0,P|334:109|367:-7,1,178.499994552612,0|10,1:2|0:0,0:0:0:0:
243,248,74220,1,2,0:0:0:0:
243,248,74320,1,0,0:0:0:0:
243,248,74420,1,0,1:2:0:0:
427,125,74620,1,2,0:0:0:0:
225,46,74820,1,10,0:0:0:0:
395,236,75020,1,2,0:0:0:0:
138,359,75220,6,0,P|92:372|32:309,1,133.874995914459,2|0,1:2|0:0,0:0:0:0:
1,251,75620,1,2,1:2:0:0:
4,238,75720,1,2,1:2:0:0:
7,225,75820,1,2,1:2:0:0:
10,212,75920,1,2,1:2:0:0:
14,197,76020,2,0,P|60:210|120:147,1,133.874995914459,2|0,1:2|0:0,0:0:0:0:
168,90,76420,1,2,1:2:0:0:
166,76,76520,1,2,1:2:0:0:
164,62,76620,1,2,1:2:0:0:
308,10,76820,6,0,P|339:34|375:55,1,61.6250018806458,2|0,1:2|0:0,0:0:0:0:
281,159,77020,2,0,P|285:129|287:98,1,61.6250018806458,2|0,1:2|0:0,0:0:0:0:
425,186,77221,6,0,P|400:166|375:150,1,61.6250018806458,10|0,0:0|0:0,0:0:0:0:
451,36,77420,2,0,P|445:74|445:116,1,61.6250018806458,10|0,0:0|0:0,0:0:0:0:
490,234,77620,6,0,P|428:223|397:342,1,184.875005641937,2|0,1:2|0:0,0:0:0:0:
435,376,78020,2,0,L|486:386,6,30.8125009403229,2|2|2|2|2|2|2,1:2|1:2|1:2|1:2|1:2|1:2|1:2,0:0:0:0:
373,314,78420,6,0,P|320:331|234:349,1,133.874995914459,4|0,1:2|0:0,0:0:0:0:
176,383,78820,2,0,P|165:330|204:283,1,89.2499972763062,10|0,0:0|0:0,0:0:0:0:
68,174,79220,2,0,P|83:227|96:289,1,89.2499972763062,2|0,1:2|0:0,0:0:0:0:
158,59,79620,2,0,P|114:48|65:29,1,89.2499972763062,10|0,0:0|0:0,0:0:0:0:
226,214,80020,6,0,P|285:194|373:178,1,133.874995914459,2|0,1:2|0:0,0:0:0:0:
383,196,80420,1,10,0:0:0:0:
336,23,80620,2,0,P|312:57|321:106,1,89.2499972763062,2|0,0:0|1:2,0:0:0:0:
451,253,81020,2,0,P|475:219|466:170,1,89.2499972763062,2|8,0:0|0:0,0:0:0:0:
346,315,81420,1,2,0:0:0:0:
346,315,81620,6,0,P|395:327|526:384,1,178.499994552612,0|8,1:2|0:0,0:0:0:0:
314,167,82220,1,0,0:0:0:0:
251,248,82420,2,0,P|201:271|150:284,1,89.2499972763062,0|2,1:2|0:0,0:0:0:0:
27,242,82820,1,10,0:0:0:0:
18,268,82920,1,0,0:0:0:0:
21,288,83020,1,2,0:0:0:0:
34,306,83120,1,0,0:0:0:0:
53,325,83220,6,0,P|32:251|-2:152,1,178.499994552612,0|10,1:2|0:0,0:0:0:0:
0,155,83820,1,2,0:0:0:0:
123,254,84020,2,0,P|170:233|218:219,1,89.2499972763062,0|2,1:2|0:0,0:0:0:0:
330,90,84420,2,0,P|283:69|235:55,1,89.2499972763062,8|0,0:0|0:0,0:0:0:0:
362,295,84820,6,0,P|433:301|470:230,1,133.874995914459,2|0,1:2|0:0,0:0:0:0:
463,225,85220,2,0,P|480:173|503:119,1,89.2499972763062,10|0,0:0|0:0,0:0:0:0:
317,35,85620,2,0,P|333:76|346:119,1,89.2499972763062,2|0,1:2|0:0,0:0:0:0:
271,243,86020,2,0,P|226:264|171:302,1,89.2499972763062,10|0,0:0|0:0,0:0:0:0:
36,92,86420,6,0,P|91:81|151:163,1,133.874995914459,2|0,1:2|0:0,0:0:0:0:
159,158,86820,1,10,0:0:0:0:
90,261,87020,2,0,P|74:201|58:154,1,89.2499972763062,2|0,0:0|1:2,0:0:0:0:
225,276,87420,1,2,0:0:0:0:
108,366,87620,1,10,0:0:0:0:
328,211,87820,5,2,0:0:0:0:
328,211,87920,1,2,0:0:0:0:
328,211,88020,2,0,P|309:283|285:399,1,178.499994552612,2|8,1:2|0:0,0:0:0:0:
160,190,88620,1,2,0:0:0:0:
160,190,88820,2,0,P|181:248|196:305,1,89.2499972763062,0|8,1:2|2:3,0:0:0:0:
288,86,89220,2,0,P|231:70|182:48,1,89.2499972763062,8|0,0:0|0:0,0:0:0:0:
350,235,89620,6,0,P|373:180|485:191,1,178.499994552612,2|8,1:2|0:0,0:0:0:0:
355,343,90220,1,2,0:0:0:0:
355,343,90420,2,0,P|303:356|242:381,1,89.2499972763062,0|0,1:2|0:0,0:0:0:0:
427,249,90820,2,0,P|469:263|512:274,1,89.2499972763062,8|0,0:0|0:0,0:0:0:0:
357,26,91220,6,0,P|345:85|325:176,1,127.500004863739,6|8,0:0|0:0,0:0:0:0:
231,254,91820,1,2,0:0:0:0:
231,254,91920,1,0,0:0:0:0:
231,254,92020,2,0,P|218:191|204:129,1,127.500004863739,2|8,0:0|0:0,0:0:0:0:
129,23,92620,6,0,P|86:21|42:100,1,127.500004863739,2|0,0:0|0:0,0:0:0:0:
91,163,93220,1,10,0:0:0:0:
16,229,93420,1,0,0:0:0:0:
16,229,93520,1,0,0:0:0:0:
16,229,93620,2,0,P|51:244|84:264,1,63.7500024318696,2|0,0:0|0:0,0:0:0:0:
153,323,94020,2,0,P|118:338|85:358,1,63.7500024318696,10|0,0:0|0:0,0:0:0:0:
285,377,94420,6,0,P|274:314|256:229,1,127.500004863739,2|8,0:0|0:0,0:0:0:0:
320,175,95020,1,2,0:0:0:0:
320,175,95120,1,0,0:0:0:0:
320,175,95220,2,0,P|350:211|438:195,1,127.500004863739,2|8,0:0|0:0,0:0:0:0:
301,91,95820,6,0,P|263:101|161:136,1,127.500004863739,2|0,0:0|0:0,0:0:0:0:
111,95,96420,1,10,0:0:0:0:
37,189,96620,1,0,0:0:0:0:
37,189,96720,1,0,0:0:0:0:
37,189,96820,2,0,P|26:145|15:105,1,63.7500024318696,2|0,0:0|0:0,0:0:0:0:
118,270,97220,2,0,P|129:226|140:186,1,63.7500024318696,10|0,0:0|0:0,0:0:0:0:
3,368,97620,6,0,P|32:325|126:335,1,127.500004863739,2|8,0:0|0:0,0:0:0:0:
189,377,98220,1,2,0:0:0:0:
189,377,98320,1,0,0:0:0:0:
189,377,98420,2,0,P|182:319|168:225,1,127.500004863739,2|8,0:0|0:0,0:0:0:0:
0,137,99020,6,0,P|29:180|123:170,1,127.500004863739,2|0,0:0|0:0,0:0:0:0:
169,114,99620,1,10,0:0:0:0:
93,22,99820,1,0,0:0:0:0:
93,22,99920,1,0,0:0:0:0:
93,22,100020,2,0,P|85:68|76:113,1,63.7500024318696,2|0,0:0|0:0,0:0:0:0:
214,180,100420,2,0,P|208:148|202:117,1,63.7500024318696,10|0,0:0|0:0,0:0:0:0:
111,300,100820,6,0,P|172:284|232:261,1,127.500004863739,2|8,0:0|0:0,0:0:0:0:
303,341,101420,1,2,0:0:0:0:
303,341,101520,1,0,0:0:0:0:
303,341,101620,2,0,P|364:356|424:379,1,127.500004863739,2|8,0:0|0:0,0:0:0:0:
501,234,102220,6,0,P|457:233|410:306,1,127.500004863739,2|0,0:0|0:0,0:0:0:0:
317,234,102820,1,10,0:0:0:0:
380,166,103020,1,0,0:0:0:0:
380,166,103120,1,0,0:0:0:0:
380,166,103220,2,0,P|344:153|300:142,1,63.7500024318696,2|0,0:0|0:0,0:0:0:0:
435,78,103620,2,0,P|471:65|515:54,1,63.7500024318696,10|0,0:0|0:0,0:0:0:0:
254,31,104020,6,0,P|269:100|285:213,1,178.499994552612,6|8,1:2|0:0,0:0:0:0:
190,299,104620,1,2,0:0:0:0:
190,299,104720,1,0,0:0:0:0:
190,299,104820,2,0,P|164:249|180:194,1,89.2499972763062,2|0,1:2|0:0,0:0:0:0:
200,140,105220,1,8,0:0:0:0:
382,271,105420,6,0,P|382:315|359:352,1,89.2499972763062,2|0,0:0|1:2,0:0:0:0:
267,218,105820,1,2,0:0:0:0:
449,164,106020,2,0,P|487:185|507:224,1,89.2499972763062,10|0,0:0|0:0,0:0:0:0:
507,224,106320,1,8,2:3:0:0:
507,224,106420,1,2,1:2:0:0:
372,306,106620,1,4,2:3:0:0:
375,85,106820,2,0,P|412:62|456:64,1,89.2499972763062,10|0,0:0|0:0,0:0:0:0:
209,221,107220,6,0,P|155:206|16:177,1,178.499994552612,2|8,1:2|0:0,0:0:0:0:
0,266,107820,1,2,0:0:0:0:
0,266,107920,1,0,0:0:0:0:
0,266,108020,2,0,B|37:294|37:294|92:280,1,89.2499972763062,2|0,1:2|0:0,0:0:0:0:
184,122,108420,2,0,B|147:94|147:94|92:108,1,89.2499972763062,8|2,0:0|0:0,0:0:0:0:
216,316,108820,6,0,P|204:262|190:205,1,89.2499972763062,0|2,1:2|0:0,0:0:0:0:
372,93,109220,2,0,P|361:136|352:179,1,89.2499972763062,10|8,0:0|2:3,0:0:0:0:
352,179,109520,1,8,2:3:0:0:
352,179,109620,1,2,1:2:0:0:
193,92,109820,1,4,2:3:0:0:
314,314,110020,2,0,P|359:292|410:276,1,89.2499972763062,10|0,0:0|0:0,0:0:0:0:
169,247,110420,6,0,P|91:251|64:363,1,178.499994552612,2|8,1:2|0:0,0:0:0:0:
4,180,111020,1,2,0:0:0:0:
4,180,111120,1,0,0:0:0:0:
4,180,111220,2,0,P|19:135|42:75,1,89.2499972763062,2|0,1:2|0:0,0:0:0:0:
117,267,111620,2,0,P|132:308|146:351,1,89.2499972763062,8|2,0:0|0:0,0:0:0:0:
310,126,112020,6,0,P|261:109|171:74,1,133.874995914459,0|0,1:2|0:0,0:0:0:0:
151,68,112420,1,10,0:0:0:0:
228,239,112620,1,8,2:3:0:0:
228,239,112720,1,8,2:3:0:0:
228,239,112820,2,0,P|281:221|332:211,1,89.2499972763062,2|4,1:2|2:3,0:0:0:0:
121,361,113220,2,0,P|77:350|35:335,1,89.2499972763062,10|0,0:0|0:0,0:0:0:0:
186,169,113620,6,0,P|206:236|245:375,1,178.499994552612,2|8,1:2|0:0,0:0:0:0:
399,234,114220,1,2,0:0:0:0:
399,234,114320,1,0,0:0:0:0:
399,234,114420,2,0,P|369:270|304:265,1,89.2499972763062,2|0,1:2|0:0,0:0:0:0:
439,103,114820,2,0,P|482:110|509:144,1,89.2499972763062,8|2,0:0|0:0,0:0:0:0:
399,234,115220,5,0,1:2:0:0:
299,49,115420,2,0,P|327:15|370:9,1,89.2499972763062,2|10,0:0|0:0,0:0:0:0:
287,221,115820,1,8,2:3:0:0:
287,221,115920,1,8,2:3:0:0:
287,221,116020,1,2,1:2:0:0:
408,92,116220,1,4,2:3:0:0:
474,279,116420,1,10,0:0:0:0:
345,155,116620,1,2,0:0:0:0:
225,375,116820,6,0,P|176:357|78:325,1,144.500002756119,6|10,1:2|0:0,0:0:0:0:
12,344,117420,1,2,1:2:0:0:
12,344,117820,5,2,0:0:0:0:
40,272,118020,1,10,0:0:0:0:
68,200,118220,1,2,0:0:0:0:
37,61,118420,5,2,1:2:0:0:
110,122,118620,2,0,P|147:110|198:94,1,72.2500013780594,2|8,0:0|0:0,0:0:0:0:
183,247,119020,2,0,P|138:258|66:189,1,144.500002756119,2|0,1:2|1:2,0:0:0:0:
249,168,119620,1,8,0:0:0:0:
258,173,119820,1,0,1:2:0:0:
338,323,120020,6,0,P|399:340|503:381,1,144.500002756119,2|10,1:2|0:0,0:0:0:0:
508,300,120620,1,2,1:2:0:0:
508,300,121020,5,2,0:0:0:0:
436,328,121220,1,10,0:0:0:0:
364,356,121420,1,2,0:0:0:0:
204,275,121620,5,2,1:2:0:0:
282,175,121820,2,0,P|292:219|301:257,1,72.2500013780594,2|8,0:0|0:0,0:0:0:0:
109,368,122220,2,0,P|117:332|125:297,1,72.2500013780594,2|0,1:2|1:2,0:0:0:0:
10,72,122620,5,0,1:2:0:0:
11,82,122720,1,0,1:2:0:0:
13,92,122820,1,8,0:0:0:0:
15,102,122920,1,0,1:2:0:0:
17,112,123020,1,0,1:2:0:0:
19,122,123120,1,0,1:2:0:0:
22,132,123220,6,0,P|72:107|173:73,1,144.500002756119,2|8,1:2|0:0,0:0:0:0:
371,241,123820,2,0,P|302:217|237:186,1,144.500002756119,2|0,0:0|1:2,0:0:0:0:
127,205,124420,1,8,0:0:0:0:
257,30,124620,1,0,1:2:0:0:
257,30,124720,1,0,0:0:0:0:
257,30,124820,6,0,P|240:92|215:178,1,144.500002756119,2|8,1:2|0:0,0:0:0:0:
365,370,125420,2,0,P|344:300|325:230,1,144.500002756119,2|0,0:0|0:0,0:0:0:0:
136,240,126020,2,0,P|177:254|231:279,1,72.2500013780594,8|0,0:0|0:0,0:0:0:0:
417,129,126420,6,0,P|386:169|285:150,1,144.500002756119,2|8,1:2|0:0,0:0:0:0:
239,72,127020,2,0,P|208:32|107:51,1,144.500002756119,2|0,0:0|0:0,0:0:0:0:
27,128,127620,2,0,P|16:77|4:32,1,72.2500013780594,8|0,0:0|0:0,0:0:0:0:
77,221,128020,6,0,P|43:234|10:249,1,72.2500013780594,0|0,1:2|0:0,0:0:0:0:
167,282,128420,1,8,0:0:0:0:
160,129,128620,1,0,0:0:0:0:
160,129,128820,2,0,P|177:172|259:172,1,108.375002067089,0|0,1:2|0:0,0:0:0:0:
324,169,129220,2,0,P|278:162|237:233,1,108.375002067089,8|0,0:0|0:0,0:0:0:0:
243,242,129620,5,4,1:2:0:0:
243,242,130220,1,0,1:2:0:0:
376,327,130420,1,8,2:3:0:0:
258,352,130620,1,8,2:3:0:0:
350,220,130820,1,4,2:3:0:0:
358,220,131020,1,4,2:3:0:0:
300,19,131220,6,0,P|291:78|269:230,1,178.499994552612,6|10,1:2|0:0,0:0:0:0:
208,43,131820,1,2,0:0:0:0:
208,43,131920,1,0,0:0:0:0:
208,43,132020,1,0,1:2:0:0:
369,145,132220,1,2,0:0:0:0:
213,263,132420,2,0,P|169:277|116:306,1,89.2499972763062,8|0,0:0|0:0,0:0:0:0:
391,370,132820,6,0,P|453:373|493:256,1,178.499994552612,2|10,1:2|0:0,0:0:0:0:
355,182,133420,1,2,0:0:0:0:
355,182,133520,1,0,0:0:0:0:
355,182,133620,2,0,P|375:241|396:306,1,89.2499972763062,0|0,1:2|0:0,0:0:0:0:
412,18,134020,1,8,0:0:0:0:
254,141,134220,1,0,0:0:0:0:
494,204,134420,6,0,P|529:162|476:42,1,178.499994552612,2|10,1:2|0:0,0:0:0:0:
342,247,135020,2,0,P|396:262|453:283,1,89.2499972763062,2|0,0:0|1:2,0:0:0:0:
291,99,135420,1,2,0:0:0:0:
169,263,135620,2,0,P|186:322|202:384,1,89.2499972763062,8|0,0:0|0:0,0:0:0:0:
302,91,136020,6,0,P|265:48|148:73,1,178.499994552612,2|10,1:2|0:0,0:0:0:0:
44,274,136620,2,0,P|93:253|152:230,1,89.2499972763062,2|0,0:0|1:2,0:0:0:0:
54,98,137020,1,0,0:0:0:0:
274,210,137220,1,8,0:0:0:0:
76,359,137420,1,0,0:0:0:0:
170,140,137620,6,0,P|186:201|201:259,1,89.2499972763062,0|0,1:2|0:0,0:0:0:0:
334,354,138020,2,0,P|345:310|356:267,1,89.2499972763062,10|0,0:0|0:0,0:0:0:0:
356,267,138320,1,0,0:0:0:0:
356,267,138420,1,2,1:2:0:0:
275,115,138620,1,2,0:0:0:0:
209,317,138820,2,0,P|151:336|106:359,1,89.2499972763062,8|2,0:0|0:0,0:0:0:0:
365,177,139220,6,0,B|419:167|464:212|415:224|477:270|524:256,1,178.499994552612,0|10,1:2|0:0,0:0:0:0:
181,66,139820,2,0,P|200:123|221:189,1,89.2499972763062,2|0,0:0|1:2,0:0:0:0:
104,366,140220,1,2,0:0:0:0:
291,260,140420,1,10,0:0:0:0:
96,146,140620,1,2,0:0:0:0:
256,365,140820,6,0,P|315:369|389:255,1,178.499994552612,2|8,1:2|0:0,0:0:0:0:
218,101,141420,1,0,0:0:0:0:
218,101,141520,1,0,0:0:0:0:
218,101,141620,1,0,1:2:0:0:
105,259,141820,1,0,0:0:0:0:
208,10,142020,1,8,0:0:0:0:
313,270,142220,1,0,0:0:0:0:
59,132,142420,5,2,1:2:0:0:
59,132,143020,5,8,2:3:0:0:
76,138,143220,1,4,2:3:0:0:
216,258,143420,5,0,1:2:0:0:
203,262,143520,1,0,1:2:0:0:
190,266,143620,1,0,1:2:0:0:
177,270,143720,1,0,1:2:0:0:
164,274,143820,1,0,1:2:0:0:
151,278,143920,1,0,1:2:0:0:
139,284,144020,6,0,P|207:301|335:353,1,178.499994552612,6|10,1:2|0:0,0:0:0:0:
391,162,144620,1,2,0:0:0:0:
391,162,144720,1,0,0:0:0:0:
391,162,144820,2,0,P|343:186|289:202,1,89.2499972763062,0|2,1:2|0:0,0:0:0:0:
512,265,145220,1,8,0:0:0:0:
433,77,145420,1,0,0:0:0:0:
229,261,145620,6,0,P|259:311|395:306,1,178.499994552612,2|10,1:2|0:0,0:0:0:0:
201,126,146220,1,2,0:0:0:0:
201,126,146320,1,0,0:0:0:0:
201,126,146420,2,0,P|153:147|130:186,1,89.2499972763062,0|0,1:2|0:0,0:0:0:0:
343,226,146820,1,8,0:0:0:0:
250,29,147020,1,0,0:0:0:0:
189,305,147220,6,0,P|206:238|237:127,1,178.499994552612,2|10,1:2|0:0,0:0:0:0:
133,38,147820,2,0,B|101:70|101:70|111:122,1,89.2499972763062,2|0,0:0|1:2,0:0:0:0:
127,197,148220,1,2,0:0:0:0:
367,65,148420,2,0,P|308:45|266:30,1,89.2499972763062,8|0,0:0|0:0,0:0:0:0:
357,253,148820,6,0,P|378:194|496:195,1,178.499994552612,2|10,1:2|0:0,0:0:0:0:
384,362,149420,2,0,P|339:348|277:333,1,89.2499972763062,2|0,0:0|1:2,0:0:0:0:
142,139,149820,1,0,0:0:0:0:
316,239,150020,1,8,0:0:0:0:
153,323,150220,1,0,0:0:0:0:
245,125,150420,6,0,P|232:187|219:234,1,89.2499972763062,0|0,1:2|0:0,0:0:0:0:
416,295,150820,2,0,P|405:251|396:207,1,89.2499972763062,10|0,0:0|0:0,0:0:0:0:
396,207,151120,1,0,0:0:0:0:
396,207,151220,1,2,1:2:0:0:
246,294,151420,1,2,0:0:0:0:
350,98,151620,2,0,P|393:76|447:98,1,89.2499972763062,8|2,0:0|0:0,0:0:0:0:
170,192,152020,6,0,B|122:177|72:217|110:237|60:281|-2:256,1,178.499994552612,0|10,1:2|0:0,0:0:0:0:
256,263,152620,1,2,0:0:0:0:
256,263,152720,1,0,0:0:0:0:
256,263,152820,1,0,1:2:0:0:
149,72,153020,1,2,0:0:0:0:
368,207,153220,1,10,0:0:0:0:
143,320,153420,1,2,0:0:0:0:
267,151,153620,6,0,P|274:206|287:301,1,127.500004863739,0|8,1:2|0:0,0:0:0:0:
369,357,154220,1,0,0:0:0:0:
369,357,154420,2,0,P|377:293|385:230,1,127.500004863739,0|8,1:2|0:0,0:0:0:0:
401,147,155020,1,0,0:0:0:0:
256,192,155120,12,0,160020,0:0:0:0:
