osu file format v14

[General]
AudioFilename: ASH TO ASH.mp3
AudioLeadIn: 0
PreviewTime: 53314
Countdown: 0
SampleSet: Soft
StackLeniency: 0.7
Mode: 0
LetterboxInBreaks: 0
WidescreenStoryboard: 0

[Editor]
DistanceSpacing: 1
BeatDivisor: 2
GridSize: 4
TimelineZoom: 2.9

[Metadata]
Title:Ash to Ash
TitleUnicode:Ash to Ash
Artist:Okada Satoru
ArtistUnicode:岡田さとる
Creator:Lily Bread
Version:Normal
Source:スーパーロボット大戦OG ORIGINAL GENERATIONS
Tags:Snowy Wings SRW super robot wars ラミア ラヴレス アンジュルグ W17 LAMIA LOVELESS
BeatmapID:805956
BeatmapSetID:367471

[Difficulty]
HPDrainRate:4
CircleSize:3
OverallDifficulty:3
ApproachRate:5
SliderMultiplier:0.899999999999999
SliderTickRate:1

[Events]
//Background and Video events
0,0,"ash.jpg",0,0
//Break Periods
2,6110,8523
//Storyboard Layer 0 (Background)
//Storyboard Layer 1 (Fail)
//Storyboard Layer 2 (Pass)
//Storyboard Layer 3 (Foreground)
//Storyboard Sound Samples

[TimingPoints]
442,331.491712707182,4,2,1,5,1,0
1767,-100,4,2,1,15,0,0
3093,-100,4,2,1,25,0,0
4419,-100,4,2,1,35,0,0
5580,-100,4,2,0,70,0,0
6077,-100,4,2,1,70,0,0
9558,-100,4,2,1,70,0,0
37569,-100,4,2,1,60,0,0
47845,-100,4,2,1,70,0,0
48176,-100,4,2,1,70,0,0
52154,-100,4,2,1,70,0,0
53314,-100,4,2,1,70,0,1
63591,-100,4,2,1,70,0,1
64088,-100,4,2,1,70,0,1
73370,-100,4,2,1,70,0,0
73867,-100,4,2,1,5,0,0
74033,-100,4,2,1,70,0,0
74116,-100,4,2,1,5,0,0
74281,-100,4,2,1,70,0,0
74364,-100,4,2,1,5,0,0
74530,-100,4,2,1,70,0,0
75027,-100,4,2,1,50,0,0
75359,-100,4,2,1,30,0,0
75690,-100,4,2,1,10,0,0

[Colours]
Combo1 : 136,250,112
Combo2 : 200,210,210
Combo3 : 253,142,215

[HitObjects]
256,192,442,12,0,4419,0:0:0:0:
256,160,5745,6,0,L|256:224,1,45,4|4,0:0|0:0,0:0:0:0:
192,48,9723,6,0,L|40:48,2,135,4|4|8,0:0|0:0|0:0,0:0:0:0:
284,48,11049,6,0,L|452:48,2,135,4|2|8,0:0|0:0|0:0,0:0:0:0:
248,132,12375,2,0,P|224:180|180:196,1,89.9999999999999,2|8,0:0|0:0,0:0:0:0:
104,204,13038,2,0,P|124:252|176:284,1,89.9999999999999,2|8,0:0|0:0,0:0:0:0:
240,304,13701,6,0,L|396:352,2,135,2|2|8,0:0|0:0|0:0,0:0:0:0:
216,216,15027,2,0,P|196:120|260:32,1,180,2|2,0:0|0:0,0:0:0:0:
324,32,16022,1,8,0:0:0:0:
412,48,16353,6,0,L|412:156,1,89.9999999999999,4|8,0:0|0:0,0:0:0:0:
460,216,17016,2,0,L|432:292,1,45,0|0,0:0|0:0,0:0:0:0:
408,284,17348,2,0,L|380:340,1,45,8|0,0:0|0:0,0:0:0:0:
348,348,17679,2,0,P|297:342|261:307,1,89.9999999999999,0|8,0:0|0:0,0:0:0:0:
180,332,18342,2,0,L|116:328,1,45,0|0,0:0|0:0,0:0:0:0:
112,288,18674,2,0,L|60:284,1,45,8|0,0:0|0:0,0:0:0:0:
36,252,19005,6,0,P|20:208|24:136,1,89.9999999999999,4|8,0:0|0:0,0:0:0:0:
20,120,19502,2,0,L|0:16,2,89.9999999999999,0|0|0,0:0|0:0|0:0,0:0:0:0:
56,144,20331,2,0,P|106:146|172:140,1,89.9999999999999,0|8,0:0|0:0,0:0:0:0:
180,112,20828,2,0,L|192:20,2,89.9999999999999,0|0|0,0:0|0:0|0:0,0:0:0:0:
196,152,21657,6,0,P|244:160|292:144,1,89.9999999999999,4|8,0:0|0:0,0:0:0:0:
348,84,22320,2,0,L|400:96,1,45,0|0,0:0|0:0,0:0:0:0:
412,136,22651,2,0,L|456:144,1,45,8|0,0:0|0:0,0:0:0:0:
484,180,22983,2,0,P|489:236|465:303,1,89.9999999999999,0|8,0:0|0:0,0:0:0:0:
416,328,23646,1,0,0:0:0:0:
416,328,23977,1,8,0:0:0:0:
336,288,24309,6,0,L|316:168,1,89.9999999999999,4|8,0:0|0:0,0:0:0:0:
352,164,24806,2,0,P|346:99|291:47,1,135,0|8,0:0|0:0,0:0:0:0:
236,120,25635,2,0,P|196:168|144:192,1,89.9999999999999,2|8,0:0|0:0,0:0:0:0:
132,196,26132,2,0,L|36:196,2,89.9999999999999,0|2|0,0:0|0:0|0:0,0:0:0:0:
156,236,26961,6,0,L|164:340,1,89.9999999999999,4|8,0:0|0:0,0:0:0:0:
248,348,27624,2,0,L|280:304,1,45,0|0,0:0|0:0,0:0:0:0:
256,272,27955,2,0,L|280:232,1,45,8|0,0:0|0:0,0:0:0:0:
312,200,28287,2,0,P|356:196|396:216,1,89.9999999999999,0|8,0:0|0:0,0:0:0:0:
484,240,28950,2,0,L|488:164,1,45,0|0,0:0|0:0,0:0:0:0:
468,156,29281,2,0,L|472:100,1,45,8|0,0:0|0:0,0:0:0:0:
448,72,29613,6,0,P|404:56|328:76,1,89.9999999999999,4|8,0:0|0:0,0:0:0:0:
328,92,30110,2,0,L|212:88,2,89.9999999999999,0|0|0,0:0|0:0|0:0,0:0:0:0:
364,116,30939,2,0,P|320:185|256:214,2,135,2|0|8,0:0|0:0|0:0,0:0:0:0:
408,36,32265,6,0,P|352:24|304:48,1,89.9999999999999,4|8,0:0|0:0,0:0:0:0:
248,84,32928,2,0,L|180:84,1,45,0|0,0:0|0:0,0:0:0:0:
168,56,33259,2,0,L|112:56,1,45,8|0,0:0|0:0,0:0:0:0:
96,92,33591,2,0,P|48:136|44:180,1,89.9999999999999,0|8,0:0|0:0,0:0:0:0:
136,176,34254,1,0,0:0:0:0:
136,176,34585,1,8,0:0:0:0:
156,264,34917,6,0,P|188:324|276:352,2,135,4|0|8,0:0|0:0|0:0,0:0:0:0:
224,208,36243,2,0,L|284:180,1,45,2|0,0:0|0:0,0:0:0:0:
348,156,36740,2,0,L|460:92,2,89.9999999999999,0|0|0,0:0|0:0|0:0,0:0:0:0:
308,140,37569,6,0,P|220:100|180:12,2,180,2|0|2,0:0|0:0|0:0,0:0:0:0:
368,356,39723,2,0,L|264:356,1,89.9999999999999,0|0,0:0|0:0,0:0:0:0:
232,352,40221,6,0,P|156:312|132:244,1,135,2|0,0:0|0:0,0:0:0:0:
80,148,41215,1,0,0:0:0:0:
80,148,41381,2,0,P|120:104|212:108,1,135,0|0,0:0|0:0,0:0:0:0:
224,132,42044,6,0,L|372:132,1,135,2|0,0:0|0:0,0:0:0:0:
396,160,42707,2,0,P|408:212|284:320,1,225,0|0,0:0|0:0,0:0:0:0:
116,324,44198,6,0,L|116:156,1,135,2|2,0:0|0:0,0:0:0:0:
116,100,45027,2,0,P|144:60|212:44,1,89.9999999999999,0|0,0:0|0:0,0:0:0:0:
212,76,45524,6,0,L|352:76,1,135,2|0,0:0|0:0,0:0:0:0:
424,188,46519,1,0,0:0:0:0:
424,188,46685,6,0,P|412:256|352:312,1,135,0|0,0:0|0:0,0:0:0:0:
332,328,47348,2,0,P|288:364|232:384,2,89.9999999999999,2|0|0,0:0|0:0|0:0,0:0:0:0:
332,284,48176,6,0,P|320:236|272:176,1,89.9999999999999,4|8,0:0|0:0,0:0:0:0:
328,116,48839,2,0,P|276:112|224:160,1,89.9999999999999,0|8,0:0|0:0,0:0:0:0:
216,216,49502,2,0,P|177:193|157:154,1,89.9999999999999,4|8,0:0|0:0,0:0:0:0:
180,68,50165,1,0,0:0:0:0:
180,68,50497,1,8,0:0:0:0:
88,64,50828,6,0,P|48:116|48:192,2,135,4|0|8,0:0|0:0|0:0,0:0:0:0:
180,68,52154,2,0,L|236:68,2,45,4|0|0,0:0|0:0|0:0,0:0:0:0:
168,112,52651,2,0,P|136:152|160:208,1,89.9999999999999,0|2,0:0|0:0,0:0:0:0:
196,260,53314,6,0,P|276:288|352:260,1,135,0|8,0:0|0:0,0:0:0:0:
364,256,53977,2,0,L|428:176,1,89.9999999999999,0|0,0:0|0:0,0:0:0:0:
440,144,54475,1,8,0:0:0:0:
500,76,54806,2,0,P|456:56|408:60,1,89.9999999999999,4|8,0:0|0:0,0:0:0:0:
376,80,55303,2,0,L|308:160,1,89.9999999999999,0|0,0:0|0:0,0:0:0:0:
280,176,55801,1,8,0:0:0:0:
336,248,56132,6,0,P|292:268|236:252,1,89.9999999999999,4|8,0:0|0:0,0:0:0:0:
216,232,56629,2,0,L|156:144,1,89.9999999999999,0|0,0:0|0:0,0:0:0:0:
140,116,57127,1,8,0:0:0:0:
104,36,57458,2,0,P|60:76|52:120,1,89.9999999999999,8|0,0:0|0:0,0:0:0:0:
56,148,57955,1,8,0:0:0:0:
52,236,58287,2,0,L|-24:248,2,45,0|2|0,0:0|0:0|0:0,0:0:0:0:
92,260,58784,6,0,P|128:284|204:288,1,89.9999999999999,4|8,0:0|0:0,0:0:0:0:
220,292,59281,2,0,L|320:288,1,89.9999999999999,0|0,0:0|0:0,0:0:0:0:
352,272,59779,1,8,0:0:0:0:
424,328,60110,2,0,P|444:280|428:220,1,89.9999999999999,4|8,0:0|0:0,0:0:0:0:
416,204,60607,2,0,L|324:156,1,89.9999999999999,0|0,0:0|0:0,0:0:0:0:
296,184,61104,1,8,0:0:0:0:
296,184,61270,6,0,P|212:176|156:140,1,135,0|8,0:0|0:0,0:0:0:0:
136,120,61933,1,4,0:0:0:0:
188,44,62265,2,0,L|248:40,1,45,0|8,0:0|0:0,0:0:0:0:
324,40,62762,2,0,L|392:36,2,45,8|8|8,0:0|0:0|0:0,0:0:0:0:
328,84,63259,2,0,P|308:136|328:180,1,89.9999999999999,8|2,0:0|0:0,0:0:0:0:
404,152,63922,6,0,P|376:232|300:248,1,135,0|8,0:0|0:0,0:0:0:0:
288,256,64585,2,0,L|200:196,1,89.9999999999999,0|0,0:0|0:0,0:0:0:0:
184,168,65082,1,8,0:0:0:0:
240,100,65414,2,0,P|184:80|132:92,1,89.9999999999999,2|8,0:0|0:0,0:0:0:0:
112,100,65911,2,0,L|100:220,1,89.9999999999999,0|0,0:0|0:0,0:0:0:0:
100,236,66408,1,8,0:0:0:0:
48,308,66740,6,0,P|96:328|160:300,1,89.9999999999999,4|8,0:0|0:0,0:0:0:0:
172,300,67237,2,0,P|200:272|260:256,1,89.9999999999999,0|0,0:0|0:0,0:0:0:0:
291,250,67734,1,8,0:0:0:0:
348,320,68066,2,0,P|380:260|360:204,1,89.9999999999999,8|8,0:0|0:0,0:0:0:0:
368,196,68563,1,8,0:0:0:0:
300,136,68895,2,0,L|256:100,1,45,0|2,0:0|0:0,0:0:0:0:
236,76,69226,6,0,P|168:56|108:112,1,135,0|8,0:0|0:0,0:0:0:0:
88,124,69889,2,0,L|92:220,1,89.9999999999999,0|0,0:0|0:0,0:0:0:0:
100,260,70386,1,8,0:0:0:0:
84,348,70718,2,0,P|164:328|188:272,2,135,2|0|8,0:0|0:0|0:0,0:0:0:0:
52,316,71878,1,0,0:0:0:0:
52,316,72044,6,0,L|52:204,1,89.9999999999999,4|2,0:0|0:0,0:0:0:0:
60,136,72707,2,0,L|124:136,1,45,4|8,0:0|0:0,0:0:0:0:
128,96,73038,2,0,L|188:96,1,45,2|8,0:0|0:0,0:0:0:0:
208,68,73370,5,4,0:0:0:0:
252,144,73701,2,0,B|324:156|324:156|400:140|400:140|476:156,1,225,2|2,0:0|0:0,0:0:0:0:
