osu file format v14

[General]
AudioFilename: audio.mp3
AudioLeadIn: 0
PreviewTime: 217996
Countdown: 0
SampleSet: Soft
StackLeniency: 0.7
Mode: 2
LetterboxInBreaks: 0
WidescreenStoryboard: 1

[Editor]
Bookmarks: 26051,74047,155066,155441,157293,158043,158816,160574,160738,160902,161066,162519,163269,163574,163855,164066,165543,165941,166293,166714,167066,167816,168543,169269,170043,173043,173793,174496,175293,176019,179066,179793,180519,181269,181996,182769,184293,185019,188043,188628,189519,190269,191019,191464,191839,192566,193293,193668,194066,195566,196293,197043,198121,198543,198918,199293,199668,200043,202316,203043,203441,203793,204168,204543,207589,208269,209043,210168,210566,211339,212043,213941,214293,214691,215043,220574,272043,326094
DistanceSpacing: 1.3
BeatDivisor: 16
GridSize: 32
TimelineZoom: 2.799999

[Metadata]
Title:Kuroiuta (International Version)
TitleUnicode:クロイウタ/日本国外向け製品収録版
Artist:Okabe Keiichi feat. Emi Evans
ArtistUnicode:岡部 啓一 feat. エミ エヴァンス
Creator:Ymiir
Version:Dragon Dance
Source:Drakengard 3
Tags:Black Song クロイウタ DRAG ON DRAGOON ドラッグオンドラグーン3 ドラグーン エミ エヴァンス White DRAG-ON DRAGOON 3 video game japanese kuroi uta 岡部 啓一 fii -wwwww
BeatmapID:3055573
BeatmapSetID:1484257

[Difficulty]
HPDrainRate:5.7
CircleSize:4
OverallDifficulty:9.3
ApproachRate:9.3
SliderMultiplier:2.6
SliderTickRate:2

[Events]
//Background and Video events
0,0,"dragon_dance.jpg",0,0
//Break Periods
//Storyboard Layer 0 (Background)
//Storyboard Layer 1 (Fail)
//Storyboard Layer 2 (Pass)
//Storyboard Layer 3 (Foreground)
//Storyboard Layer 4 (Overlay)
//Storyboard Sound Samples

[TimingPoints]
558,800,4,2,1,8,1,0
558,-41.1392405063291,4,2,1,8,0,0
1358,1090.90909090909,4,2,1,8,1,8
1358,-27.3109243697479,4,2,1,8,0,8
2446,937.5,4,2,1,8,1,8
2446,-27.3109243697479,4,2,1,8,0,8
3383,1090.90909090909,4,2,1,8,1,8
3383,-27.3109243697479,4,2,1,8,0,8
4453,799.467021985343,4,2,1,8,1,0
4453,-41.1392405063291,4,2,1,8,0,0
5252,952.380952380952,4,2,1,8,1,8
5252,-27.3109243697479,4,2,1,8,0,8
5728,652.173913043478,4,2,1,8,1,8
5728,-41.1392405063291,4,2,1,8,0,8
6054,588.235294117647,4,2,1,8,1,8
6054,-41.1392405063291,4,2,1,8,0,8
6348,884.955752212389,4,2,1,8,1,8
6348,-27.3109243697479,4,2,1,8,0,8
6790,1197.60479041916,4,2,1,8,1,8
6790,-27.3109243697479,4,2,1,8,0,8
7388,923.07692307692,4,2,1,8,1,0
7388,-27.3109243697479,4,2,1,8,0,0
7849,749.999999999998,4,2,1,8,1,8
7849,-41.1392405063291,4,2,1,8,0,8
8224,895.522388059699,4,2,1,8,1,8
8224,-27.3109243697479,4,2,1,8,0,8
8671,769.230769230767,4,2,1,8,1,8
8671,-41.1392405063291,4,2,1,8,0,8
9247,779.220779220777,4,2,1,8,1,8
9247,-41.1392405063291,4,2,1,8,0,8
9441,869.565217391302,4,2,1,8,1,0
9441,-27.3109243697479,4,2,1,8,0,0
11180,1071.42857142857,4,2,1,8,1,8
11180,-27.3109243697479,4,2,1,8,0,8
11295,923.07692307692,4,2,1,8,1,8
11295,-27.3109243697479,4,2,1,8,0,8
12218,1499.99999999999,4,2,1,8,1,8
12218,-27.3109243697479,4,2,1,8,0,8
13342,1034.48275862069,4,2,1,8,1,8
13342,-27.3109243697479,4,2,1,8,0,8
13471,645.161290322579,4,2,1,8,1,8
13471,-41.1392405063291,4,2,1,8,0,8
14116,779.220779220777,4,2,1,8,1,0
14116,-41.1392405063291,4,2,1,8,0,0
14505,618.556701030928,4,2,1,8,1,8
14505,-41.1392405063291,4,2,1,8,0,8
14814,594.059405940594,4,2,1,8,1,8
14814,-41.1392405063291,4,2,1,8,0,8
15112,722.89156626506,4,2,1,8,1,8
15112,-41.1392405063291,4,2,1,8,0,8
15473,967.741935483871,4,2,1,8,1,8
15473,-27.3109243697479,4,2,1,8,0,8
15956,1142.85714285714,4,2,1,8,1,8
15956,-27.3109243697479,4,2,1,8,0,8
16527,1200,4,2,1,8,1,8
16527,-27.3109243697479,4,2,1,8,0,8
17129,909.090909090909,4,2,1,8,1,0
17129,-27.3109243697479,4,2,1,8,0,0
17810,909.090909090909,4,2,1,8,1,8
17810,-27.3109243697479,4,2,1,8,0,8
17908,571.428571428571,4,2,1,8,1,0
17908,-41.1392405063291,4,2,1,8,0,0
18479,909.090909090909,4,2,1,8,1,8
18479,-27.3109243697479,4,2,1,8,0,8
19821,1052.63157894737,4,2,1,8,1,0
19821,-27.3109243697479,4,2,1,8,0,0
20873,1111.11111111111,4,2,1,8,1,8
20873,-27.3109243697479,4,2,1,8,0,8
21984,1016.94915254237,4,2,1,8,1,8
21984,-27.3109243697479,4,2,1,8,0,8
26058,769.230769230769,4,2,1,38,1,0
26058,-41.1392405063291,4,2,1,38,0,0
28365,681.818181818181,4,2,1,38,1,8
28365,-41.1392405063291,4,2,1,38,0,8
29046,754.716981132075,4,2,1,38,1,0
29046,-41.1392405063291,4,2,1,38,0,0
30555,925.925925925926,4,2,1,38,1,8
30555,-27.3109243697479,4,2,1,38,0,8
31480,570.884871550904,4,2,1,38,1,8
31480,-41.1392405063291,4,2,1,38,0,8
32050,882.352941176471,4,2,1,38,1,0
32050,-27.3109243697479,4,2,1,38,0,0
32932,718.562874251497,4,2,1,38,1,0
32932,-41.1392405063291,4,2,1,38,0,0
33650,705.882352941176,4,2,1,38,1,8
33650,-41.1392405063291,4,2,1,38,0,8
35061,740.740740740741,4,2,1,38,1,0
35061,-41.1392405063291,4,2,1,38,0,0
38089,857.142857142857,4,2,1,38,1,0
38089,-27.3109243697479,4,2,1,38,0,0
38946,857.142857142857,4,2,1,38,1,0
38946,-27.3109243697479,4,2,1,38,0,0
39619,689.655172413793,4,2,1,38,1,8
39619,-41.1392405063291,4,2,1,38,0,8
40308,756.620428751576,4,2,1,38,1,8
40308,-41.1392405063291,4,2,1,38,0,8
41064,845.070422535211,4,2,1,38,1,0
41064,-27.3109243697479,4,2,1,38,0,0
41909,632.911392405063,4,2,1,38,1,8
41909,-41.1392405063291,4,2,1,38,0,8
42542,833.333333333333,4,2,1,38,1,8
42542,-27.3109243697479,4,2,1,38,0,8
43375,674.157303370786,4,2,1,38,1,8
43375,-41.1392405063291,4,2,1,38,0,8
44039,750,4,2,1,38,1,0
44039,-41.1392405063291,4,2,1,38,0,0
45539,759.493670886076,4,2,1,38,1,0
45539,-41.1392405063291,4,2,1,38,0,0
47057,759.493670886076,4,2,1,38,1,0
47057,-41.1392405063291,4,2,1,38,0,0
50084,756.85903500473,4,2,1,38,1,0
50084,-41.1392405063291,4,2,1,38,0,0
52354,540.540540540541,4,2,1,38,1,8
52354,-41.1392405063291,4,2,1,38,0,8
52534,555.555555555556,4,2,1,38,1,8
52534,-41.1392405063291,4,2,1,38,0,8
53089,705.882352941176,4,2,1,38,1,0
53089,-37.4423963133641,4,2,1,38,0,0
54500,869.565217391304,4,2,1,38,1,8
54500,-27.3109243697479,4,2,1,38,0,8
55369,789.473684210526,4,2,1,38,1,0
55369,-41.1392405063291,4,2,1,38,0,0
56079,769.230769230769,4,2,1,38,1,0
56079,-41.1392405063291,4,2,1,38,0,0
56848,849.85835694051,4,2,1,38,1,0
56848,-27.3109243697479,4,2,1,38,0,0
57697,594.059405940594,4,2,1,38,1,8
57697,-41.1392405063291,4,2,1,38,0,8
58291,769.230769230769,4,2,1,38,1,8
58291,-41.1392405063291,4,2,1,38,0,8
59060,810.810810810811,4,2,1,38,1,0
59060,-27.3109243697479,4,2,1,38,0,0
60230,731.707317073171,4,2,1,38,1,8
60230,-41.1392405063291,4,2,1,38,0,8
61694,794.701986754967,4,2,1,36,1,0
61694,-41.1392405063291,4,2,1,36,0,0
62090,764.331210191083,4,2,1,38,1,0
62090,-41.1392405063291,4,2,1,38,0,0
63618,697.67441860465,4,2,1,38,1,8
63618,-41.1392405063291,4,2,1,38,0,8
64315,731.707317073171,4,2,1,38,1,8
64315,-41.1392405063291,4,2,1,38,0,8
65079,722.89156626506,4,2,1,38,1,0
65079,-41.1392405063291,4,2,1,38,0,0
65801,769.230769230769,4,2,1,38,1,8
65801,-41.1392405063291,4,2,1,38,0,8
66571,681.818181818182,4,2,1,38,1,8
66571,-41.1392405063291,4,2,1,38,0,8
67252,805.369127516779,4,2,1,38,1,8
67252,-27.3109243697479,4,2,1,38,0,8
68057,1153.84615384615,4,2,1,38,1,0
68057,-27.3109243697479,4,2,1,38,0,0
69595,722.89156626506,4,2,1,38,1,8
69595,-41.1392405063291,4,2,1,38,0,8
71040,764.331210191083,4,2,1,38,1,0
71040,-41.1392405063291,4,2,1,38,0,0
72172,813.559322033898,4,2,1,38,1,0
72172,-27.3109243697479,4,2,1,38,0,0
72578,881.704628949302,4,2,1,38,1,8
72578,-27.3109243697479,4,2,1,38,0,8
74047,750,4,2,1,38,1,0
74047,-37.4423963133641,4,2,1,38,0,0
154668,375,4,2,1,52,1,8
154668,-100,4,2,1,52,0,8
155043,375,4,2,1,62,1,0
191043,-90.9090909090909,4,2,1,80,0,0
191418,-90.9090909090909,4,2,1,62,0,0
215043,-100,4,2,1,62,0,0
216168,-100,4,2,1,62,0,0
216543,-90.9090909090909,4,2,1,62,0,0
217293,-100,4,2,1,62,0,0
217668,-90.9090909090909,4,2,1,62,0,0
218043,-83.3333333333333,4,2,1,72,0,1
228636,-83.3333333333333,4,2,1,62,0,1
228730,-83.3333333333333,4,2,1,72,0,1
232744,-83.3333333333333,4,2,1,62,0,1
232855,-83.3333333333333,4,2,1,72,0,1
239230,-83.3333333333333,4,2,1,62,0,1
239418,-83.3333333333333,4,2,1,72,0,1
239511,-83.3333333333333,4,2,1,62,0,1
239605,-83.3333333333333,4,2,1,72,0,1
239886,-83.3333333333333,4,2,1,62,0,1
239980,-83.3333333333333,4,2,1,72,0,1
240074,-83.3333333333333,4,2,1,62,0,1
240168,-83.3333333333333,4,2,1,72,0,1
240543,-83.3333333333333,4,2,1,72,0,1
241183,-83.3333333333333,4,2,1,62,0,1
241198,-83.3333333333333,4,2,1,72,0,1
241293,-76.9230769230769,4,2,1,72,0,1
241386,-76.9230769230769,4,2,1,62,0,1
241480,-76.9230769230769,4,2,1,72,0,1
241668,-76.9230769230769,4,2,1,72,0,0
242043,-83.3333333333333,4,2,1,72,0,1
242324,-83.3333333333333,4,2,1,62,0,1
242418,-83.3333333333333,4,2,1,72,0,1
245019,-83.3333333333333,4,2,1,62,0,1
245324,-83.3333333333333,4,2,1,72,0,1
246706,-83.3333333333333,4,2,1,62,0,1
246824,-83.3333333333333,4,2,1,72,0,1
250011,-83.3333333333333,4,2,1,62,0,1
250105,-83.3333333333333,4,2,1,72,0,1
252636,-83.3333333333333,4,2,1,62,0,1
252730,-83.3333333333333,4,2,1,72,0,1
253011,-83.3333333333333,4,2,1,62,0,1
253105,-83.3333333333333,4,2,1,72,0,1
254206,-83.3333333333333,4,2,1,62,0,1
254418,-83.3333333333333,4,2,1,72,0,1
257956,-83.3333333333333,4,2,1,62,0,1
258168,-83.3333333333333,4,2,1,72,0,1
263207,-83.3333333333333,4,2,1,62,0,1
263418,-83.3333333333333,4,2,1,72,0,1
269699,-83.3333333333333,4,2,1,62,0,1
269793,-83.3333333333333,4,2,1,72,0,1
270261,-83.3333333333333,4,2,1,62,0,1
270355,-83.3333333333333,4,2,1,72,0,1
270636,-83.3333333333333,4,2,1,62,0,1
270730,-83.3333333333333,4,2,1,72,0,1
272043,810.810810810811,4,3,2,72,1,1
272043,-27.3224043715847,4,3,2,72,0,1
272853,701.754385964912,4,2,2,38,1,0
272853,-41.1392405063291,4,2,2,38,0,0
273554,810.810810810811,4,2,2,38,1,0
273554,-27.3109243697479,4,2,2,38,0,0
274364,679.886685552408,4,2,2,38,1,0
274364,-41.1392405063291,4,2,2,38,0,0
275043,705.882352941176,4,2,2,38,1,0
275043,-41.1392405063291,4,2,2,38,0,0
275748,795.755968169761,4,2,2,38,1,0
275748,-41.1392405063291,4,2,2,38,0,0
276543,750,4,2,2,38,1,0
276543,-41.1392405063291,4,2,2,38,0,0
278043,779.220779220779,4,2,2,38,1,0
278043,-41.1392405063291,4,2,2,38,0,0
278822,721.153846153846,4,2,2,38,1,0
278822,-41.1392405063291,4,2,2,38,0,0
279543,833.333333333333,4,2,2,38,1,0
279543,-27.3109243697479,4,2,2,38,0,0
280376,667.408231368187,4,2,2,38,1,0
280376,-41.1392405063291,4,2,2,38,0,0
281043,775.193798449612,4,2,2,38,1,0
281043,-41.1392405063291,4,2,2,38,0,0
282593,562.32427366448,4,2,2,38,1,0
282593,-41.1392405063291,4,2,2,38,0,0
283155,1000,4,2,2,38,1,0
283155,-27.3109243697479,4,2,2,38,0,0
283905,555.555555555556,4,2,2,38,1,0
283905,-41.1392405063291,4,2,2,38,0,0
284043,750,4,2,2,38,1,0
284043,-41.1392405063291,4,2,2,38,0,0
286668,791.55672823219,4,2,2,38,1,0
286668,-41.1392405063291,4,2,2,38,0,0
287063,769.230769230769,4,2,2,38,1,0
287063,-41.1392405063291,4,2,2,38,0,0
287832,740.740740740741,4,2,2,38,1,0
287832,-41.1392405063291,4,2,2,38,0,0
289313,730.149072102221,4,2,2,38,1,0
289313,-41.1392405063291,4,2,2,38,0,0
290043,760.456273764259,4,2,2,38,1,0
290043,-41.1392405063291,4,2,2,38,0,0
291563,705.882352941176,4,2,2,38,1,0
291563,-41.1392405063291,4,2,2,38,0,0
292268,775.193798449612,4,2,2,38,1,0
292268,-41.1392405063291,4,2,2,38,0,0
293043,750,4,2,2,38,1,0
293043,-41.1392405063291,4,2,2,38,0,0
294543,760.456273764259,4,2,2,38,1,0
294543,-41.1392405063291,4,2,2,38,0,0
296063,750,4,2,2,38,1,0
296063,-41.1392405063291,4,2,2,38,0,0
296813,800,4,2,2,38,1,0
296813,-41.1392405063291,4,2,2,38,0,0
297613,689.655172413793,4,2,2,38,1,0
297613,-41.1392405063291,4,2,2,38,0,0
298302,741.656365883807,4,2,2,38,1,0
298302,-41.1392405063291,4,2,2,38,0,0
299043,769.230769230769,4,2,2,38,1,0
299043,-41.1392405063291,4,2,2,38,0,0
300196,834.492350486787,4,2,2,38,1,0
300196,-27.3109243697479,4,2,2,38,0,0
300613,715.137067938021,4,2,2,38,1,0
300613,-41.1392405063291,4,2,2,38,0,0
302043,750,4,2,2,38,1,0
302043,-41.1392405063291,4,2,2,38,0,0
302793,790.513833992095,4,2,2,38,1,0
302793,-41.1392405063291,4,2,2,38,0,0
303583,730.371272063299,4,2,2,38,1,0
303583,-41.1392405063291,4,2,2,38,0,0
305043,764.331210191083,4,2,2,38,1,0
305043,-41.1392405063291,4,2,2,38,0,0
306571,731.707317073171,4,2,2,38,1,0
306571,-41.1392405063291,4,2,2,38,0,0
307668,810.810810810811,4,2,2,38,1,0
307668,-27.3109243697479,4,2,2,38,0,0
308073,750,4,2,2,38,1,0
308073,-41.1392405063291,4,2,2,38,0,0
309948,730.371272063299,4,2,2,38,1,0
309948,-41.1392405063291,4,2,2,38,0,0
311043,750,4,2,2,38,1,0
311043,-41.1392405063291,4,2,2,38,0,0
311793,760.456273764259,4,2,2,38,1,0
311793,-41.1392405063291,4,2,2,38,0,0
312553,769.230769230769,4,2,2,38,1,0
312553,-41.1392405063291,4,2,2,38,0,0
313322,721.153846153846,4,2,2,38,1,0
313322,-41.1392405063291,4,2,2,38,0,0
314043,750,4,2,2,38,1,0
314043,-41.1392405063291,4,2,2,38,0,0
314793,789.473684210526,4,2,2,38,1,0
314793,-41.1392405063291,4,2,2,38,0,0
315187,733.94495412844,4,2,2,38,1,0
315187,-41.1392405063291,4,2,2,38,0,0
315553,745.341614906832,4,2,2,38,1,0
315553,-41.1392405063291,4,2,2,38,0,0
317043,750,4,2,2,32,1,0
317043,-41.1392405063291,4,2,2,32,0,0
317793,770.218228498074,4,2,2,32,1,0
317793,-41.1392405063291,4,2,2,32,0,0
318563,833.333333333333,4,2,2,32,1,0
318563,-27.3109243697479,4,2,2,32,0,0
319396,657.174151150055,4,2,2,28,1,0
319396,-41.1392405063291,4,2,2,28,0,0
320053,750,4,2,2,28,1,0
320053,-41.1392405063291,4,2,2,28,0,0
324553,770.712909441233,4,2,2,28,1,0
324553,-41.1392405063291,4,2,2,28,0,0
326094,1148.32535885167,4,2,2,28,1,8
326094,-27.3109243697479,4,2,2,28,0,8
326285,972.447325769854,4,2,2,20,1,0
326285,-27.3109243697479,4,2,2,20,0,0
327257,927.93071450665,4,2,2,20,1,8
327257,-27.3109243697479,4,2,2,20,0,8
328184,967.741935483871,4,2,2,20,1,8
328184,-27.3109243697479,4,2,2,20,0,8
329151,1071.42857142857,4,2,2,20,1,8
329151,-27.3109243697479,4,2,2,20,0,8
330222,1463.41463414634,4,2,2,20,1,0
330222,-27.3109243697479,4,2,2,20,0,0
330953,1204.81927710843,4,2,2,20,1,8
330953,-27.3109243697479,4,2,2,20,0,8
331555,1382.48847926267,4,2,2,16,1,8
331555,-27.3109243697479,4,2,2,16,0,8
332246,1538.46153846153,4,2,2,12,1,8
332246,-27.3109243697479,4,2,2,12,0,8
333015,1153.84615384615,4,2,2,13,1,8
333015,-27.3109243697479,4,2,2,13,0,8
333591,845.070422535211,4,2,2,10,1,8
333591,-27.3109243697479,4,2,2,10,0,8
334325,909.090909090909,4,2,2,6,1,0
334325,-27.3109243697479,4,2,2,6,0,0
335234,1042.57167680278,4,2,2,30,1,8
335234,-27.3109243697479,4,2,2,30,0,8
336275,1186.94362017804,4,2,2,6,1,8
336275,-27.3109243697479,4,2,2,6,0,8
337462,1224.48979591837,4,2,2,6,1,8
337462,-27.3109243697479,4,2,2,6,0,8
338686,1578.94736842106,4,2,2,6,1,0
338686,-27.3109243697479,4,2,2,6,0,0
339475,967.741935483873,4,2,2,10,1,8
339475,-27.3109243697479,4,2,2,10,0,8
339958,967.741935483873,4,2,2,20,1,8
339958,-27.3109243697479,4,2,2,20,0,8
340441,1016.94915254237,4,2,2,15,1,8
340441,-27.3109243697479,4,2,2,15,0,8
340949,1304.34782608696,4,2,2,10,1,8
340949,-27.3109243697479,4,2,2,10,0,8
341600,1621.62162162163,4,2,2,6,1,8
341600,-16.3316582914573,4,2,2,6,0,8
342410,1111.11111111111,4,2,2,6,1,8
342410,-27.3109243697479,4,2,2,6,0,8
343521,1153.84615384615,4,2,2,6,1,0
343521,-27.3109243697479,4,2,2,6,0,0
344097,1003.34448160535,4,2,2,6,1,8
344097,-27.3109243697479,4,2,2,6,0,8
344597,955.414012738854,4,2,2,6,1,8
344597,-27.3109243697479,4,2,2,6,0,8
346508,937.499999999999,4,2,2,6,1,8
346508,-27.3109243697479,4,2,2,6,0,8
347445,999.999999999998,4,2,2,20,1,0
347445,-27.3109243697479,4,2,2,20,0,0
348445,1132.07547169811,4,2,2,14,1,8
348445,-27.3109243697479,4,2,2,14,0,8
349577,1313.6288998358,4,2,2,6,1,8
349577,-27.3109243697479,4,2,2,6,0,8
350890,2056.55526992288,4,2,2,6,1,8
350890,-16.3316582914573,4,2,2,6,0,8
352432,1518.98734177215,4,2,2,6,1,8
352432,-27.3109243697479,4,2,2,6,0,8
352527,1621.62162162162,4,2,2,6,1,0
352527,-16.3316582914573,4,2,2,6,0,0

[Colours]
Combo1 : 233,164,255
Combo2 : 251,151,160
Combo3 : 151,198,255
Combo4 : 187,187,187
Combo5 : 200,208,172
Combo6 : 98,98,98

[HitObjects]
261,348,558,6,0,L|266:309|266:309,1,39.5,2|0,0:0|0:0,0:0:0:0:
61,188,1358,1,0,0:0:0:0:
252,322,2446,6,0,L|247:381|247:381,1,59.5,2|0,0:0|0:0,0:0:0:0:
464,189,3383,1,0,0:0:0:0:
278,76,4453,2,0,L|274:115|274:115|278:154|278:154,2,39.5,2|0|0,0:0|0:0|0:0,0:0:0:0:
256,35,5252,5,0,0:0:0:0:
186,129,5728,1,2,0:0:0:0:
211,267,6054,1,2,0:0:0:0:
349,334,6348,1,2,0:0:0:0:
492,339,6790,1,2,0:0:0:0:
231,294,7388,5,2,0:0:0:0:
400,264,7849,1,0,0:0:0:0:
151,218,8224,1,2,0:0:0:0:
436,139,8671,1,0,0:0:0:0:
99,22,9247,6,0,L|85:100|85:100,1,79,2|0,0:0|0:0,0:0:0:0:
88,87,9441,2,0,L|93:146|93:146,1,59.5,2|0,0:0|0:0,0:0:0:0:
363,190,10310,1,0,0:0:0:0:
85,328,11180,2,0,L|82:269|82:269,1,59.5,2|2,0:0|0:0,0:0:0:0:
104,285,11295,1,2,0:0:0:0:
452,206,12218,1,0,0:0:0:0:
118,58,13342,1,0,0:0:0:0:
150,86,13406,1,0,0:0:0:0:
158,132,13471,1,2,0:0:0:0:
354,338,14116,5,2,0:0:0:0:
456,289,14505,1,2,0:0:0:0:
497,176,14814,1,2,0:0:0:0:
446,68,15111,1,2,0:0:0:0:
308,30,15473,1,2,0:0:0:0:
78,119,15956,1,0,0:0:0:0:
373,251,16527,1,0,0:0:0:0:
90,346,17129,2,0,L|85:287|85:287,1,59.5,2|0,0:0|0:0,0:0:0:0:
453,336,17810,6,0,L|458:277|458:277,1,59.5
463,303,17908,1,2,0:0:0:0:
192,115,18479,5,0,0:0:0:0:
314,152,18933,1,2,0:0:0:0:
139,233,19388,5,2,0:0:0:0:
412,312,19821,2,0,L|407:371|407:371,1,59.5,2|0,0:0|0:0,0:0:0:0:
28,173,20873,1,2,0:0:0:0:
490,94,21984,2,0,L|493:153|493:153,1,59.5
151,330,26058,6,0,B|128:254|128:254|99:180|99:180|77:104|77:104|71:25|71:25|68:104|68:104|96:178|96:178|124:252|124:252|156:324|156:324|132:249|132:249|101:176|101:176|85:99|85:99|71:21|71:21|67:92|67:92|87:161|87:161|116:226|116:226|151:321|151:321,2,632,2|2|2,0:0|0:0|0:0,0:0:0:0:
389,336,28365,2,0,L|392:257|392:257|412:181|412:181|413:102|413:102|414:23|414:23|410:94|410:94|418:164|418:164|435:232|435:232|439:336|439:336,1,632,2|2,0:0|0:0,0:0:0:0:
69,77,30555,1,2,0:0:0:0:
382,258,31480,1,2,0:0:0:0:
132,323,32050,6,0,B|135:382|135:382|110:328|110:328|112:269|112:269|97:211|97:211|96:152|96:152|77:96|77:96|61:39|61:39|51:98|51:98|70:149|70:149|83:202|83:202|91:256|91:256|85:310|85:310|93:364|93:364|113:313|113:313|127:260|127:260|142:168|142:168,1,952,2|0,0:0|0:0,0:0:0:0:
408,258,33650,2,0,B|437:332|437:332|448:254|448:254|476:180|476:180|477:101|477:101|464:31|464:31|449:100|449:100|429:168|429:168|402:268|402:268,1,632,2|0,0:0|0:0,0:0:0:0:
103,0,35061,2,0,B|94:78|94:78|98:157|98:157|114:234|114:234|137:309|137:309|157:385|157:385|193:315|193:315|223:242|223:242|245:166|245:166|223:90|223:90|179:25|179:25|158:101|158:101|135:176|135:176|116:245|116:245|108:316|108:316|93:386|93:386|85:284|85:284,1,1264,2|2,0:0|0:0,0:0:0:0:
457,350,38089,6,0,B|461:291|461:291|453:232|453:232|432:176|432:176|435:117|435:117|429:58|429:58|409:2|409:2|402:61|402:61|384:118|384:118|361:224|361:224|325:327|325:327|317:218|317:218|269:77|269:77,1,952,2|0,0:0|0:0,0:0:0:0:
55,350,39619,2,0,B|65:272|65:272|73:193|73:193|99:118|99:118|128:45|128:45|149:113|149:113|172:180|172:180|193:248|193:248|243:339|243:339,1,632,2|0,0:0|0:0,0:0:0:0:
431,75,41064,6,0,B|450:131|450:131|452:190|452:190|463:249|463:249|459:308|459:308|459:367|459:367|463:308|463:308|469:249|469:249|459:190|459:190|442:82|442:82|419:188|419:188|399:295|399:295|365:150|365:150,1,952,2|0,0:0|0:0,0:0:0:0:
85,268,42542,1,2,0:0:0:0:
444,240,43375,1,0,0:0:0:0:
174,250,44039,6,0,B|148:325|148:325|144:246|144:246|155:168|155:168|153:89|153:89|168:11|168:11|189:87|189:87|227:156|227:156|255:230|255:230|288:302|288:302|306:379|306:379|350:314|350:314|358:235|358:235|376:166|376:166|361:96|361:96|351:25|351:25|335:126|335:126,1,1264,2|0,0:0|0:0,0:0:0:0:
170,359,47057,2,0,B|143:285|143:285|111:213|111:213|79:141|79:141|54:66|54:66|42:144|42:144|14:218|14:218|3:296|3:296|6:375|6:375|7:296|7:296|11:217|11:217|35:142|35:142|53:65|53:65|82:130|82:130|98:200|98:200|115:269|115:269|168:356|168:356,1,1264,2|2,0:0|0:0,0:0:0:0:
380,26,50084,6,0,B|382:105|382:105|391:184|391:184|419:258|419:258|432:336|432:336|405:262|405:262|366:193|366:193|340:119|340:119|318:43|318:43|340:119|340:119|377:189|377:189|395:266|395:266|432:336|432:336|401:271|401:271|401:200|401:200|389:130|389:130|380:29|380:29,2,632,2|0|0,0:0|0:0|0:0,0:0:0:0:
104,257,52354,1,0,0:0:0:0:
81,171,52534,1,2,0:0:0:0:
120,97,52811,1,2,0:0:0:0:
360,31,53089,2,0,B|389:113|389:113|419:195|419:195|412:282|412:282|420:368|420:368|405:282|405:282|387:197|387:197|351:118|351:118|312:40|312:40|338:123|338:123|358:207|358:207|381:291|381:291|401:375|401:375|420:299|420:299|449:227|449:227|469:152|469:152|492:41|492:41,1,1388.79995761719,2|2,0:0|0:0,0:0:0:0:
102,260,55369,1,2,0:0:0:0:
386,26,56079,6,0,B|416:99|416:99|432:176|432:176|450:253|450:253|474:328|474:328|463:257|463:257|443:188|443:188|439:116|439:116|421:16|421:16,1,632,2|0,0:0|0:0,0:0:0:0:
165,212,57697,2,0,B|168:291|168:291|204:361|204:361|234:288|234:288|260:213|260:213|277:146|277:146|308:84|308:84|323:16|323:16|352:120|352:120,1,632,2|0,0:0|0:0,0:0:0:0:
126,26,59060,6,0,B|125:85|125:85|107:142|107:142|89:199|89:199|75:257|75:257|78:316|78:316|68:375|68:375|59:316|59:316|38:260|38:260|67:155|67:155|77:47|77:47|96:154|96:154|135:300|135:300,1,952,2|0,0:0|0:0,0:0:0:0:
438,363,60230,1,2,0:0:0:0:
193,291,60595,1,2,0:0:0:0:
250,182,60961,1,2,0:0:0:0:
297,291,61327,1,2,0:0:0:0:
74,363,61694,1,2,0:0:0:0:
370,226,62090,6,0,B|374:305|374:305|364:383|364:383|340:308|340:308|327:230|327:230|301:163|301:163|281:94|281:94|249:30|249:30|212:124|212:124,1,632,2|2,0:0|0:0,0:0:0:0:
376,163,63618,2,0,L|347:236|347:236|315:308|315:308|267:371|267:371|246:295|246:295|217:230|217:230|179:170|179:170|168:100|168:100|116:11|116:11,1,632,2|2,0:0|0:0,0:0:0:0:
309,186,64680,1,2,0:0:0:0:
31,331,65079,2,0,B|26:252|26:252|45:175|45:175|64:98|64:98|83:21|83:21|105:89|105:89|121:158|121:158|164:215|164:215|198:312|198:312,1,632,2|0,0:0|0:0,0:0:0:0:
441,298,66571,1,2,0:0:0:0:
118,163,67252,1,2,0:0:0:0:
442,324,68057,6,0,B|447:383|447:383|437:324|437:324|438:265|438:265|422:208|422:208|410:150|410:150|404:91|404:91|395:32|395:32|384:90|384:90|375:145|375:145|354:197|354:197|357:253|357:253|338:305|338:305|331:360|331:360|309:309|309:309|291:256|291:256|275:172|275:172,1,952,2|2,0:0|0:0,0:0:0:0:
55,65,69595,2,0,L|89:136|89:136|131:203|131:203|150:280|150:280|185:351|185:351|217:279|217:279|260:213|260:213|293:141|293:141|315:65|315:65|339:132|339:132|377:192|377:192|393:261|393:261|445:350|445:350,1,948,2|0,0:0|0:0,0:0:0:0:
142,321,71040,2,0,B|142:242|142:242|167:167|167:167|191:92|191:92|200:14|200:14|213:84|213:84|244:148|244:148|268:216|268:216|309:309|309:309,1,632,2|0,0:0|0:0,0:0:0:0:
461,129,72172,1,0,0:0:0:0:
123,322,72578,2,0,B|111:380|111:380|104:321|104:321|85:265|85:265|67:208|67:208|72:149|72:149|54:92|54:92|53:33|53:33|35:90|35:90|39:145|39:145|12:192|12:192|11:247|11:247|12:302|12:302|9:357|9:357|-1:303|-1:303|3:248|3:248|3:154|3:154,1,952,2|0,0:0|0:0,0:0:0:0:
316,283,74047,6,0,B|343:357|343:357|370:283|370:283|369:205|369:205|361:93|361:93,1,347.199989404297,8|0,0:1|0:0,0:0:0:0:
206,283,74609,2,0,B|187:359|187:359|166:283|166:283|166:205|166:205|165:93|165:93,1,347.199989404297,8|0,0:1|0:0,0:0:0:0:
355,124,75172,2,0,B|384:197|384:197|418:268|418:268|414:346|414:346|358:249|358:249,1,347.199989404297,6|0,0:3|0:0,0:0:0:0:
148,85,75922,1,2,0:0:0:0:
327,323,76297,2,0,B|301:249|301:249|254:186|254:186|223:114|223:114|174:14|174:14,1,347.199989404297,2|0,0:0|0:0,0:0:0:0:
408,334,77047,5,8,0:1:0:0:
472,225,77234,1,2,0:0:0:0:
385,128,77422,1,2,0:0:0:0:
198,192,77609,1,8,0:1:0:0:
343,116,77796,1,2,0:0:0:0:
400,231,77984,1,0,0:0:0:0:
336,340,78172,1,8,0:1:0:0:
99,333,78547,5,4,0:3:0:0:
189,268,78734,1,4,0:3:0:0:
133,208,78922,1,4,0:3:0:0:
436,48,79297,1,8,0:3:0:0:
346,122,79484,1,8,0:3:0:0:
403,199,79672,1,8,0:3:0:0:
79,39,80047,6,0,L|117:108|117:108|157:176|157:176|189:247|189:247|235:349|235:349,1,347.199989404297,2|0,0:0|0:0,0:0:0:0:
388,136,80609,2,0,L|356:208|356:208|324:280|324:280|283:347|283:347|233:247|233:247,1,347.199989404297,8|0,0:1|0:0,0:0:0:0:
112,177,81172,1,2,0:0:0:0:
427,107,81547,1,2,0:0:0:0:
403,217,81734,1,0,0:0:0:0:
322,277,81922,1,0,0:0:0:0:
63,209,82297,2,0,L|76:286|76:286|74:364|74:364|71:286|71:286|87:175|87:175,1,347.199983698919,2|0,0:0|0:0,0:0:0:0:
375,349,83047,6,0,B|419:274|419:274|445:191|445:191|423:124|423:124|375:32|375:32,2,173.599994702149,2|2|2,0:0|0:0|0:0,0:0:0:0:
224,274,83609,2,0,L|207:342|207:342|204:237|204:237,1,173.59999184946,8|0,0:1|0:0,0:0:0:0:
332,342,83984,1,0,0:0:0:0:
151,235,84172,1,8,0:1:0:0:
363,134,84547,2,0,L|412:205|412:205|440:287|440:287|400:344|400:344|363:247|363:247,2,173.599994702149,2|2|8,0:0|0:0|0:1,0:0:0:0:
87,145,85297,2,0,L|115:227|115:227|164:299|164:299|143:366|143:366|87:279|87:279,2,173.599994702149,4|4|4,0:3|0:3|0:3,0:0:0:0:
419,343,86047,6,0,B|420:265|420:265|388:193|388:193|366:118|366:118|332:11|332:11,1,347.199989404297,2|0,0:0|0:0,0:0:0:0:
178,250,86609,2,0,L|204:324|204:324|253:386|253:386|292:318|292:318|334:214|334:214,1,347.199989404297,8|0,0:1|0:0,0:0:0:0:
175,216,87172,2,0,B|147:289|147:289|114:360|114:360|104:282|104:282|92:171|92:171,1,347.199989404297,2|0,0:0|0:0,0:0:0:0:
320,117,87922,1,2,0:0:0:0:
131,123,88297,1,2,0:0:0:0:
452,107,88672,1,2,0:0:0:0:
111,327,89047,6,0,B|72:249|72:249|34:171|34:171|69:110|69:110|111:15|111:15,2,173.599994702149,8|2|2,0:1|0:0|0:0,0:0:0:0:
269,292,89609,2,0,B|221:364|221:364|193:282|193:282|218:216|218:216|269:126|269:126,2,173.599994702149,2|2|2,0:0|0:0|0:0,0:0:0:0:
108,235,90172,2,0,L|80:299|80:299|31:208|31:208,1,173.599994702149,8|0,0:1|0:1,0:0:0:0:
24,164,90547,1,0,0:0:0:0:
259,152,90922,1,0,0:0:0:0:
489,138,91297,2,0,B|481:216|481:216|489:294|489:294|457:366|457:366|411:264|411:264,1,347.199989404297,2|0,0:0|0:0,0:0:0:0:
182,55,92047,6,0,L|197:132|197:132|199:210|199:210|204:288|204:288|205:176|205:176,1,347.199989404297,4|0,0:3|0:0,0:0:0:0:
330,55,92609,2,0,L|329:133|329:133|319:211|319:211|321:289|321:289|308:178|308:178,1,347.199989404297,8|2,0:1|0:3,0:0:0:0:
153,277,93172,1,2,0:3:0:0:
361,342,93547,2,0,B|385:267|385:267|417:195|417:195|442:121|442:121|430:10|430:10,1,347.199989404297,2|0,0:0|0:0,0:0:0:0:
145,189,94297,2,0,B|102:255|102:255|89:332|89:332|75:255|75:255|76:143|76:143,1,347.199989404297,2|0,0:0|0:0,0:0:0:0:
401,64,95047,6,0,L|418:132|418:132|424:235|424:235,1,173.599994702149,2|0,0:0|0:0,0:0:0:0:
287,134,95422,2,0,L|287:204|287:204|274:307|274:307,1,173.599994702149,2|8,0:0|0:1,0:0:0:0:
115,197,95984,1,2,0:0:0:0:
236,346,96172,2,0,L|228:276|228:276|219:173|219:173,1,173.599994702149,8|0,0:1|0:0,0:0:0:0:
333,121,96547,1,0,0:0:0:0:
114,39,96922,1,2,0:0:0:0:
413,32,97297,1,2,0:0:0:0:
139,273,97672,1,2,0:0:0:0:
470,340,98047,6,0,B|470:262|470:262|442:189|442:189|430:111|430:111|396:5|396:5,1,347.199989404297,2|0,0:0|0:0,0:0:0:0:
263,104,98609,2,0,B|259:182|259:182|277:258|277:258|309:330|309:330|338:222|338:222,1,347.199989404297,8|0,0:1|0:0,0:0:0:0:
463,238,99172,1,2,0:3:0:0:
188,366,99547,2,0,L|217:284|217:284|219:197|219:197|241:113|241:113|264:29|264:29|279:106|279:106|298:182|298:182|311:259|311:259|341:367|341:367,1,694.399978808594,2|0,0:0|0:0,0:0:0:0:
102,359,101047,6,0,L|107:281|107:281|97:203|97:203|92:125|92:125|87:13|87:13,1,347.199989404297,4|0,0:3|0:0,0:0:0:0:
274,317,101609,1,8,0:1:0:0:
195,258,101796,1,0,0:0:0:0:
179,160,101984,1,0,0:0:0:0:
236,79,102171,1,2,0:0:0:0:
334,62,102359,1,2,0:0:0:0:
343,93,102547,5,2,0:3:0:0:
93,240,102922,1,2,0:0:0:0:
346,195,103297,1,2,0:0:0:0:
9,112,103672,1,2,0:0:0:0:
343,285,104047,6,0,B|376:365|376:365|414:287|414:287|393:220|393:220|343:129|343:129,2,173.599994702149,2|0|2,0:0|0:1|0:3,0:0:0:0:
155,231,104609,1,2,0:0:0:0:
284,185,104797,2,0,B|310:250|310:250|355:343|355:343,1,173.599994702149,8|0,0:1|0:1,0:0:0:0:
370,49,105172,1,0,0:0:0:0:
123,303,105547,5,2,0:0:0:0:
272,251,105734,2,0,L|271:321|271:321|266:217|266:217,1,173.59999184946,0|0,3:3|0:3,0:0:0:0:
96,318,106109,2,0,L|95:248|95:248|92:143|92:143,1,173.59999184946,0|0,0:3|0:0,0:0:0:0:
181,188,106484,1,4,0:3:0:0:
19,377,106672,1,4,0:3:0:0:
294,130,107047,6,0,B|330:200|330:200|353:275|353:275|357:353|357:353|364:241|364:241,1,347.199989404297,2|0,0:3|0:0,0:0:0:0:
195,197,107609,2,0,L|194:267|194:267|220:368|220:368,1,173.59999184946,2|0,0:0|0:0,0:0:0:0:
308,103,107984,1,0,0:3:0:0:
184,110,108172,2,0,L|183:180|183:180|159:281|159:281,1,173.599994702149,4|0,0:3|0:0,0:0:0:0:
372,14,108547,6,0,B|420:87|420:87|432:173|432:173|450:258|450:258|452:345|452:345|439:276|439:276|403:179|403:179,1,520.799984106446,2|0,0:0|0:0,0:0:0:0:
267,338,109297,2,0,B|311:273|311:273|348:204|348:204|370:129|370:129|422:30|422:30,1,347.199989404297,2|0,0:0|0:0,0:0:0:0:
71,83,110047,2,0,L|35:162|35:162|1:242|1:242|19:310|19:310|71:221|71:221,2,173.599994702149,2|0|2,0:0|0:0|0:0,0:0:0:0:
226,181,110609,2,0,L|186:258|186:258|159:341|159:341|185:276|185:276|226:181|226:181,2,173.599994702149,2|0|0,0:3|0:0|0:0,0:0:0:0:
396,63,111172,6,0,B|425:136|425:136|462:205|462:205|479:282|479:282|492:171|492:171,1,347.199989404297,8|2,0:1|0:0,0:0:0:0:
207,138,111922,1,2,0:0:0:0:
356,239,112297,1,2,0:3:0:0:
313,337,112484,1,2,0:0:0:0:
212,363,112672,1,2,0:0:0:0:
313,337,112859,1,0,0:0:0:0:
157,113,113047,6,0,B|180:188|180:188|204:263|204:263|233:336|233:336|269:230|269:230,1,347.199989404297,2|0,0:0|0:0,0:0:0:0:
356,218,113609,2,0,L|351:288|351:288|347:185|347:185,1,173.599994702149,2|2,0:3|0:0,0:0:0:0:
461,227,113984,1,0,0:0:0:0:
473,124,114172,1,2,0:0:0:0:
404,50,114359,1,2,0:0:0:0:
252,32,114547,5,2,0:0:0:0:
459,326,114922,1,2,0:0:0:0:
166,332,115297,1,2,0:0:0:0:
458,54,115672,1,2,0:0:0:0:
219,160,116047,6,0,B|257:238|257:238|296:315|296:315|259:374|259:374|219:279|219:279,2,173.599994702149,2|0|2,0:0|0:3|0:0,0:0:0:0:
87,220,116609,1,2,0:3:0:0:
194,130,116797,2,0,B|166:212|166:212|117:284|117:284|149:346|149:346|194:253|194:253,2,173.599994702149,0|0|0,0:3|0:0|0:3,0:0:0:0:
416,71,117547,2,0,B|381:150|381:150|339:226|339:226|369:289|369:289|416:381|416:381,2,173.599994702149,0|0|0,0:0|0:3|0:0,0:0:0:0:
175,43,118297,1,2,0:0:0:0:
436,272,118672,1,8,0:1:0:0:
133,340,119047,6,0,B|90:274|90:274|61:201|61:201|71:123|71:123|106:17|106:17,1,347.199989404297,2|0,0:3|0:0,0:0:0:0:
298,228,119609,2,0,B|338:296|338:296|358:372|358:372|359:294|359:294|324:188|324:188,1,347.199989404297,2|0,0:3|0:0,0:0:0:0:
127,148,120172,2,0,L|123:218|123:218|113:321|113:321,1,173.599994702149,2|0,0:0|0:0,0:0:0:0:
312,33,120547,1,2,0:0:0:0:
60,230,120922,1,2,0:0:0:0:
422,339,121297,2,0,B|446:264|446:264|448:186|448:186|463:109|463:109|448:220|448:220,1,347.199989404297,2|0,0:0|0:0,0:0:0:0:
128,346,122047,6,0,B|79:274|79:274|52:192|52:192|90:133|90:133|128:37|128:37,2,173.599994702149,2|0|2,0:0|0:0|0:0,0:0:0:0:
275,296,122609,2,0,B|246:360|246:360|216:261|216:261,1,173.599994702149,2|0,0:3|0:0,0:0:0:0:
184,145,122984,1,0,0:0:0:0:
360,348,123172,2,0,L|357:278|357:278|373:176|373:176,1,173.599994702149,2|0,0:3|0:0,0:0:0:0:
132,136,123734,2,0,L|123:206|123:206|117:309|117:309,1,173.599994702149,0|0,0:3|0:3,0:0:0:0:
359,34,124297,1,4,0:3:0:0:
234,102,124484,1,0,0:3:0:0:
364,181,124672,1,2,0:3:0:0:
178,329,125047,6,0,L|218:262|218:262|244:188|244:188|282:119|282:119|333:19|333:19,1,347.199989404297,2|0,0:0|0:0,0:0:0:0:
244,43,125609,1,2,0:3:0:0:
165,102,125796,1,0,0:0:0:0:
149,200,125984,1,0,0:0:0:0:
206,281,126171,1,2,0:0:0:0:
304,298,126359,1,0,0:0:0:0:
322,196,126547,5,2,0:0:0:0:
45,145,126922,1,2,0:0:0:0:
354,361,127297,1,2,0:0:0:0:
26,321,127672,1,2,0:0:0:0:
389,99,128047,6,0,B|437:172|437:172|458:256|458:256|431:321|431:321|389:226|389:226,2,173.599994702149,2|2|2,0:0|0:0|0:0,0:0:0:0:
202,153,128609,1,4,0:3:0:0:
327,222,128797,2,0,B|287:299|287:299|257:381|257:381|274:313|274:313|327:224|327:224,2,173.599994702149,2|0|2,0:3|0:0|0:3,0:0:0:0:
108,370,129453,2,0,P|89:331|89:331,1,43.399998675537
78,354,129547,5,2,0:0:0:0:
71,289,129734,1,0,0:3:0:0:
64,224,129922,1,0,0:3:0:0:
205,297,130109,1,2,0:0:0:0:
217,232,130296,1,0,0:3:0:0:
228,168,130484,1,0,0:3:0:0:
376,292,130672,1,4,0:3:0:0:
73,40,131047,6,0,B|77:118|77:118|92:195|92:195|105:272|105:272|154:372|154:372,1,347.199989404297,2|0,0:3|0:0,0:0:0:0:
333,173,131609,1,2,0:3:0:0:
116,280,131984,2,0,L|165:352|165:352|193:270|193:270|169:204|169:204|116:115|116:115,2,173.599994702149,2|0|2,0:0|0:3|0:0,0:0:0:0:
277,150,132547,2,0,L|307:222|307:222|343:292|343:292|377:363|377:363|433:266|433:266,1,347.199989404297,2|0,0:0|0:0,0:0:0:0:
109,215,133297,1,2,0:0:0:0:
435,259,133672,1,2,0:0:0:0:
152,45,134047,6,0,L|113:123|113:123|74:201|74:201|116:257|116:257|152:354|152:354,2,173.599994702149,2|0|2,0:0|0:0|0:0,0:0:0:0:
297,98,134609,1,8,0:1:0:0:
114,180,134984,1,2,0:0:0:0:
256,242,135172,2,0,B|280:326|280:326|320:249|320:249|353:169|353:169|350:82|350:82|329:15|329:15|315:117|315:117,1,520.799984106446,2|0,0:3|0:0,0:0:0:0:
197,44,135922,6,0,L|184:113|184:113|183:216|183:216,1,173.599994702149,0|0,0:3|0:0,0:0:0:0:
367,333,136297,2,0,L|358:264|358:264|355:161|355:161,1,173.599994702149,4|0,0:3|0:0,0:0:0:0:
201,249,136672,2,0,L|186:318|186:318|184:215|184:215,1,173.599994702149,8|0,0:1|0:0,0:0:0:0:
35,44,137047,5,2,0:0:0:0:
15,104,137234,1,0,0:0:0:0:
37,163,137422,1,0,0:0:0:0:
92,195,137609,1,2,0:3:0:0:
403,251,137984,5,0,0:0:0:0:
424,190,138171,1,2,0:0:0:0:
402,131,138359,1,2,0:0:0:0:
347,99,138546,1,2,0:0:0:0:
47,65,138922,5,2,0:0:0:0:
257,191,139297,1,2,0:0:0:0:
465,65,139672,1,2,0:0:0:0:
224,224,140047,6,0,B|269:298|269:298|295:381|295:381|265:318|265:318|224:223|224:223,2,173.599994702149,2|0|2,0:0|0:0|0:0,0:0:0:0:
340,175,140609,1,4,0:3:0:0:
163,288,140797,2,0,B|120:363|120:363|94:280|94:280|129:219|129:219|163:121|163:121,2,173.599994702149,2|0|8,0:3|0:3|0:1,0:0:0:0:
377,215,141547,5,2,0:0:0:0:
256,147,141734,1,0,0:0:0:0:
231,112,141922,1,0,0:0:0:0:
256,74,142109,1,0,0:0:0:0:
384,332,142297,2,0,B|410:249|410:249|460:178|460:178|425:117|425:117|384:22|384:22,2,173.599994702149,2|0|0,0:0|0:0|0:0,0:0:0:0:
27,27,143047,5,2,0:0:0:0:
103,93,143234,1,0,0:3:0:0:
13,157,143422,1,0,0:3:0:0:
154,84,143609,1,0,0:0:0:0:
62,162,143796,1,0,0:3:0:0:
177,213,143984,1,2,0:0:0:0:
325,89,144172,2,0,L|349:155|349:155|370:256|370:256,1,173.599994702149,2|0,0:0|0:0,0:0:0:0:
215,201,144547,5,2,0:0:0:0:
485,322,144922,1,2,0:0:0:0:
183,344,145297,2,0,B|141:278|141:278|122:202|122:202|89:131|89:131|83:19|83:19,1,347.199989404297,2|0,0:0|0:0,0:0:0:0:
323,279,146047,6,0,L|362:356|362:356|399:277|399:277|378:210|378:210|323:122|323:122,2,173.599994702149,2|0|2,0:0|0:0|0:0,0:0:0:0:
166,154,146609,2,0,L|198:235|198:235|208:321|208:321|200:251|200:251|166:153|166:153,2,173.599994702149,4|0|2,0:3|0:0|0:0,0:0:0:0:
317,70,147172,2,0,L|339:137|339:137|394:225|394:225,1,173.599994702149,8|0,0:1|0:1,0:0:0:0:
187,131,147547,2,0,L|163:206|163:206|106:260|106:260|93:337|93:337|32:243|32:243,1,347.199989404297,2|0,0:0|0:0,0:0:0:0:
304,351,148297,2,0,L|311:281|311:281|321:178|321:178,1,173.599994702149,2|0,0:0|0:0,0:0:0:0:
199,216,148672,2,0,L|194:286|194:286|181:183|181:183,1,173.599994702149,8|0,0:1|0:0,0:0:0:0:
371,32,149047,6,0,B|403:103|403:103|428:177|428:177|385:242|385:242|357:350|357:350,1,347.199989404297,2|0,0:0|0:0,0:0:0:0:
206,240,149609,1,2,0:0:0:0:
364,292,149984,1,2,0:0:0:0:
206,353,150172,2,0,L|207:283|207:283|185:182|185:182,1,173.599994702149,2|0,0:0|0:0,0:0:0:0:
314,230,150547,2,0,L|310:300|310:300|332:199|332:199,1,173.599994702149,2|0,0:0|0:0,0:0:0:0:
188,104,150922,1,2,0:0:0:0:
381,25,151297,1,2,0:0:0:0:
79,148,151672,1,2,0:0:0:0:
437,258,152047,5,6,0:0:0:0:
256,192,152234,12,0,154297,0:0:0:0:
255,283,154668,6,0,L|323:269,1,65,2|2,0:0|0:0,0:0:0:0:
220,257,154855,2,0,L|154:248,1,65,2|2,0:0|0:0,0:0:0:0:
415,226,155043,6,0,P|490:198|408:91,1,260,6|4,0:0|0:3,0:0:0:0:
281,98,155605,1,0,0:0:0:0:
451,286,155793,2,0,L|429:143,1,130,2|0,0:3|0:0,0:0:0:0:
301,288,156168,1,8,0:3:0:0:
468,288,156355,1,4,0:3:0:0:
172,339,156543,5,2,0:0:0:0:
187,276,156636,1,0,0:0:0:0:
226,224,156730,1,4,0:3:0:0:
283,194,156824,1,0,0:0:0:0:
203,179,156918,1,8,0:3:0:0:
70,39,157105,2,0,L|148:30,1,65,2|0,0:0|0:0,0:0:0:0:
413,224,157293,2,0,L|426:94,1,130,8|0,0:3|0:0,0:0:0:0:
261,62,157668,1,10,0:3:0:0:
426,94,157855,1,4,0:3:0:0:
88,294,158043,6,0,P|102:221|213:161,1,195,10|0,0:1|0:0,0:0:0:0:
274,158,158418,1,4,0:3:0:0:
122,165,158605,1,2,0:3:0:0:
481,341,158793,2,0,L|344:329,1,130,10|0,0:0|0:0,0:0:0:0:
343,259,159074,1,0,0:0:0:0:
334,187,159168,2,0,L|197:175,1,130,4|4,0:3|0:3,0:0:0:0:
389,48,159543,6,0,L|454:53,1,65,6|2,0:0|0:0,0:0:0:0:
372,79,159730,1,2,0:0:0:0:
178,243,159824,2,0,L|141:180,1,65,2|6,0:0|0:3,0:0:0:0:
164,88,160011,1,0,0:0:0:0:
343,45,160105,1,6,0:2:0:0:
196,61,160293,2,0,P|177:119|189:190,1,130,0|2,0:0|0:0,0:0:0:0:
255,242,160574,1,0,0:0:0:0:
406,291,160668,2,0,L|481:295,1,65,10|0,0:3|0:0,0:0:0:0:
203,157,160855,2,0,P|170:162|138:162,1,65,2|0,0:3|0:0,0:0:0:0:
416,288,161043,6,0,P|491:260|409:153,1,260,12|4,0:1|0:3,0:0:0:0:
167,153,161605,2,0,L|28:133,1,130,4|8,0:3|0:3,0:0:0:0:
221,261,161980,1,2,0:1:0:0:
235,118,162168,1,2,0:1:0:0:
76,132,162355,1,4,0:3:0:0:
339,71,162543,5,6,0:0:0:0:
324,134,162636,1,0,0:0:0:0:
285,186,162730,1,0,0:0:0:0:
228,216,162824,1,2,0:0:0:0:
312,164,162918,1,4,0:3:0:0:
451,337,163105,2,0,L|391:294,1,65,10|0,3:3|0:0,0:0:0:0:
41,341,163293,2,0,P|21:267|46:210,1,130,2|0,0:1|0:0,0:0:0:0:
112,177,163574,1,2,0:1:0:0:
309,261,163668,2,0,L|177:266,1,130,8|6,0:3|0:3,0:0:0:0:
214,351,163949,1,0,0:0:0:0:
398,54,164043,6,0,P|449:118|393:186,1,130,2|2,0:0|0:0,0:0:0:0:
372,196,164324,1,2,0:0:0:0:
292,195,164418,1,6,0:3:0:0:
110,361,164605,1,2,0:0:0:0:
390,308,164793,1,8,0:3:0:0:
413,248,164886,1,0,0:0:0:0:
401,185,164980,1,0,0:0:0:0:
358,137,165074,1,0,0:0:0:0:
190,103,165168,1,8,0:0:0:0:
347,357,165355,2,0,L|282:360,1,65,2|2,0:0|0:0,0:0:0:0:
55,228,165543,5,6,0:3:0:0:
30,147,165636,1,0,0:0:0:0:
67,71,165730,1,2,0:0:0:0:
146,42,165824,1,2,0:0:0:0:
67,71,165918,1,0,0:3:0:0:
30,147,166012,1,0,0:0:0:0:
55,228,166105,1,6,0:3:0:0:
135,271,166199,1,2,0:0:0:0:
315,126,166293,6,0,L|401:123,1,65,4|2,0:3|0:0,0:0:0:0:
318,225,166480,2,0,L|244:221,1,65,2|2,0:0|0:0,0:0:0:0:
438,178,166668,2,0,L|507:174,1,65,4|4,0:3|0:3,0:0:0:0:
206,80,166855,2,0,L|129:80,1,65,4|4,0:3|0:3,0:0:0:0:
401,370,167043,6,0,B|460:337|475:258,1,130,14|0,0:1|0:0,0:0:0:0:
335,261,167418,1,2,0:3:0:0:
472,231,167605,1,0,0:0:0:0:
318,23,167793,2,0,L|331:162,1,130,4|0,0:3|0:0,0:0:0:0:
177,185,168168,1,8,0:1:0:0:
312,261,168355,1,8,0:1:0:0:
119,46,168543,6,0,L|73:102,1,65,10|0,0:1|0:0,0:0:0:0:
174,161,168730,1,2,0:0:0:0:
211,214,168823,1,2,0:0:0:0:
268,244,168917,1,2,0:3:0:0:
399,264,169105,1,4,0:3:0:0:
125,45,169293,2,0,L|101:181,1,130,10|0,0:1|0:0,0:0:0:0:
281,285,169668,2,0,L|137:277,1,130,4|8,0:3|0:3,0:0:0:0:
140,247,169949,1,0,0:0:0:0:
381,73,170043,5,4,0:0:0:0:
402,133,170136,1,0,0:0:0:0:
391,196,170230,1,0,0:0:0:0:
350,246,170324,1,0,0:3:0:0:
170,355,170418,2,0,L|302:361,1,130,8|2,0:3|0:0,0:0:0:0:
468,146,170793,2,0,P|446:93|384:51,1,130,8|0,0:1|0:0,0:0:0:0:
311,50,171074,1,0,0:0:0:0:
148,345,171168,1,4,0:3:0:0:
295,309,171355,1,0,0:0:0:0:
153,330,171543,6,0,L|130:252,1,65,2|2,3:2|0:0,0:0:0:0:
213,226,171730,1,2,0:0:0:0:
35,236,171918,2,0,L|72:170,1,65,6|0,0:3|0:0,0:0:0:0:
135,142,172105,1,4,0:3:0:0:
391,318,172293,2,0,P|432:288|452:202,1,130,2|0,0:1|0:0,0:0:0:0:
391,165,172574,1,2,0:0:0:0:
184,277,172668,2,0,L|81:189,1,130,8|4,0:3|0:3,0:0:0:0:
147,92,172949,1,0,0:0:0:0:
449,231,173043,6,0,L|462:92,1,130,10|0,0:3|0:0,0:0:0:0:
312,261,173418,1,4,0:3:0:0:
449,231,173605,1,2,0:3:0:0:
279,274,173793,1,10,0:1:0:0:
285,209,173886,1,0,0:0:0:0:
291,144,173980,1,0,0:0:0:0:
144,212,174168,1,4,0:3:0:0:
449,231,174355,1,8,0:3:0:0:
194,39,174543,6,0,L|174:104,1,65,4|0,0:2|0:0,0:0:0:0:
86,102,174730,1,0,0:0:0:0:
26,167,174823,1,0,0:0:0:0:
12,253,174917,1,4,0:3:0:0:
177,336,175105,2,0,L|157:271,1,65,2|0,0:0|0:0,0:0:0:0:
262,235,175292,1,2,0:1:0:0:
310,168,175385,1,0,0:0:0:0:
321,93,175479,1,0,0:0:0:0:
450,318,175668,2,0,L|460:179,1,130,8|2,0:3|0:3,0:0:0:0:
75,126,176043,5,6,0:0:0:0:
64,239,176230,1,0,0:0:0:0:
231,196,176418,1,8,0:3:0:0:
242,309,176605,1,2,0:3:0:0:
81,153,176793,2,0,L|2:164,1,65,10|0,0:1|0:0,0:0:0:0:
78,330,176980,1,0,0:0:0:0:
142,338,177073,1,0,0:0:0:0:
387,285,177168,1,6,0:3:0:0:
425,235,177261,1,0,0:0:0:0:
410,174,177355,1,8,0:3:0:0:
353,148,177449,1,0,0:0:0:0:
153,234,177543,6,0,L|225:228,1,65,8|2,0:1|0:0,0:0:0:0:
284,183,177730,2,0,L|212:177,1,65,2|2,0:0|0:0,0:0:0:0:
141,170,177918,1,8,0:3:0:0:
103,120,178011,1,0,0:0:0:0:
118,59,178105,1,2,0:0:0:0:
175,33,178199,1,0,0:0:0:0:
351,81,178293,6,0,L|423:87,1,65,6|0,0:3|0:0,0:0:0:0:
316,165,178480,2,0,L|244:171,1,65,4|0,3:0|0:0,0:0:0:0:
472,236,178668,2,0,L|503:102,1,130,10|0,0:3|0:0,0:0:0:0:
145,94,179043,6,0,L|105:222,1,130,6|0,0:2|0:0,0:0:0:0:
183,222,179324,1,0,0:0:0:0:
260,229,179418,1,4,0:3:0:0:
130,97,179605,1,2,0:0:0:0:
318,335,179793,2,0,L|352:200,1,130,2|0,0:1|0:0,0:0:0:0:
278,201,180074,1,0,0:0:0:0:
182,225,180168,2,0,L|147:85,1,130,8|4,0:3|0:3,0:0:0:0:
456,125,180543,5,2,0:1:0:0:
458,188,180636,1,2,0:0:0:0:
426,244,180730,1,0,0:0:0:0:
370,277,180824,1,2,0:0:0:0:
174,116,180918,2,0,P|124:115|88:99,1,65,2|0,0:0|0:0,0:0:0:0:
303,1,181105,1,4,0:3:0:0:
157,319,181293,2,0,L|198:182,1,130,2|0,0:1|0:0,0:0:0:0:
363,329,181668,2,0,P|302:301|231:298,1,130,4|4,0:3|0:3,0:0:0:0:
173,176,181949,1,0,0:0:0:0:
417,212,182043,6,0,P|457:182|473:94,1,130,6|0,0:0|0:0,0:0:0:0:
400,97,182324,1,0,0:0:0:0:
230,70,182418,1,4,0:3:0:0:
371,220,182605,1,4,0:3:0:0:
104,303,182793,2,0,P|64:273|65:137,1,195,10|0,0:1|0:0,0:0:0:0:
257,320,183168,2,0,P|196:292|125:289,1,130,2|0,0:1|0:0,0:0:0:0:
305,257,183543,5,4,0:3:0:0:
319,195,183636,1,2,0:0:0:0:
288,139,183730,1,2,0:0:0:0:
228,118,183824,1,2,0:0:0:0:
432,140,183918,2,0,L|469:74,1,65,4|0,0:3|0:0,0:0:0:0:
433,35,184105,1,2,0:0:0:0:
283,135,184293,1,2,0:3:0:0:
417,134,184480,1,0,0:0:0:0:
252,61,184668,1,12,0:3:0:0:
417,134,184855,1,8,0:3:0:0:
63,153,185043,6,0,L|50:292,1,130,6|0,0:0|0:0,0:0:0:0:
200,123,185418,1,4,0:3:0:0:
31,275,185605,1,2,0:0:0:0:
168,245,185793,2,0,L|193:386,1,130,2|2,0:3|0:0,0:0:0:0:
335,324,186168,1,8,0:3:0:0:
31,275,186355,1,0,0:0:0:0:
341,234,186543,6,0,L|361:169,1,65,2|2,0:1|0:0,0:0:0:0:
256,133,186730,1,2,0:3:0:0:
222,64,186823,1,2,0:0:0:0:
156,23,186917,1,8,0:1:0:0:
346,61,187105,2,0,L|366:126,1,65,2|0,0:1|0:0,0:0:0:0:
256,133,187292,1,8,0:3:0:0:
208,194,187385,1,2,0:0:0:0:
193,273,187479,1,8,0:1:0:0:
377,320,187668,1,4,0:3:0:0:
185,266,187855,2,0,L|124:287,1,65,2|0,0:0|0:0,0:0:0:0:
394,363,188043,6,0,P|462:309|457:194,1,195,6|2,0:0|0:0,0:0:0:0:
431,136,188418,1,4,0:3:0:0:
354,104,188511,1,2,0:0:0:0:
444,90,188605,1,4,0:3:0:0:
119,300,188793,1,2,0:1:0:0:
270,297,188980,1,0,0:0:0:0:
236,235,189074,1,0,0:0:0:0:
202,177,189168,1,10,0:3:0:0:
346,174,189355,1,2,0:3:0:0:
88,300,189543,6,0,P|54:282|47:143,1,195,6|0,0:0|0:0,0:0:0:0:
244,159,189918,2,0,L|169:152,1,65,2|0,0:0|0:0,0:0:0:0:
153,187,190105,1,2,0:0:0:0:
340,343,190293,2,0,P|331:290|273:241,1,130,4|0,0:3|0:0,0:0:0:0:
219,233,190574,1,0,0:0:0:0:
389,213,190668,2,0,P|432:169|461:95,1,130,8|0,3:1|0:0,0:0:0:0:
87,201,191043,6,0,B|13:162|16:87|16:87|90:79,1,214.500006546021,6|0,0:0|0:0,0:0:0:0:
314,345,191418,2,0,L|457:326,1,143.000004364014,6|0,0:3|0:0,0:0:0:0:
185,283,191793,1,6,0:3:0:0:
53,274,191980,1,0,0:0:0:0:
6,375,192168,2,0,L|154:359,1,143.000004364014,2|2,0:3|0:0,0:0:0:0:
430,270,192543,6,0,B|504:231|501:156|501:156|427:148,1,214.500006546021,10|0,0:3|0:0,0:0:0:0:
268,133,192918,1,0,0:0:0:0:
435,168,193105,1,8,0:1:0:0:
420,90,193199,1,8,0:1:0:0:
369,30,193293,1,10,0:1:0:0:
208,9,193480,1,0,0:3:0:0:
370,23,193668,1,6,0:3:0:0:
114,0,193855,1,8,0:3:0:0:
473,340,194043,6,0,P|492:256|480:189,1,143.000004364014,6|0,0:0|0:0,0:0:0:0:
422,155,194324,1,2,0:0:0:0:
338,141,194418,1,4,0:3:0:0:
197,169,194605,1,2,0:0:0:0:
373,24,194793,2,0,P|341:88|289:141,1,143.000004364014,6|0,0:3|0:0,0:0:0:0:
215,167,195074,1,0,0:0:0:0:
37,274,195168,2,0,P|18:190|30:123,1,143.000004364014,2|0,0:3|0:3,0:0:0:0:
360,65,195543,5,8,0:1:0:0:
390,118,195636,1,2,0:0:0:0:
371,170,195730,1,2,0:0:0:0:
317,194,195824,1,2,0:0:0:0:
492,323,195918,1,8,0:3:0:0:
237,304,196105,1,8,0:1:0:0:
167,291,196199,1,8,0:1:0:0:
237,277,196293,1,14,0:3:0:0:
407,252,196480,1,8,0:3:0:0:
241,192,196668,1,8,0:1:0:0:
409,150,196855,1,8,0:3:0:0:
95,165,197043,6,0,P|127:80|235:22,1,214.500006546021,6|0,0:0|0:0,0:0:0:0:
411,118,197418,1,4,0:3:0:0:
420,283,197605,1,2,0:0:0:0:
254,302,197793,2,0,P|237:270|226:220,1,71.5000021820069,4|0,0:3|0:0,0:0:0:0:
333,230,197980,2,0,P|347:196|354:160,1,71.5000021820069,2|2,0:0|0:0,0:0:0:0:
75,317,198168,2,0,P|47:276|40:182,1,143.000004364014,6|0,0:3|0:0,0:0:0:0:
350,218,198543,5,6,0:0:0:0:
317,144,198636,1,2,0:0:0:0:
243,113,198730,1,8,0:1:0:0:
318,94,198824,1,2,0:0:0:0:
351,15,198918,1,2,0:0:0:0:
217,343,199105,2,0,L|138:335,1,71.5000021820069,2|0,0:0|0:0,0:0:0:0:
411,341,199293,2,0,P|439:300|446:206,1,143.000004364014,10|0,0:1|0:0,0:0:0:0:
283,173,199668,1,8,0:1:0:0:
459,97,199855,2,0,L|390:124,1,71.5000021820069,8|0,0:1|0:1,0:0:0:0:
158,108,200043,6,0,L|137:265,1,143.000004364014,6|0,0:0|0:0,0:0:0:0:
212,298,200324,1,2,0:0:0:0:
285,344,200418,1,8,0:1:0:0:
109,231,200605,1,2,0:3:0:0:
398,83,200793,2,0,L|410:228,1,143.000004364014,2|0,0:1|0:0,0:0:0:0:
263,159,201168,1,6,0:3:0:0:
406,76,201355,1,0,0:0:0:0:
106,284,201543,6,0,L|84:215,1,71.5000021820069,4|2,0:3|0:0,0:0:0:0:
292,175,201730,1,2,0:0:0:0:
335,118,201823,1,2,0:0:0:0:
330,50,201917,1,4,0:3:0:0:
164,36,202105,1,0,0:0:0:0:
418,352,202293,5,2,1:0:0:0:
468,293,202386,1,2,0:0:0:0:
469,218,202480,1,2,0:0:0:0:
413,164,202574,1,2,0:0:0:0:
335,161,202668,1,4,0:3:0:0:
412,141,202762,1,0,0:3:0:0:
504,83,202856,1,4,0:3:0:0:
422,67,202949,1,0,1:0:0:0:
144,170,203043,6,0,P|120:90|118:31,1,143.000004364014,6|0,0:0|0:0,0:0:0:0:
367,257,203418,2,0,P|420:264|510:264,1,143.000004364014,2|0,0:1|0:0,0:0:0:0:
172,336,203793,2,0,P|119:343|29:343,1,143.000004364014,2|0,0:1|0:0,0:0:0:0:
367,275,204168,1,8,0:1:0:0:
512,277,204355,1,4,0:3:0:0:
172,300,204543,6,0,P|164:261|223:166,1,143.000004364014,6|0,0:0|0:0,0:0:0:0:
291,157,204824,1,0,0:0:0:0:
492,189,204918,2,0,L|506:33,1,143.000004364014,10|0,0:3|0:0,0:0:0:0:
171,66,205293,1,10,0:2:0:0:
37,83,205480,1,2,0:0:0:0:
343,239,205668,1,8,0:3:0:0:
479,261,205855,1,8,0:1:0:0:
39,66,206043,6,0,L|183:80,1,143.000004364014,6|0,0:0|0:0,0:0:0:0:
111,106,206323,1,0,0:0:0:0:
40,135,206417,1,4,0:3:0:0:
212,233,206605,1,2,0:3:0:0:
473,122,206793,1,10,0:1:0:0:
346,216,206980,1,4,0:3:0:0:
411,230,207074,1,0,0:0:0:0:
476,241,207168,1,10,0:3:0:0:
66,208,207355,1,0,0:0:0:0:
59,120,207449,1,0,0:0:0:0:
303,95,207543,5,6,0:0:0:0:
160,187,207730,1,2,0:0:0:0:
172,266,207824,1,2,0:0:0:0:
391,163,207918,1,2,0:0:0:0:
248,72,208105,1,8,0:1:0:0:
230,148,208199,1,0,0:1:0:0:
445,174,208293,1,10,0:1:0:0:
461,283,208480,1,2,0:3:0:0:
286,334,208668,1,4,0:3:0:0:
461,283,208855,1,4,0:3:0:0:
159,271,209043,6,0,L|13:256,1,143.000004364014,12|0,0:1|0:0,0:0:0:0:
190,177,209418,1,4,0:3:0:0:
261,142,209511,1,2,0:0:0:0:
188,134,209605,1,2,0:0:0:0:
108,122,209699,1,2,0:0:0:0:
179,85,209793,1,10,0:1:0:0:
337,335,209980,1,8,0:1:0:0:
350,293,210074,1,0,0:1:0:0:
329,249,210168,2,0,L|185:262,1,143.000004364014,2|0,0:1|0:0,0:0:0:0:
485,225,210543,5,6,0:0:0:0:
501,175,210636,1,2,0:0:0:0:
482,127,210730,1,4,0:3:0:0:
442,93,210824,1,2,0:0:0:0:
393,85,210918,2,0,L|246:104,1,143.000004364014,4|2,0:3|0:3,0:0:0:0:
107,123,211293,1,2,0:1:0:0:
283,132,211480,1,4,0:3:0:0:
201,233,211668,1,4,0:3:0:0:
380,256,211855,1,8,0:3:0:0:
68,332,212043,6,0,P|31:303|28:210,1,143.000004364014,6|0,0:0|0:0,0:0:0:0:
88,170,212324,1,2,0:0:0:0:
167,159,212418,1,8,0:1:0:0:
26,101,212605,1,0,0:0:0:0:
336,233,212793,2,0,L|483:218,1,143.000004364014,8|0,0:1|0:0,0:0:0:0:
162,343,213168,2,0,L|18:325,1,143.000004364014,10|0,3:0|0:0,0:0:0:0:
393,362,213543,6,0,B|467:323|464:248|464:248|390:240,1,214.500006546021,6|0,0:0|0:0,0:0:0:0:
178,231,213918,2,0,P|148:191|130:93,1,143.000004364014,2|0,0:1|0:0,0:0:0:0:
321,1,214293,2,0,P|358:30|361:123,1,143.000004364014,4|8,0:3|0:3,0:0:0:0:
301,163,214574,1,2,0:0:0:0:
222,174,214668,1,10,0:1:0:0:
494,277,214855,1,0,0:0:0:0:
195,306,215043,6,8,P|221:281|257:260,1,65,12|0,0:1|0:3,0:3:0:0:
314,226,215230,1,10,0:3:0:0:
246,186,215324,1,2,0:0:0:0:
211,103,215418,1,10,0:1:0:0:
371,63,215605,6,8,P|345:88|309:109,1,65,2|2,0:0|0:0,0:3:0:0:
222,152,215792,1,10,0:0:0:0:
300,183,215886,1,2,0:0:0:0:
334,261,215980,1,2,0:0:0:0:
305,342,216074,1,2,0:0:0:0:
206,366,216168,2,0,L|273:364,1,65,6|0,0:0|0:0,0:0:0:0:
438,281,216355,2,0,L|450:348,1,65,6|2,0:3|0:0,0:0:0:0:
217,335,216543,6,0,L|295:331,1,71.5000021820069,6|2,0:3|0:0,0:0:0:0:
456,311,216730,2,0,L|474:228,1,71.5000021820069,8|2,0:1|0:0,0:0:0:0:
249,31,216918,1,2,0:0:0:0:
212,110,217011,1,2,0:0:0:0:
234,189,217105,1,2,0:0:0:0:
304,236,217199,1,2,0:0:0:0:
400,115,217293,6,0,L|324:121,1,65,8|2,0:3|0:0,0:0:0:0:
136,146,217480,2,0,L|67:153,1,65,2|2,1:2|0:0,0:0:0:0:
289,337,217668,2,0,L|371:341,1,71.5000021820069,10|6,0:3|0:3,0:0:0:0:
289,337,217855,2,0,L|391:344,1,71.5000021820069,6|6,0:3|0:3,0:0:0:0:
99,341,218043,6,0,P|50:317|71:166,1,233.999992858887,6|0,0:0|0:0,0:0:0:0:
255,272,218418,2,0,L|228:192,1,77.999997619629,8|0,0:1|0:0,0:0:0:0:
62,147,218605,1,8,0:1:0:0:
367,94,218793,2,0,P|412:137|436:232,1,155.999995239258,2|0,0:3|0:0,0:0:0:0:
149,97,219168,2,0,P|104:140|80:235,1,155.999995239258,6|4,0:3|0:3,0:0:0:0:
404,365,219543,6,0,L|241:347,1,155.999995239258,6|2,0:0|0:0,0:0:0:0:
424,291,219824,2,0,P|456:270|485:242,1,77.999997619629,2|0,1:0|1:0,0:0:0:0:
492,113,220105,1,2,1:0:0:0:
258,211,220199,2,0,P|223:199|177:194,1,77.999997619629,0|2,1:1|1:1,0:0:0:0:
299,170,220480,2,0,P|259:183|208:188,1,77.999997619629,2|0,0:0|0:0,0:0:0:0:
431,184,220668,2,0,L|476:28,1,155.999995239258,10|0,3:0|0:0,0:0:0:0:
107,322,221043,6,0,P|40:286|14:215,1,155.999995239258,6|0,0:0|1:0,0:0:0:0:
202,181,221418,1,4,0:3:0:0:
38,87,221605,2,0,L|200:86,1,155.999995239258,8|0,0:3|0:0,0:0:0:0:
52,49,221980,2,0,L|138:46,1,77.999997619629,2|0,0:0|0:0,0:0:0:0:
371,342,222168,2,0,P|438:306|464:235,1,155.999995239258,10|2,0:3|0:3,0:0:0:0:
153,77,222543,6,0,P|145:153|188:215,1,155.999995239258,6|2,3:2|0:0,0:0:0:0:
290,195,222824,1,2,0:0:0:0:
218,212,222918,1,6,0:3:0:0:
181,118,223011,1,2,0:0:0:0:
257,100,223105,1,6,0:3:0:0:
181,118,223199,1,2,0:0:0:0:
282,184,223293,5,6,0:3:0:0:
349,218,223386,1,0,0:0:0:0:
380,289,223480,1,0,0:0:0:0:
349,359,223574,1,0,0:0:0:0:
187,80,223668,1,10,0:3:0:0:
120,114,223761,1,2,0:0:0:0:
358,79,223855,1,6,0:3:0:0:
425,113,223948,1,2,0:0:0:0:
168,7,224043,6,0,L|84:29,1,77.999997619629,12|0,0:1|0:0,0:0:0:0:
34,80,224230,1,0,0:0:0:0:
22,162,224324,1,0,0:0:0:0:
56,240,224418,1,8,0:1:0:0:
202,21,224605,1,8,0:1:0:0:
49,85,224793,6,0,L|233:98,1,155.999995239258,2|0,0:1|1:0,0:0:0:0:
40,166,225168,1,6,0:3:0:0:
51,246,225261,1,0,0:0:0:0:
82,316,225355,1,2,0:0:0:0:
146,358,225449,1,0,0:0:0:0:
322,317,225543,5,6,0:0:0:0:
191,277,225730,1,10,0:3:0:0:
420,238,225824,2,0,L|465:166,1,77.999997619629,10|0,0:3|0:0,0:0:0:0:
305,165,226105,1,8,0:1:0:0:
263,96,226199,1,8,0:1:0:0:
509,181,226293,6,0,P|480:240|413:306,1,155.999995239258,10|0,0:1|0:0,0:0:0:0:
27,354,226668,2,0,P|56:295|123:229,1,155.999995239258,10|0,0:1|0:0,0:0:0:0:
392,255,227043,6,0,P|463:205|483:128,1,155.999995239258,6|0,0:0|1:0,0:0:0:0:
386,135,227324,1,2,0:0:0:0:
330,131,227418,1,4,0:3:0:0:
489,281,227605,1,4,0:3:0:0:
204,341,227793,2,0,P|133:291|134:223,1,155.999995239258,8|0,0:3|0:0,0:0:0:0:
202,185,228074,1,2,0:0:0:0:
18,162,228168,1,6,0:3:0:0:
11,232,228261,1,0,0:0:0:0:
45,294,228355,1,4,0:3:0:0:
107,327,228449,1,0,0:0:0:0:
328,327,228543,5,6,0:0:0:0:
394,290,228636,1,0,0:0:0:0:
418,218,228730,1,0,0:0:0:0:
385,149,228824,1,2,0:0:0:0:
227,68,228918,2,0,P|179:67|149:78,1,77.999997619629,4|0,0:3|0:0,0:0:0:0:
255,69,229105,2,0,P|294:64|333:74,1,77.999997619629,4|0,0:3|0:0,0:0:0:0:
259,143,229293,5,6,0:3:0:0:
193,180,229386,1,2,0:0:0:0:
169,252,229480,1,0,0:3:0:0:
202,321,229574,1,2,0:0:0:0:
304,262,229668,2,0,P|341:264|383:272,1,77.999997619629,10|2,0:3|0:0,0:0:0:0:
129,352,229855,2,0,P|86:352|48:343,1,77.999997619629,10|2,0:3|0:0,0:0:0:0:
424,45,230043,6,0,L|437:203,1,155.999995239258,12|0,0:1|0:0,0:0:0:0:
279,89,230418,1,2,0:0:0:0:
438,16,230605,2,0,P|405:6|352:5,1,77.999997619629,4|0,0:3|0:0,0:0:0:0:
81,71,230793,2,0,L|66:234,1,155.999995239258,10|0,0:1|0:0,0:0:0:0:
239,266,231168,1,8,0:1:0:0:
59,327,231355,1,8,0:3:0:0:
366,92,231543,5,6,0:0:0:0:
293,131,231636,1,0,0:0:0:0:
366,92,231730,1,2,0:0:0:0:
293,131,231824,1,0,0:0:0:0:
221,171,231918,1,0,0:0:0:0:
150,311,232105,2,0,P|199:300|241:298,1,77.999997619629,8|0,0:1|0:1,0:0:0:0:
412,84,232293,2,0,L|424:244,1,155.999995239258,8|0,0:1|1:0,0:0:0:0:
263,275,232668,2,0,P|298:287|351:293,1,77.999997619629,8|0,0:1|0:0,0:0:0:0:
424,273,232855,1,2,0:3:0:0:
121,53,233043,6,0,P|45:135|99:243,1,233.999992858887,4|0,0:0|0:0,0:0:0:0:
198,344,233418,1,6,0:3:0:0:
123,323,233511,1,0,0:0:0:0:
46,319,233605,1,0,0:0:0:0:
440,83,233793,1,10,0:3:0:0:
504,168,233886,1,0,0:0:0:0:
458,239,233980,1,2,0:0:0:0:
183,301,234168,1,2,1:3:0:0:
346,155,234355,1,10,0:3:0:0:
67,75,234543,6,0,P|63:150|118:203,1,155.999995239258,6|0,0:0|0:0,0:0:0:0:
186,210,234824,1,0,0:0:0:0:
303,220,234918,2,0,P|359:277|349:355,1,155.999995239258,4|10,0:3|0:1,0:0:0:0:
25,318,235293,5,2,0:0:0:0:
18,252,235386,1,0,0:0:0:0:
39,188,235480,1,2,0:0:0:0:
95,147,235574,1,0,0:0:0:0:
158,136,235668,1,10,0:3:0:0:
80,121,235761,1,2,0:0:0:0:
158,136,235855,1,10,0:1:0:0:
66,100,235949,1,2,0:0:0:0:
267,80,236043,5,6,0:0:0:0:
141,239,236230,1,2,0:0:0:0:
154,292,236324,1,2,0:0:0:0:
204,361,236418,1,8,0:3:0:0:
363,373,236605,1,2,0:3:0:0:
25,353,236793,2,0,L|13:197,1,155.999995239258,12|0,0:3|0:0,0:0:0:0:
209,158,237168,1,8,1:1:0:0:
43,367,237355,2,0,L|120:382,1,77.999997619629,2|0,0:0|0:0,0:0:0:0:
387,47,237543,6,0,P|412:80|424:119,1,77.999997619629,4|0,0:3|0:0,0:0:0:0:
346,167,237730,1,6,0:3:0:0:
423,213,237824,2,0,P|411:250|387:281,1,77.999997619629,2|0,0:0|0:0,0:0:0:0:
238,230,238105,1,8,0:1:0:0:
252,269,238199,1,8,0:1:0:0:
316,357,238293,2,0,L|478:362,1,155.999995239258,8|0,0:1|0:0,0:0:0:0:
154,116,238668,1,10,0:1:0:0:
442,113,238855,1,2,0:0:0:0:
111,19,239043,6,0,P|43:55|7:123,1,155.999995239258,4|0,0:1|0:0,0:0:0:0:
82,190,239324,1,0,0:0:0:0:
353,140,239418,2,0,L|409:193,2,77.999997619629,0|0|2,1:0|0:0|1:0,0:0:0:0:
190,143,239793,1,2,0:3:0:0:
182,218,239886,1,0,0:0:0:0:
276,239,239980,1,0,0:0:0:0:
268,317,240074,1,0,0:0:0:0:
362,111,240168,1,6,0:3:0:0:
56,108,240355,1,8,0:1:0:0:
375,254,240543,5,4,0:3:0:0:
234,163,240730,1,2,0:0:0:0:
216,213,240824,1,2,0:0:0:0:
393,285,240918,1,2,0:3:0:0:
460,39,241105,6,0,L|382:34,1,77.999997619629,2|2,0:0|0:0,0:0:0:0:
163,32,241293,1,6,0:3:0:0:
107,97,241386,1,0,0:0:0:0:
111,178,241480,1,2,0:0:0:0:
160,242,241574,1,2,0:0:0:0:
230,272,241668,2,0,P|188:267|145:258,1,84.4999961318971,4|4,0:3|0:3,0:0:0:0:
221,250,241855,1,4,0:3:0:0:
65,304,241949,1,4,0:3:0:0:
316,348,242043,6,0,P|389:295|391:147,1,233.999992858887,6|0,0:0|0:0,0:0:0:0:
226,115,242418,1,8,0:1:0:0:
490,164,242605,1,8,0:1:0:0:
107,247,242793,2,0,P|55:185|67:92,1,155.999995239258
100,55,243074,1,2,0:0:0:0:
171,26,243168,1,4,0:3:0:0:
7,5,243355,1,4,0:3:0:0:
345,229,243543,6,0,P|327:192|291:159,1,77.999997619629,6|0,0:0|0:0,0:0:0:0:
150,156,243730,1,2,0:0:0:0:
302,152,243824,2,0,P|332:119|343:73,1,77.999997619629,2|0,0:0|0:0,0:0:0:0:
202,371,244105,2,0,L|134:278,1,77.999997619629,8|0,0:1|0:0,0:0:0:0:
405,355,244293,2,0,P|475:312|500:232,1,155.999995239258,2|0,0:1|0:0,0:0:0:0:
334,88,244668,1,4,0:3:0:0:
417,85,244761,1,0,0:0:0:0:
502,82,244855,1,2,0:0:0:0:
222,26,245043,6,0,L|60:17,1,155.999995239258,6|0,0:0|0:0,0:0:0:0:
57,70,245324,1,2,0:0:0:0:
89,155,245418,1,4,0:3:0:0:
273,208,245605,1,2,0:0:0:0:
241,290,245700,2,0,L|163:286,1,77.999997619629,0|4,0:0|0:3,0:0:0:0:
349,157,245980,1,2,0:0:0:0:
271,314,246075,2,0,L|245:235,1,77.999997619629,0|2,0:0|0:3,0:0:0:0:
415,331,246355,2,0,P|447:312|471:272,1,77.999997619629,2|0,0:0|0:0,0:0:0:0:
224,34,246543,6,0,P|170:84|138:162,1,155.999995239258,14|2,0:0|0:0,0:0:0:0:
165,235,246824,1,2,0:0:0:0:
251,260,246918,2,0,L|346:269,1,77.999997619629,6|2,0:3|0:0,0:0:0:0:
232,262,247105,2,0,L|137:271,1,77.999997619629,6|0,0:3|0:0,0:0:0:0:
351,261,247293,5,8,0:1:0:0:
388,194,247386,1,0,0:0:0:0:
363,123,247480,1,0,0:3:0:0:
293,94,247574,1,0,0:0:0:0:
101,325,247668,1,10,0:3:0:0:
171,340,247761,1,2,0:0:0:0:
332,367,247855,1,2,0:3:0:0:
402,378,247948,1,2,0:0:0:0:
198,25,248043,6,0,L|40:42,1,155.999995239258,6|0,0:0|0:0,0:0:0:0:
84,65,248324,1,0,0:0:0:0:
170,72,248418,1,0,0:0:0:0:
364,84,248605,1,2,0:3:0:0:
221,148,248793,2,0,P|289:129|376:114,1,155.999995239258,2|0,3:1|0:0,0:0:0:0:
220,251,249168,1,8,0:1:0:0:
401,295,249355,1,8,0:1:0:0:
97,303,249543,6,0,P|68:274|43:232,1,77.999997619629,6|2,0:3|0:0,0:0:0:0:
220,150,249730,2,0,P|261:145|309:135,1,77.999997619629,2|2,0:0|0:0,0:0:0:0:
129,172,249918,2,0,P|113:210|105:258,1,77.999997619629,6|2,0:3|0:0,0:0:0:0:
204,59,250105,2,0,P|163:54|115:44,1,77.999997619629,2|0,0:0|0:0,0:0:0:0:
367,155,250293,6,0,B|434:186|441:247|441:247|327:334,1,233.999992858887,10|0,0:1|0:0,0:0:0:0:
106,15,250668,2,0,B|20:46|5:121|5:121|85:111,1,233.999992858887,10|0,0:1|0:0,0:0:0:0:
320,347,251043,6,0,P|384:334|481:332,1,155.999995239258,6|0,0:0|0:0,0:0:0:0:
344,239,251418,1,8,0:1:0:0:
495,362,251605,2,0,P|480:336|425:293,1,77.999997619629,2|0,0:0|0:0,0:0:0:0:
213,221,251793,2,0,P|242:165|339:129,1,155.999995239258,10|0,0:1|0:0,0:0:0:0:
409,232,252074,1,2,0:0:0:0:
164,340,252168,2,0,P|86:342|9:356,1,155.999995239258,6|2,0:3|0:0,0:0:0:0:
50,270,252449,1,2,0:0:0:0:
307,114,252543,5,10,0:0:0:0:
381,134,252636,1,0,0:0:0:0:
434,190,252730,1,0,0:0:0:0:
451,265,252824,1,2,0:0:0:0:
413,191,252918,1,0,0:3:0:0:
335,150,253011,1,0,0:0:0:0:
176,159,253105,1,2,0:3:0:0:
250,187,253199,1,0,0:0:0:0:
75,322,253293,5,6,0:3:0:0:
47,252,253386,1,0,0:0:0:0:
76,181,253480,1,0,0:0:0:0:
143,130,253574,1,0,0:0:0:0:
327,305,253668,2,0,L|402:339,1,77.999997619629,4|4,0:3|0:3,0:0:0:0:
200,69,253855,2,0,L|124:35,1,77.999997619629,4|4,0:3|0:3,0:0:0:0:
408,25,254043,6,0,L|497:169,1,155.999995239258,6|0,0:0|0:0,0:0:0:0:
320,167,254418,2,0,L|408:177,1,77.999997619629,8|0,0:1|0:0,0:0:0:0:
473,196,254605,2,0,L|385:206,1,77.999997619629,0|0,0:1|0:0,0:0:0:0:
205,301,254793,2,0,L|48:321,1,155.999995239258,2|0,0:1|0:0,0:0:0:0:
201,222,255168,1,8,0:1:0:0:
54,185,255355,1,8,0:1:0:0:
346,320,255543,5,12,0:1:0:0:
320,234,255636,1,0,0:0:0:0:
207,213,255730,1,2,0:0:0:0:
241,155,255824,1,2,0:0:0:0:
304,133,255918,1,0,0:0:0:0:
150,340,256105,2,0,P|118:337|72:313,1,77.999997619629,2|0,0:0|0:0,0:0:0:0:
354,47,256293,2,0,L|517:31,1,155.999995239258,4|0,0:3|0:0,0:0:0:0:
198,153,256668,2,0,L|35:137,1,155.999995239258,8|0,0:3|0:0,0:0:0:0:
364,119,257043,6,0,L|385:286,1,155.999995239258,14|0,0:0|0:0,0:0:0:0:
235,238,257418,1,4,0:3:0:0:
416,129,257605,2,0,L|338:113,1,77.999997619629,2|0,0:0|0:0,0:0:0:0:
106,37,257793,2,0,P|50:73|47:159,1,155.999995239258,10|0,0:3|0:0,0:0:0:0:
120,119,258074,1,0,0:0:0:0:
171,2,258168,1,8,0:1:0:0:
15,116,258355,1,8,0:1:0:0:
289,153,258543,5,6,0:0:0:0:
257,226,258636,1,0,0:0:0:0:
185,261,258730,1,6,0:3:0:0:
262,276,258824,1,2,0:0:0:0:
339,288,258918,1,8,0:1:0:0:
195,118,259105,1,8,0:1:0:0:
470,35,259293,2,0,L|491:211,1,155.999995239258,8|2,0:3|0:3,0:0:0:0:
295,60,259574,1,2,0:0:0:0:
281,133,259668,1,8,0:1:0:0:
406,118,259855,1,8,3:1:0:0:
87,298,260043,6,0,P|19:256|7:181,1,155.999995239258,14|0,0:0|0:0,0:0:0:0:
39,113,260324,1,2,0:0:0:0:
119,87,260418,1,4,0:3:0:0:
391,123,260605,2,0,P|315:163|284:233,2,155.999995239258,2|4|0,0:1|0:3|0:0,0:0:0:0:
314,124,261074,1,0,0:0:0:0:
233,91,261168,1,2,0:3:0:0:
391,123,261355,1,8,0:1:0:0:
82,252,261543,6,0,P|131:260|164:280,1,77.999997619629,6|0,0:0|0:0,0:0:0:0:
80,235,261730,1,4,0:3:0:0:
295,151,261824,2,0,P|328:126|356:86,1,77.999997619629,6|0,0:3|0:0,0:0:0:0:
295,176,262011,1,0,0:0:0:0:
130,51,262105,2,0,P|112:89|111:138,1,77.999997619629,8|8,0:1|0:1,0:0:0:0:
342,299,262293,2,0,P|395:231|315:115,1,233.999992858887,8|0,0:1|0:0,0:0:0:0:
121,352,262668,2,0,L|42:372,2,77.999997619629,8|0|2,0:3|0:0|0:3,0:0:0:0:
474,26,263043,6,0,P|492:95|494:188,1,155.999995239258,14|0,0:0|0:0,0:0:0:0:
161,167,263418,1,8,0:1:0:0:
435,146,263605,1,8,0:1:0:0:
289,346,263793,2,0,L|324:183,1,155.999995239258,2|0,0:1|0:0,0:0:0:0:
412,181,264074,1,0,0:0:0:0:
497,168,264168,2,0,P|508:113|449:31,1,155.999995239258,8|2,0:1|0:0,0:0:0:0:
105,282,264543,6,0,P|15:159|123:62,1,311.999990478516,6|0,0:0|0:0,0:0:0:0:
284,207,265105,1,2,0:2:0:0:
130,169,265199,1,2,0:2:0:0:
284,207,265293,2,0,P|337:261|308:341,1,155.999995239258,10|0,0:1|0:0,0:0:0:0:
247,354,265574,1,2,0:0:0:0:
405,129,265668,2,0,P|372:129|320:141,1,77.999997619629,6|2,0:3|0:0,0:0:0:0:
150,61,265855,2,0,P|112:60|72:47,1,77.999997619629,6|0,0:3|0:0,0:0:0:0:
315,23,266043,6,0,P|411:66|448:120,1,155.999995239258,4|0,0:1|0:0,0:0:0:0:
119,241,266418,2,0,L|71:170,2,77.999997619629,8|0|8,0:1|0:0|0:1,0:0:0:0:
276,273,266793,2,0,P|302:213|265:124,1,155.999995239258,2|0,0:1|0:0,0:0:0:0:
197,203,267074,1,0,0:0:0:0:
87,135,267168,2,0,P|61:195|98:284,1,155.999995239258,4|0,0:3|0:0,0:0:0:0:
478,274,267543,6,0,P|470:240|445:191,1,77.999997619629,14|0,0:0|0:0,0:0:0:0:
291,226,267730,1,10,0:0:0:0:
459,188,267824,1,2,0:0:0:0:
486,114,267918,2,0,P|461:51|357:21,1,155.999995239258,0|2,0:0|0:3,0:0:0:0:
221,330,268293,1,2,0:1:0:0:
391,314,268480,1,2,0:0:0:0:
37,40,268668,2,0,L|19:207,1,155.999995239258,12|0,0:3|0:0,0:0:0:0:
453,54,269043,5,12,0:0:0:0:
318,97,269230,1,0,0:3:0:0:
254,63,269324,1,2,0:0:0:0:
335,68,269418,2,0,P|399:110|424:190,1,155.999995239258,10|0,0:3|0:0,0:0:0:0:
351,218,269699,1,0,0:0:0:0:
137,231,269793,1,6,0:3:0:0:
126,327,269886,1,2,0:0:0:0:
379,313,269980,2,0,P|343:263|180:181,1,233.999992858887,10|0,0:1|0:0,0:0:0:0:
136,252,270355,1,10,0:3:0:0:
197,180,270449,1,2,0:0:0:0:
363,81,270543,6,0,L|444:95,1,77.999997619629,6|0,0:0|0:0,0:0:0:0:
232,131,270730,2,0,L|245:45,1,77.999997619629,0|2,0:0|0:0,0:0:0:0:
341,225,270918,2,0,L|264:238,1,77.999997619629,6|2,0:3|0:0,0:0:0:0:
67,170,271105,2,0,L|58:248,1,77.999997619629,6|2,0:3|0:0,0:0:0:0:
352,319,271293,5,2,0:3:0:0:
368,242,271386,1,2,0:0:0:0:
334,171,271480,1,4,0:3:0:0:
264,135,271574,1,2,0:0:0:0:
99,333,271668,6,0,L|173:361,1,77.999997619629,4|4,0:3|0:3,0:0:0:0:
337,314,271855,1,4,0:3:0:0:
184,355,271948,1,4,0:3:0:0:
389,40,272043,6,0,B|416:91|416:91|434:152|434:152|450:211|450:211|455:267|455:267|467:325|467:325|468:384|468:384|475:325|475:325|482:266|482:266|485:158|485:158|483:50|483:50|482:158|482:158|465:317|465:317,1,951.59998293869,4|0,0:3|0:0,0:0:0:0:
123,40,273554,2,0,B|116:99|116:99|95:155|95:155|74:211|74:211|69:270|69:270|44:324|44:324|40:383|40:383|48:324|48:324|30:267|30:267|31:159|31:159|19:51|19:51|20:159|20:159|48:307|48:307,1,952
421,123,275043,6,0,L|407:174|407:174|376:216|376:216|359:266|359:266|335:313|335:313|363:228|363:228|421:121|421:121,2,210.666666666667
300,332,275748,2,0,B|270:267|270:267|246:199|246:199|232:129|232:129|198:35|198:35,1,316,2|0,0:0|0:0,0:0:0:0:
407,164,276543,1,0,0:0:0:0:
185,69,276918,2,0,L|209:144|209:144|249:212|249:212|213:264|213:264|185:354|185:354,2,158,0|0|2,0:0|0:0|0:0,0:0:0:0:
363,37,277668,1,2,0:0:0:0:
126,340,278043,6,0,B|145:263|145:263|191:199|191:199|223:127|223:127|243:51|243:51|268:118|268:118|300:182|300:182|340:242|340:242|369:339|369:339,1,632
39,49,279543,2,0,B|36:108|36:108|43:167|43:167|51:226|51:226|57:285|57:285|63:344|63:344|69:285|69:285|78:226|78:226|77:167|77:167|86:69|86:69|126:203|126:203,1,714
259,76,280376,2,0,L|241:125|241:125|209:167|209:167|186:214|186:214|173:265|173:265|220:340|220:340|259:224|259:224,2,210.666666666667
442,333,281043,6,0,B|430:255|430:255|432:176|432:176|409:100|409:100|389:24|389:24|368:100|368:100|339:173|339:173|318:249|318:249|289:323|289:323|253:385|253:385|239:315|239:315|198:256|198:256|164:161|164:161,1,948,2|0,0:0|0:0,0:0:0:0:
374,56,282593,2,0,B|373:135|373:135|398:210|398:210|416:287|416:287|447:360|447:360|422:296|422:296|414:228|414:228|379:169|379:169|373:60|373:60,1,632
176,331,283655,2,0,L|193:379|193:379|215:333|215:333|223:283|223:283|240:200|240:200,1,238
386,340,284043,6,0,B|364:264|364:264|331:192|331:192|303:118|303:118|269:47|269:47|233:108|233:108|211:176|211:176|179:240|179:240|143:335|143:335,1,632,2|0,0:0|0:0,0:0:0:0:
356,57,285543,2,0,B|350:102|350:102|342:146|342:146|327:189|327:189|300:260|300:260,1,210.666666666667
209,143,286043,1,0,0:0:0:0:
337,141,286293,2,0,B|357:210|357:210|379:278|379:278|408:343|408:343|424:242|424:242,1,316,2|0,0:0|0:0,0:0:0:0:
146,347,287063,6,0,B|128:270|128:270|104:195|104:195|94:117|94:117|83:39|83:39|76:110|76:110|89:180|89:180|117:246|117:246|149:342|149:342,1,632
425,142,288572,2,0,B|419:187|419:187|398:227|398:227|389:271|389:271|362:342|362:342,1,210.666666666667,2|0,0:0|0:0,0:0:0:0:
263,65,289066,1,0,0:0:0:0:
48,267,289313,2,0,B|59:311|59:311|82:350|82:350|76:306|76:306|111:239|111:239,1,210.666666666667,2|0,0:0|0:0,0:0:0:0:
236,185,289799,1,0,0:0:0:0:
34,361,290043,6,0,B|50:284|50:284|46:205|46:205|79:133|79:133|97:56|97:56|115:125|115:125|141:191|141:191|172:255|172:255|213:348|213:348,1,632,2|0,0:0|0:0,0:0:0:0:
69,157,291056,1,0,0:0:0:0:
225,128,291310,1,0,0:0:0:0:
406,306,291563,2,0,B|438:378|438:378|449:300|449:300|477:226|477:226|480:147|480:147|475:84|475:84|467:179|467:179,1,474
392,98,292268,6,0,B|362:171|362:171|335:245|335:245|293:312|293:312|263:385|263:385|283:316|283:316|321:255|321:255|360:195|360:195|389:98|389:98,1,632
156,358,293793,2,0,L|150:287|150:287|146:216|146:216|130:146|130:146|133:44|133:44,1,316
355,244,294543,2,0,B|321:315|321:315|301:239|301:239|283:162|283:162|243:94|243:94|222:26|222:26|186:88|186:88|168:157|168:157|117:244|117:244,1,632,2|0,0:0|0:0,0:0:0:0:
370,47,296063,6,0,B|334:117|334:117|317:194|317:194|331:272|331:272|370:341|370:341|400:276|400:276|419:207|419:207|461:149|461:149|488:51|488:51,1,632
181,356,297613,2,0,B|175:277|175:277|189:199|189:199|195:120|195:120|221:45|221:45|238:114|238:114|261:181|261:181|290:245|290:245|335:339|335:339,1,632
120,124,298672,1,0,0:0:0:0:
383,183,299043,1,0,0:0:0:0:
104,38,299427,6,0,B|116:116|116:116|148:188|148:188|167:265|167:265|196:339|196:339|162:276|162:276|137:209|137:209|115:141|115:141|104:40|104:40,2,316
356,205,300613,2,0,B|385:278|385:278|420:349|420:349|378:282|378:282|358:206|358:206|338:130|338:130|304:59|304:59|329:134|329:134|358:207|358:207|381:274|381:274|408:340|408:340|389:272|389:272|356:175|356:175,2,474,2|0|0,0:0|0:0|0:0,0:0:0:0:
98,324,302043,6,0,B|137:255|137:255|154:178|154:178|173:101|173:101|166:22|166:22|158:93|158:93|152:164|152:164|136:234|136:234|92:326|92:326,1,632
363,67,303583,2,0,L|323:135|323:135|291:207|291:207|255:277|255:277|234:353|234:353|200:299|200:299|169:210|169:210,1,474
77,32,304313,1,2,0:0:0:0:
344,93,304678,1,2,0:0:0:0:
59,347,305043,6,0,B|74:270|74:270|94:193|94:193|98:114|98:114|124:39|124:39|153:113|153:113|177:188|177:188|203:263|203:263|228:338|228:338|259:273|259:273|280:205|280:205|308:139|308:139|353:48|353:48,1,948
170,303,306571,2,0,B|153:380|153:380|116:310|116:310|102:232|102:232|92:154|92:154|81:92|81:92|96:185|96:185,1,474,2|0,0:0|0:0,0:0:0:0:
491,101,307668,1,0,0:0:0:0:
143,345,308073,6,0,B|179:275|179:275|199:198|199:198|224:123|224:123|255:50|255:50|283:116|283:116|320:177|320:177|334:247|334:247|382:337|382:337,1,632
210,202,309198,1,0,0:0:0:0:
365,40,309573,2,0,B|369:111|369:111|379:182|379:182|367:252|367:252|354:353|354:353,1,316
147,344,310313,2,0,B|132:274|132:274|133:203|133:203|136:132|136:132|158:32|158:32,1,316
388,203,311043,6,0,L|355:275|355:275|333:351|333:351|290:285|290:285|258:213|258:213|222:151|222:151|200:83|200:83|164:21|164:21|129:116|129:116,1,632
429,128,312553,1,0,0:0:0:0:
151,348,313322,6,0,B|173:272|173:272|200:198|200:198|217:121|217:121|246:47|246:47|271:105|271:105|305:193|305:193,1,474
173,269,314043,2,0,B|151:337|151:337|128:270|128:270|102:204|102:204|100:102|100:102,1,316,2|0,0:0|0:0,0:0:0:0:
304,106,314793,1,0,0:0:0:0:
198,125,315187,1,0,0:0:0:0:
418,164,315553,1,0,0:0:0:0:
112,236,315925,1,0,0:0:0:0:
471,342,316298,6,0,B|440:269|440:269|422:192|422:192|409:114|409:114|376:42|376:42|362:104|362:104|315:186|315:186,1,474
186,296,317043,2,0,B|164:372|164:372|127:302|127:302|104:226|104:226|109:147|109:147|123:77|123:77|129:6|129:6|152:74|152:74|189:169|189:169,1,632,2|0,0:0|0:0,0:0:0:0:
469,111,318563,1,0,0:0:0:0:
112,52,319396,6,0,B|141:126|141:126|165:201|165:201|203:270|203:270|235:342|235:342|253:274|253:274|290:214|290:214|311:147|311:147|364:57|364:57,1,632
150,325,320803,2,0,B|136:255|136:255|109:189|109:189|134:122|134:122|149:21|149:21,1,316
355,223,321553,2,0,B|381:289|381:289|385:360|385:360|382:289|382:289|356:191|356:191,1,316
118,199,322303,2,0,B|106:269|106:269|83:337|83:337|70:267|70:267|58:166|58:166,1,316,2|0,0:0|0:0,0:0:0:0:
293,39,323053,6,0,B|312:116|312:116|341:190|341:190|341:269|341:269|346:348|346:348|323:273|323:273|313:195|313:195|281:123|281:123|251:50|251:50|211:118|211:118|195:195|195:195|171:270|171:270|160:348|160:348|153:277|153:277|164:206|164:206|182:137|182:137|220:42|220:42,1,1264,6|0,0:0|0:0,0:0:0:0:
459,322,326094,5,0,0:0:0:0:
430,293,326190,1,0,0:0:0:0:
381,280,326285,1,2,0:0:0:0:
55,319,327257,1,0,0:0:0:0:
261,199,328184,1,2,0:0:0:0:
455,320,329151,1,0,0:0:0:0:
89,44,330222,1,2,0:0:0:0:
197,89,330953,5,0,0:0:0:0:
239,201,331555,1,0,0:0:0:0:
324,291,332246,1,0,0:0:0:0:
490,332,333015,1,0,0:0:0:0:
253,357,333591,1,0,0:0:0:0:
20,323,334224,5,0,0:0:0:0:
38,299,334277,1,0,0:0:0:0:
79,284,334325,1,2,0:0:0:0:
347,240,335234,1,0,0:0:0:0:
52,137,336276,1,2,0:0:0:0:
259,102,337461,1,0,0:0:0:0:
460,137,338686,1,0,0:0:0:0:
169,349,339475,5,0,0:0:0:0:
226,256,339958,1,0,0:0:0:0:
414,180,340441,1,0,0:0:0:0:
223,138,340949,1,0,0:0:0:0:
169,35,341600,1,0,0:0:0:0:
355,65,342410,1,0,0:0:0:0:
148,331,343382,5,0,0:0:0:0:
217,320,343521,1,0,0:0:0:0:
471,289,344097,1,0,0:0:0:0:
304,255,344597,1,0,0:0:0:0:
35,221,345552,1,0,0:0:0:0:
413,136,346507,1,0,0:0:0:0:
90,64,347445,5,0,0:0:0:0:
298,106,347945,1,0,0:0:0:0:
38,272,348445,1,0,0:0:0:0:
398,328,349577,1,0,0:0:0:0:
156,349,350890,1,0,0:0:0:0:
438,174,352432,5,0,0:0:0:0:
449,126,352527,5,2,0:0:0:0:
