osu file format v14

[General]
AudioFilename: audio.mp3
AudioLeadIn: 0
PreviewTime: 90504
Countdown: 0
SampleSet: Soft
StackLeniency: 0.7
Mode: 0
LetterboxInBreaks: 0
WidescreenStoryboard: 1

[Editor]
Bookmarks: 413,7334,15428,30443,60473,90504,105519,120534,135550,150565,180595,195611,210626,225641,238545,240656,249806,252622,255672,281948,285702
DistanceSpacing: 0.1
BeatDivisor: 4
GridSize: 16
TimelineZoom: 2.415044

[Metadata]
Title:Song of the Ancients / Fate (ver.1.22474487139...)
TitleUnicode:イニシエノウタ / 運命 (ver.1.22474487139...)
Artist:Okabe Keiichi
ArtistUnicode:岡部啓一
Creator:Miy
Version:50726f6a6563742047657374616c74
Source:NieR Replicant ver.1.22474487139...
Tags:SQUARE ENIX emi evans devola popola platinum games platinumgames デボル ポポル ニーア gestalt ver ver. 1.22474487139... video game vgm ost soundtrack instrumental
BeatmapID:3450937
BeatmapSetID:1670541

[Difficulty]
HPDrainRate:6
CircleSize:4.2
OverallDifficulty:8.4
ApproachRate:9.3
SliderMultiplier:2.6
SliderTickRate:1

[Events]
//Background and Video events
0,0,"bg.jpg",0,0
//Break Periods
//Storyboard Layer 0 (Background)
//Storyboard Layer 1 (Fail)
//Storyboard Layer 2 (Pass)
//Storyboard Layer 3 (Foreground)
//Storyboard Layer 4 (Overlay)
//Storyboard Sound Samples

[TimingPoints]
413,469.226558223195,4,2,1,60,1,0
413,-83.3333333333333,4,2,1,60,0,0
882,-100,4,2,1,60,0,0
2055,-100,4,2,1,60,0,0
2289,-83.3333333333333,4,2,1,60,0,0
2759,-100,4,2,1,60,0,0
4166,-83.3333333333333,4,2,1,60,0,0
4636,-100,4,2,1,60,0,0
6043,-83.3333333333333,4,2,1,60,0,0
6512,-100,4,2,1,60,0,0
7920,-83.3333333333333,4,2,1,60,0,0
8389,-100,4,2,1,60,0,0
9797,-83.3333333333333,4,2,1,60,0,0
10266,-76.9230769230769,4,2,1,60,0,0
11674,-83.3333333333333,4,2,1,60,0,0
12143,-100,4,2,1,60,0,0
13551,-83.3333333333333,4,2,1,60,0,0
14020,-100,4,2,1,60,0,0
14255,-83.3333333333333,4,2,1,60,0,0
14489,-100,4,2,1,60,0,0
14724,-90.9090909090909,4,2,1,60,0,0
14959,-83.3333333333333,4,2,1,60,0,0
15193,-76.9230769230769,4,2,1,60,0,0
15428,-76.9230769230769,4,2,1,65,0,0
16366,-90.9090909090909,4,2,1,65,0,0
17305,-76.9230769230769,4,2,1,65,0,0
18243,-90.9090909090909,4,2,1,65,0,0
19182,-76.9230769230769,4,2,1,65,0,0
20120,-90.9090909090909,4,2,1,65,0,0
21058,-76.9230769230769,4,2,1,65,0,0
21997,-90.9090909090909,4,2,1,55,0,0
22232,-83.3333333333333,4,2,1,60,0,0
22466,-76.9230769230769,4,2,1,65,0,0
22701,-71.4285714285714,4,2,1,70,0,0
22935,-76.9230769230769,4,2,1,65,0,0
23874,-90.9090909090909,4,2,1,65,0,0
24812,-76.9230769230769,4,2,1,65,0,0
25282,-83.3333333333333,4,2,1,65,0,0
25751,-76.9230769230769,4,2,1,65,0,0
26220,-71.4285714285714,4,2,1,65,0,0
26689,-76.9230769230769,4,2,1,65,0,0
27628,-90.9090909090909,4,2,1,65,0,0
28566,-76.9230769230769,4,2,1,70,0,0
29035,-90.9090909090909,4,2,1,60,0,0
29270,-76.9230769230769,4,2,1,70,0,0
29505,-83.3333333333333,4,2,1,60,0,0
29739,-90.9090909090909,4,2,1,55,0,0
29974,-83.3333333333333,4,2,1,60,0,0
30208,-71.4285714285714,4,2,1,65,0,0
30443,-83.3333333333333,4,2,1,70,0,0
30912,-83.3333333333333,4,2,1,65,0,0
31381,-76.9230769230769,4,2,1,55,0,0
32320,-83.3333333333333,4,2,1,55,0,0
33258,-90.9090909090909,4,2,1,55,0,0
34197,-83.3333333333333,4,2,1,55,0,0
36074,-90.9090909090909,4,2,1,55,0,0
36308,-83.3333333333333,4,2,1,55,0,0
36543,-90.9090909090909,4,2,1,55,0,0
36778,-83.3333333333333,4,2,1,55,0,0
37012,-76.9230769230769,4,2,1,55,0,0
37247,-83.3333333333333,4,2,1,60,0,0
37481,-76.9230769230769,4,2,1,65,0,0
37716,-83.3333333333333,4,2,1,70,0,0
37951,-83.3333333333333,4,2,1,65,0,0
38420,-83.3333333333333,4,2,1,60,0,0
38889,-76.9230769230769,4,2,1,55,0,0
39828,-83.3333333333333,4,2,1,55,0,0
40531,-90.9090909090909,4,2,1,55,0,0
40766,-83.3333333333333,4,2,1,55,0,0
41704,-76.9230769230769,4,2,1,55,0,0
43581,-83.3333333333333,4,2,1,55,0,0
44520,-90.9090909090909,4,2,1,55,0,0
44754,-83.3333333333333,4,2,1,60,0,0
44989,-76.9230769230769,4,2,1,65,0,0
45224,-71.4285714285714,4,2,1,70,0,0
45458,-90.9090909090909,4,2,1,70,0,0
45927,-90.9090909090909,4,2,1,65,0,0
46162,-90.9090909090909,4,2,1,60,0,0
46397,-83.3333333333333,4,2,1,55,0,0
48039,-76.9230769230769,4,2,1,60,0,0
49212,-83.3333333333333,4,2,1,60,0,0
50151,-83.3333333333333,4,2,1,55,0,0
51089,-83.3333333333333,4,2,1,60,0,0
52027,-83.3333333333333,4,2,1,55,0,0
52262,-83.3333333333333,4,2,1,60,0,0
52497,-83.3333333333333,4,2,1,65,0,0
52731,-83.3333333333333,4,2,1,70,0,0
52966,-90.9090909090909,4,2,1,70,0,0
53435,-90.9090909090909,4,2,1,65,0,0
53670,-90.9090909090909,4,2,1,60,0,0
53904,-83.3333333333333,4,2,1,55,0,0
56720,-83.3333333333333,4,2,1,60,0,0
58597,-76.9230769230769,4,2,1,65,0,0
60004,-76.9230769230769,4,2,1,70,0,0
60473,-76.9230769230769,4,2,1,60,0,0
61412,-90.9090909090909,4,2,1,60,0,0
62350,-76.9230769230769,4,2,1,60,0,0
64227,-90.9090909090909,4,2,1,60,0,0
65166,-76.9230769230769,4,2,1,60,0,0
66104,-90.9090909090909,4,2,1,60,0,0
67043,-76.9230769230769,4,2,1,55,0,0
67277,-71.4285714285714,4,2,1,60,0,0
67512,-66.6666666666667,4,2,1,65,0,0
67747,-62.5,4,2,1,70,0,0
67981,-76.9230769230769,4,2,1,60,0,0
68920,-90.9090909090909,4,2,1,60,0,0
69858,-76.9230769230769,4,2,1,60,0,0
71735,-71.4285714285714,4,2,1,60,0,0
73612,-76.9230769230769,4,2,1,60,0,0
74550,-66.6666666666667,4,2,1,60,0,0
74785,-58.8235294117647,4,2,1,75,0,0
75020,-71.4285714285714,4,2,1,65,0,0
75254,-71.4285714285714,4,2,1,75,0,0
75489,-66.6666666666667,4,2,1,75,0,0
76427,-71.4285714285714,4,2,1,60,0,0
77366,-83.3333333333333,4,2,1,60,0,0
78069,-71.4285714285714,4,2,1,60,0,0
79243,-76.9230769230769,4,2,1,60,0,0
80181,-83.3333333333333,4,2,1,60,0,0
82058,-90.9090909090909,4,2,1,60,0,0
82527,-83.3333333333333,4,2,1,60,0,0
82996,-76.9230769230769,4,2,1,60,0,0
83935,-83.3333333333333,4,2,1,60,0,0
84873,-83.3333333333333,4,2,1,60,0,0
86750,-90.9090909090909,4,2,1,60,0,0
88627,-83.3333333333333,4,2,1,65,0,0
88979,-71.4285714285714,4,2,1,65,0,0
89331,-62.5,4,2,1,65,0,0
89566,-83.3333333333333,4,2,1,70,0,0
89917,-71.4285714285714,4,2,1,70,0,0
90269,-62.5,4,2,1,70,0,0
90504,-66.6666666666667,4,2,1,65,0,1
91912,-66.6666666666667,4,2,1,65,0,1
92381,-71.4285714285714,4,2,1,65,0,1
93319,-76.9230769230769,4,2,1,65,0,1
93789,-83.3333333333333,4,2,1,65,0,1
94258,-76.9230769230769,4,2,1,60,0,1
96135,-71.4285714285714,4,2,1,65,0,1
98012,-66.6666666666667,4,2,1,70,0,1
98950,-76.9230769230769,4,2,1,65,0,1
99889,-66.6666666666667,4,2,1,70,0,1
100827,-76.9230769230769,4,2,1,65,0,1
101765,-71.4285714285714,4,2,1,65,0,1
103642,-83.3333333333333,4,2,1,65,0,1
104581,-83.3333333333333,4,2,1,70,0,1
105519,-76.9230769230769,4,2,1,70,0,1
106927,-71.4285714285714,4,2,1,65,0,1
107396,-76.9230769230769,4,2,1,65,0,1
109273,-83.3333333333333,4,2,1,60,0,1
110212,-71.4285714285714,4,2,1,60,0,1
111150,-76.9230769230769,4,2,1,65,0,1
112088,-71.4285714285714,4,2,1,65,0,1
113027,-66.6666666666667,4,2,1,70,0,1
113965,-76.9230769230769,4,2,1,65,0,1
114904,-71.4285714285714,4,2,1,65,0,1
115842,-83.3333333333333,4,2,1,60,0,1
118658,-90.9090909090909,4,2,1,65,0,1
119596,-83.3333333333333,4,2,1,70,0,1
120065,-100,4,2,1,60,0,1
120534,-66.6666666666667,4,2,1,70,0,1
121942,-71.4285714285714,4,2,1,65,0,1
122411,-76.9230769230769,4,2,1,65,0,1
124288,-83.3333333333333,4,2,1,60,0,1
125227,-76.9230769230769,4,2,1,60,0,1
125579,-66.6666666666667,4,2,1,60,0,1
126165,-71.4285714285714,4,2,1,65,0,1
128042,-66.6666666666667,4,2,1,70,0,1
128981,-76.9230769230769,4,2,1,65,0,1
129919,-66.6666666666667,4,2,1,70,0,1
130857,-76.9230769230769,4,2,1,65,0,1
131796,-71.4285714285714,4,2,1,55,0,1
132265,-71.4285714285714,4,2,1,60,0,1
132734,-62.5,4,2,1,65,0,1
133204,-71.4285714285714,4,2,1,70,0,1
133673,-58.8235294117647,4,2,1,75,0,1
134611,-58.8235294117647,4,2,1,75,0,1
134690,-58.8235294117647,4,2,1,10,0,1
134768,-62.5,4,2,1,70,0,1
134846,-62.5,4,2,1,10,0,1
134924,-66.6666666666667,4,2,1,65,0,1
135002,-66.6666666666667,4,2,1,10,0,1
135081,-71.4285714285714,4,2,1,60,0,1
135159,-71.4285714285714,4,2,1,10,0,1
135237,-76.9230769230769,4,2,1,55,0,1
135315,-76.9230769230769,4,2,1,10,0,1
135393,-83.3333333333333,4,2,1,60,0,1
135472,-83.3333333333333,4,2,1,10,0,1
135550,-71.4285714285714,4,2,1,70,0,1
136957,-66.6666666666667,4,2,1,65,0,1
137427,-71.4285714285714,4,2,1,65,0,1
139304,-76.9230769230769,4,2,1,60,0,1
140242,-71.4285714285714,4,2,1,60,0,1
140594,-83.3333333333333,4,2,1,60,0,1
141180,-66.6666666666667,4,2,1,65,0,1
143057,-62.5,4,2,1,70,0,1
143996,-71.4285714285714,4,2,1,65,0,1
144934,-66.6666666666667,4,2,1,60,0,1
145873,-76.9230769230769,4,2,1,55,0,1
146811,-83.3333333333333,4,2,1,60,0,1
148219,-83.3333333333333,4,2,1,55,0,1
148688,-83.3333333333333,4,2,1,55,0,1
149157,-71.4285714285714,4,2,1,60,0,1
149627,-66.6666666666667,4,2,1,65,0,1
150096,-71.4285714285714,4,2,1,70,0,1
150565,-83.3333333333333,4,2,1,75,0,0
150800,-83.3333333333333,4,2,1,70,0,0
151034,-83.3333333333333,4,2,1,65,0,0
151269,-83.3333333333333,4,2,1,60,0,0
151503,-100,4,2,1,60,0,0
153380,-100,4,2,1,60,0,0
158073,-100,4,2,1,60,0,0
159950,-100,4,2,1,60,0,0
161357,-100,4,2,1,60,0,0
161826,-100,4,2,1,60,0,0
165580,-100,4,2,1,60,0,0
166519,-100,4,2,1,60,0,0
169334,-100,4,2,1,60,0,0
170273,-100,4,2,1,60,0,0
173088,-100,4,2,1,60,0,0
175903,-100,4,2,1,60,0,0
176842,-90.9090909090909,4,2,1,60,0,0
178719,-125,4,2,1,65,0,0
179188,-125,4,2,1,10,0,0
179422,-125,4,2,1,60,0,0
179657,-100,4,2,1,60,0,0
179892,-90.9090909090909,4,2,1,55,0,0
180126,-83.3333333333333,4,2,1,65,0,0
180361,-76.9230769230769,4,2,1,70,0,0
180595,-166.666666666667,4,2,1,70,0,0
181065,-166.666666666667,4,2,1,10,0,0
181534,-166.666666666667,4,2,1,60,0,0
182003,-111.111111111111,4,2,1,60,0,0
182355,-111.111111111111,4,2,1,10,0,0
182472,-125,4,2,1,65,0,0
183176,-111.111111111111,4,2,1,60,0,0
183411,-125,4,2,1,60,0,0
183763,-142.857142857143,4,2,1,55,0,0
184115,-166.666666666667,4,2,1,50,0,0
184349,-200,4,2,1,50,0,0
185053,-200,4,2,1,50,0,0
185288,-142.857142857143,4,2,1,55,0,0
185757,-142.857142857143,4,2,1,10,0,0
185992,-142.857142857143,4,2,1,55,0,0
186226,-125,4,2,1,60,0,0
186695,-125,4,2,1,10,0,0
186930,-125,4,2,1,60,0,0
187165,-100,4,2,1,60,0,0
188103,-90.9090909090909,4,2,1,65,0,0
189042,-111.111111111111,4,2,1,60,0,0
189980,-90.9090909090908,4,2,1,65,0,0
190918,-111.111111111111,4,2,1,60,0,0
191857,-100,4,2,1,65,0,0
191974,-100,4,2,1,10,0,0
192092,-111.111111111111,4,2,1,62,0,0
192209,-111.111111111111,4,2,1,10,0,0
192326,-100,4,2,1,55,0,0
192443,-100,4,2,1,10,0,0
192561,-125,4,2,1,52,0,0
192678,-125,4,2,1,10,0,0
192795,-100,4,2,1,50,0,0
192913,-100,4,2,1,10,0,0
193030,-142.857142857143,4,2,1,47,0,0
193147,-142.857142857143,4,2,1,10,0,0
193265,-100,4,2,1,45,0,0
193382,-100,4,2,1,10,0,0
193499,-166.666666666667,4,2,1,40,0,0
193617,-166.666666666667,4,2,1,10,0,0
193734,-100,4,2,1,55,0,0
193968,-100,4,2,1,10,0,0
194086,-90.9090909090909,4,2,1,60,0,0
194320,-90.9090909090909,4,2,1,10,0,0
194438,-83.3333333333333,4,2,1,65,0,0
194672,-125,4,2,1,60,0,0
194790,-111.111111111111,4,2,1,55,0,0
194907,-100,4,2,1,50,0,0
195024,-90.9090909090909,4,2,1,45,0,0
195142,-111.111111111111,4,2,1,65,0,0
195259,-100,4,2,1,65,0,0
195376,-90.9090909090909,4,2,1,70,0,0
195493,-83.3333333333333,4,2,1,70,0,0
195611,-90.9090909090909,4,2,1,65,0,0
197018,-83.3333333333333,4,2,1,65,0,0
197488,-90.9090909090909,4,2,1,65,0,0
198191,-83.3333333333333,4,2,1,65,0,0
198426,-90.9090909090909,4,2,1,65,0,0
198895,-111.111111111111,4,2,1,65,0,0
199365,-100,4,2,1,60,0,0
200303,-90.9090909090909,4,2,1,60,0,0
201241,-83.3333333333333,4,2,1,60,0,0
201476,-83.3333333333333,4,2,1,65,0,0
202180,-83.3333333333333,4,2,1,65,0,0
202766,-83.3333333333333,4,2,1,70,0,0
203118,-90.9090909090909,4,2,1,70,0,0
204057,-90.9090909090909,4,2,1,60,0,0
204995,-83.3333333333333,4,2,1,65,0,0
205934,-100,4,2,1,60,0,0
206872,-100,4,2,1,60,0,0
207341,-100,4,2,1,65,0,0
207811,-100,4,2,1,60,0,0
208280,-100,4,2,1,55,0,0
208749,-90.9090909090909,4,2,1,50,0,0
209218,-90.9090909090909,4,2,1,55,0,0
209688,-100,4,2,1,60,0,0
210157,-100,4,2,1,10,0,0
210626,-83.3333333333333,4,2,1,70,0,0
211095,-100,4,2,1,60,0,0
212503,-83.3333333333333,4,2,1,70,0,0
212972,-100,4,2,1,60,0,0
214380,-83.3333333333333,4,2,1,70,0,0
214849,-100,4,2,1,60,0,0
216257,-83.3333333333333,4,2,1,70,0,0
216726,-100,4,2,1,60,0,0
218134,-83.3333333333333,4,2,1,70,0,0
218603,-100,4,2,1,60,0,0
220011,-83.3333333333333,4,2,1,70,0,0
220480,-100,4,2,1,60,0,0
221887,-83.3333333333333,4,2,1,70,0,0
222357,-100,4,2,1,60,0,0
223764,-83.3333333333333,4,2,1,70,0,0
224468,-100,4,2,1,60,0,0
224703,-83.3333333333333,4,2,1,60,0,0
224937,-100,4,2,1,60,0,0
225172,-76.9230769230769,4,2,1,65,0,0
225407,-100,4,2,1,65,0,0
225641,-71.4285714285714,4,2,1,60,0,0
225759,-71.4285714285714,4,2,1,10,0,0
225876,-100,4,2,1,60,0,0
225993,-100,4,2,1,10,0,0
226110,-71.4285714285714,4,2,1,55,0,0
226228,-71.4285714285714,4,2,1,10,0,0
226345,-100,4,2,1,55,0,0
226462,-100,4,2,1,10,0,0
226580,-71.4285714285714,4,2,1,65,0,0
226697,-71.4285714285714,4,2,1,10,0,0
226814,-66.6666666666667,4,2,1,70,0,0
227049,-71.4285714285714,4,2,1,70,0,0
227166,-71.4285714285714,4,2,1,10,0,0
227284,-76.9230769230769,4,2,1,65,0,0
227401,-76.9230769230769,4,2,1,10,0,0
227518,-90.9090909090909,4,2,1,60,0,0
227635,-90.9090909090909,4,2,1,10,0,0
227753,-76.9230769230769,4,2,1,60,0,0
227870,-76.9230769230769,4,2,1,10,0,0
227987,-90.9090909090909,4,2,1,65,0,0
228105,-90.9090909090909,4,2,1,10,0,0
228222,-76.9230769230769,4,2,1,65,0,0
228339,-76.9230769230769,4,2,1,10,0,0
228457,-71.4285714285714,4,2,1,70,0,0
228691,-66.6666666666667,4,2,1,70,0,0
228926,-71.4285714285714,4,2,1,70,0,0
229043,-71.4285714285714,4,2,1,10,0,0
229160,-76.9230769230769,4,2,1,60,0,0
229278,-76.9230769230769,4,2,1,10,0,0
229395,-100,4,2,1,55,0,0
229512,-100,4,2,1,10,0,0
229630,-83.3333333333333,4,2,1,55,0,0
229747,-83.3333333333333,4,2,1,10,0,0
229864,-100,4,2,1,60,0,0
229982,-100,4,2,1,10,0,0
230099,-83.3333333333333,4,2,1,60,0,0
230216,-83.3333333333333,4,2,1,10,0,0
230334,-76.9230769230769,4,2,1,70,0,0
230451,-76.9230769230769,4,2,1,10,0,0
230568,-71.4285714285714,4,2,1,70,0,0
230803,-76.9230769230769,4,2,1,70,0,0
230920,-76.9230769230769,4,2,1,10,0,0
231037,-83.3333333333333,4,2,1,60,0,0
231155,-83.3333333333333,4,2,1,10,0,0
231272,-90.9090909090909,4,2,1,60,0,0
231389,-90.9090909090909,4,2,1,10,0,0
231507,-76.9230769230769,4,2,1,60,0,0
231624,-76.9230769230769,4,2,1,10,0,0
231741,-90.9090909090909,4,2,1,65,0,0
231858,-90.9090909090909,4,2,1,10,0,0
231976,-76.9230769230769,4,2,1,65,0,0
232093,-76.9230769230769,4,2,1,10,0,0
232210,-71.4285714285714,4,2,1,70,0,0
232445,-66.6666666666667,4,2,1,70,0,0
232680,-71.4285714285714,4,2,1,70,0,0
232797,-71.4285714285714,4,2,1,10,0,0
232914,-76.9230769230769,4,2,1,60,0,0
233032,-76.9230769230769,4,2,1,10,0,0
233149,-100,4,2,1,55,0,0
233266,-100,4,2,1,10,0,0
233383,-83.3333333333333,4,2,1,55,0,0
233501,-83.3333333333333,4,2,1,10,0,0
233618,-100,4,2,1,60,0,0
233735,-100,4,2,1,10,0,0
233852,-83.3333333333333,4,2,1,60,0,0
233970,-83.3333333333333,4,2,1,10,0,0
234087,-100,4,2,1,70,0,0
234205,-100,4,2,1,10,0,0
234322,-83.3333333333333,4,2,1,70,0,0
234557,-76.9230769230769,4,2,1,70,0,0
234674,-76.9230769230769,4,2,1,10,0,0
234791,-83.3333333333333,4,2,1,60,0,0
234908,-83.3333333333333,4,2,1,10,0,0
235026,-90.9090909090909,4,2,1,60,0,0
235143,-90.9090909090909,4,2,1,10,0,0
235260,-76.9230769230769,4,2,1,60,0,0
235378,-76.9230769230769,4,2,1,10,0,0
235495,-90.9090909090909,4,2,1,65,0,0
235612,-90.9090909090909,4,2,1,10,0,0
235730,-76.9230769230769,4,2,1,65,0,0
235847,-76.9230769230769,4,2,1,10,0,0
235964,-90.9090909090909,4,2,1,70,0,0
236199,-71.4285714285714,4,2,1,70,0,0
236433,-76.9230769230769,4,2,1,70,0,0
236668,-83.3333333333333,4,2,1,60,0,0
236785,-83.3333333333333,4,2,1,10,0,0
236903,-100,4,2,1,55,0,0
237020,-100,4,2,1,10,0,0
237137,-83.3333333333333,4,2,1,55,0,0
237255,-83.3333333333333,4,2,1,10,0,0
237372,-100,4,2,1,60,0,0
237489,-100,4,2,1,10,0,0
237607,-83.3333333333333,4,2,1,60,0,0
237724,-83.3333333333333,4,2,1,10,0,0
237841,-100,4,2,1,70,0,0
237958,-100,4,2,1,10,0,0
238076,-83.3333333333333,4,2,1,70,0,0
238310,-76.9230769230769,4,2,1,70,0,0
238428,-76.9230769230769,4,2,1,10,0,0
238545,-83.3333333333333,4,2,1,60,0,0
238662,-83.3333333333333,4,2,1,10,0,0
238780,-90.9090909090909,4,2,1,60,0,0
238897,-90.9090909090909,4,2,1,10,0,0
239014,-76.9230769230769,4,2,1,60,0,0
239132,-76.9230769230769,4,2,1,10,0,0
239249,-90.9090909090909,4,2,1,65,0,0
239366,-90.9090909090909,4,2,1,10,0,0
239483,-76.9230769230769,4,2,1,65,0,0
239601,-76.9230769230769,4,2,1,10,0,0
239718,-90.9090909090909,4,2,1,60,0,0
239835,-90.9090909090909,4,2,1,10,0,0
239953,-76.9230769230769,4,2,1,70,0,0
240070,-76.9230769230769,4,2,1,10,0,0
240187,-66.6666666666667,4,2,1,80,0,0
240305,-66.6666666666667,4,2,1,10,0,0
240422,-58.8235294117647,4,2,1,90,0,0
240539,-58.8235294117647,4,2,1,10,0,0
240656,-71.4285714285714,4,2,1,70,0,0
240891,-71.4285714285714,4,2,1,60,0,0
243472,-66.6666666666667,4,2,1,60,0,0
244410,-71.4285714285714,4,2,1,60,0,0
247226,-76.9230769230769,4,2,1,50,0,0
247460,-71.4285714285714,4,2,1,60,0,0
247695,-66.6666666666667,4,2,1,70,0,0
247930,-71.4285714285714,4,2,1,80,0,0
248164,-76.9230769230769,4,2,1,70,0,0
248399,-76.9230769230769,4,2,1,60,0,0
250510,-71.4285714285714,4,2,1,65,0,0
250979,-66.6666666666667,4,2,1,70,0,0
251449,-62.5,4,2,1,70,0,0
251918,-66.6666666666667,4,2,1,70,0,0
252387,-66.6666666666667,4,2,1,60,0,0
253795,-76.9230769230769,4,2,1,70,0,0
254264,-90.9090909090909,4,2,1,70,0,0
254499,-76.9230769230769,4,2,1,70,0,0
254733,-90.9090909090909,4,2,1,65,0,0
254968,-71.4285714285714,4,2,1,60,0,0
255203,-66.6666666666667,4,2,1,70,0,0
255437,-62.5,4,2,1,80,0,0
255672,-76.9230769230769,4,2,1,70,0,0
256024,-76.9230769230769,4,2,1,60,0,0
256141,-76.9230769230769,4,2,1,55,0,0
256610,-71.4285714285714,4,2,1,55,0,0
257549,-76.9230769230769,4,2,1,55,0,0
259426,-83.3333333333333,4,2,1,55,0,0
262241,-76.9230769230769,4,2,1,55,0,0
262476,-83.3333333333333,4,2,1,60,0,0
262710,-76.9230769230769,4,2,1,65,0,0
262945,-83.3333333333333,4,2,1,70,0,0
263179,-76.9230769230769,4,2,1,70,0,0
263414,-76.9230769230769,4,2,1,60,0,0
263649,-76.9230769230769,4,2,1,55,0,0
264118,-71.4285714285714,4,2,1,55,0,0
265056,-76.9230769230769,4,2,1,55,0,0
266933,-71.4285714285714,4,2,1,60,0,0
268810,-71.4285714285714,4,2,1,50,0,0
269749,-71.4285714285714,4,2,1,45,0,0
270687,-90.9090909090909,4,2,1,40,0,0
271625,-83.3333333333333,4,2,1,40,0,0
272564,-83.3333333333333,4,2,1,35,0,0
273268,-76.9230769230769,4,2,1,35,0,0
274441,-83.3333333333333,4,2,1,30,0,0
275379,-90.9090909090909,4,2,1,25,0,0
276318,-90.9090909090909,4,2,1,20,0,0
278195,-166.666666666667,4,2,1,15,0,0
281010,-166.666666666667,4,2,1,10,0,0
281362,-166.666666666667,4,2,1,7,0,0
281714,-166.666666666667,4,2,1,5,0,0
281948,-166.666666666667,4,1,1,5,0,0

[Colours]
Combo1 : 132,0,66
Combo2 : 166,0,0

[HitObjects]
40,69,413,6,8,B|13:119|56:150|56:150|63:146|63:146|106:99|163:96|163:96|166:88|166:88|197:138|241:135,1,311.999990478516,6|0,0:3|0:0,0:0:0:0:
243,56,1116,1,0,0:0:0:0:
254,220,1351,6,0,L|125:241,1,130,4|4,0:3|0:0,0:0:0:0:
115,271,1703,1,0,0:0:0:0:
19,172,1977,5,4,0:0:0:0:
222,308,2289,6,0,B|282:329|328:288|328:288|393:315|393:315|392:307|392:307|472:280|499:373,1,311.999990478516,6|0,0:3|0:0,0:0:0:0:
512,220,2993,1,0,0:0:0:0:
500,226,3228,6,0,L|509:156,1,65,12|0,0:0|0:0,0:0:0:0:
424,171,3462,2,0,L|433:107,1,65,4|0,0:0|0:0,0:0:0:0:
351,44,3697,1,4,0:0:0:0:
351,44,3932,2,0,L|340:123,1,65,4|0,0:0|0:0,0:0:0:0:
303,321,4166,6,0,B|370:260|324:196|324:196|322:205|322:205|223:227|162:155,1,311.999990478516,6|0,0:3|0:0,0:0:0:0:
173,166,4870,1,0,0:0:0:0:
4,116,5105,6,0,P|67:121|139:95,1,130,4|4,0:3|0:0,0:0:0:0:
147,91,5457,1,0,0:0:0:0:
237,203,5730,5,4,0:0:0:0:
11,267,6043,6,0,P|89:354|74:237,1,311.999990478516,6|0,0:3|0:0,0:0:0:0:
12,272,6747,1,0,0:0:0:0:
12,272,6982,6,0,L|-5:183,1,65,12|0,0:0|0:0,0:0:0:0:
31,182,7216,2,0,L|43:118,1,65,4|0,0:0|0:0,0:0:0:0:
121,83,7451,1,4,0:0:0:0:
121,83,7686,2,0,L|172:21,1,65,4|0,0:0|0:0,0:0:0:0:
348,34,7920,6,0,B|366:103|366:103|366:102|366:102|306:119|306:119|304:117|304:117|330:222|330:222|329:228|329:228|397:208,1,311.999990478516,6|0,0:3|0:0,0:0:0:0:
451,148,8624,1,0,0:0:0:0:
489,303,8859,6,0,L|341:347,1,130,12|4,0:0|0:0,0:0:0:0:
352,345,9210,1,0,0:0:0:0:
306,260,9484,5,4,0:0:0:0:
31,352,9797,6,0,P|140:264|312:263,1,311.999990478516,6|0,0:3|0:0,0:0:0:0:
411,294,10501,1,0,0:0:0:0:
306,260,10735,5,12,0:0:0:0:
303,239,10852,1,0,0:0:0:0:
300,218,10969,1,4,0:0:0:0:
297,197,11086,1,0,0:0:0:0:
295,179,11205,2,0,P|257:198|215:204,1,84.4999961318971,4|0,0:0|0:0,0:0:0:0:
227,279,11439,2,0,P|184:276|145:260,1,84.4999961318971,4|0,0:0|0:0,0:0:0:0:
26,122,11674,6,0,B|126:141|155:256|155:256|146:260|146:260|212:217|204:133,1,311.999990478516,6|0,0:3|0:0,0:0:0:0:
148,71,12378,1,0,0:0:0:0:
136,64,12612,6,0,L|264:42,1,130,12|4,0:0|0:0,0:0:0:0:
283,38,12964,1,0,0:0:0:0:
446,84,13238,5,4,0:0:0:0:
488,232,13551,6,0,B|429:289|358:259|358:259|357:254|357:254|249:268|232:345,1,311.999990478516,6|0,0:3|0:0,0:0:0:0:
236,348,14255,1,0,0:0:0:0:
236,348,14489,6,0,L|148:340,1,65,12|0,0:0|0:0,0:0:0:0:
33,305,14724,2,0,L|140:290,1,71.5000021820069,4|0,0:0|0:0,0:0:0:0:
287,278,14959,2,0,L|184:262,1,77.999997619629,4|0,0:0|0:0,0:0:0:0:
0,236,15193,2,0,L|111:217,1,84.4999961318971,4|0,0:0|0:0,0:0:0:0:
270,162,15428,6,0,P|250:80|196:16,1,168.999992263794,6|0,0:3|0:0,0:0:0:0:
428,199,15780,1,0,0:0:0:0:
424,224,15897,2,0,P|383:237|341:244,1,84.4999961318971,10|0,0:2|0:0,0:0:0:0:
350,355,16132,2,0,P|308:350|267:340,1,84.4999961318971,0|0,0:0|0:0,0:0:0:0:
46,240,16366,6,0,P|79:252|128:265,1,71.5000021820069,6|0,0:3|0:0,0:0:0:0:
212,290,16601,1,4,0:0:0:0:
212,290,16718,1,0,0:0:0:0:
212,290,16835,2,0,P|208:253|199:204,1,71.5000021820069,12|0,0:2|0:0,0:0:0:0:
105,333,17070,2,0,P|108:296|118:247,1,71.5000021820069,4|0,0:0|0:0,0:0:0:0:
222,136,17305,6,0,P|141:144|57:92,1,168.999992263794,6|0,0:3|0:0,0:0:0:0:
20,46,17657,1,0,0:0:0:0:
5,30,17774,2,0,L|-2:134,1,84.4999961318971,8|0,0:2|0:0,0:0:0:0:
37,178,18008,2,0,P|43:222|44:282,1,84.4999961318971,0|0,0:0|0:0,0:0:0:0:
20,349,18243,5,6,0:3:0:0:
62,340,18360,1,0,0:0:0:0:
105,333,18477,1,4,0:0:0:0:
148,325,18594,1,0,0:0:0:0:
201,315,18712,2,0,P|230:281|243:226,1,71.5000021820069,14|0,0:2|0:0,0:0:0:0:
328,171,18947,2,0,P|351:197|362:231,1,71.5000021820069,4|0,0:0|0:0,0:0:0:0:
456,287,19182,6,0,P|390:336|307:337,1,168.999992263794,6|0,0:3|0:0,0:0:0:0:
415,173,19533,1,0,0:0:0:0:
429,164,19651,2,0,P|470:168|510:183,1,84.4999961318971,8|0,0:2|0:0,0:0:0:0:
363,232,19885,2,0,P|323:247|282:251,1,84.4999961318971,0|0,0:0|0:0,0:0:0:0:
386,95,20120,6,0,P|315:87|249:59,1,143.000004364014,6|4,0:3|0:0,0:0:0:0:
134,28,20472,1,0,0:0:0:0:
139,47,20589,2,0,P|146:86|149:117,1,71.5000021820069,14|0,0:2|0:0,0:0:0:0:
20,187,20824,2,0,P|19:155|25:95,1,71.5000021820069,4|0,0:0|0:0,0:0:0:0:
269,271,21058,6,0,P|195:232|111:235,1,168.999992263794,6|0,0:3|0:0,0:0:0:0:
22,317,21410,1,0,0:0:0:0:
9,340,21528,2,0,P|54:342|115:323,1,84.4999961318971,10|0,0:2|0:0,0:0:0:0:
204,337,21762,2,0,P|248:344|303:374,1,84.4999961318971
284,202,21997,6,0,L|267:283,1,71.5000021820069,6|0,0:3|0:0,0:0:0:0:
444,285,22232,2,0,P|439:243|425:193,1,77.999997619629,4|0,0:0|0:0,0:0:0:0:
492,152,22466,2,0,P|455:179|426:213,1,84.4999961318971,14|0,0:2|0:0,0:0:0:0:
286,30,22701,2,0,P|291:75|307:121,1,90.9999972229005,4|0,0:0|0:0,0:0:0:0:
199,218,22935,6,0,P|116:252|31:238,1,168.999992263794,6|0,0:3|0:0,0:0:0:0:
187,322,23287,1,0,0:0:0:0:
189,301,23405,2,0,L|199:217,1,84.4999961318971,8|0,0:2|0:0,0:0:0:0:
55,153,23639,1,0,0:0:0:0:
93,170,23757,1,0,0:0:0:0:
128,168,23874,6,0,P|132:131|140:86,1,71.5000021820069,6|0,0:3|0:0,0:0:0:0:
281,144,24108,2,0,L|211:133,1,71.5000021820069,4|0,0:0|0:0,0:0:0:0:
39,241,24343,2,0,L|111:249,1,71.5000021820069,14|0,0:2|0:0,0:0:0:0:
189,301,24578,2,0,L|197:229,1,71.5000021820069,4|0,0:0|0:0,0:0:0:0:
281,144,24812,6,0,P|369:159|435:207,1,168.999992263794,6|0,0:3|0:0,0:0:0:0:
465,289,25164,1,0,0:0:0:0:
465,289,25282,2,0,B|433:206|433:206|483:129,1,155.999995239258,8|0,0:2|0:0,0:0:0:0:
436,42,25633,1,0,0:0:0:0:
429,29,25751,6,0,L|529:48,1,84.4999961318971,6|0,0:3|0:0,0:0:0:0:
383,102,25985,2,0,L|283:83,1,84.4999961318971,4|0,0:0|0:0,0:0:0:0:
225,22,26220,2,0,P|134:29|50:63,1,181.999994445801,14|4,0:2|0:0,0:0:0:0:
0,154,26572,1,0,0:0:0:0:
143,350,26689,6,0,P|139:261|111:181,1,168.999992263794,6|0,0:3|0:0,0:0:0:0:
66,332,27041,1,0,0:0:0:0:
59,357,27158,2,0,P|100:357|146:348,1,84.4999961318971,8|0,0:2|0:0,0:0:0:0:
302,281,27393,2,0,P|260:280|214:289,1,84.4999961318971,0|0,0:0|0:0,0:0:0:0:
197,176,27628,6,0,P|203:137|215:90,1,71.5000021820069,6|0,0:3|0:0,0:0:0:0:
289,32,27862,2,0,P|297:67|303:103,1,71.5000021820069,4|0,0:0|0:0,0:0:0:0:
443,206,28097,2,0,P|370:211|304:186,1,143.000004364014,14|0,0:2|0:0,0:0:0:0:
104,75,28449,5,0,0:0:0:0:
104,75,28507,1,0,0:0:0:0:
104,75,28566,2,0,L|95:173,1,84.4999961318971,14|0,0:3|0:0,0:0:0:0:
124,236,28801,2,0,P|82:241|45:223,1,84.4999961318971,0|0,0:3|0:0,0:0:0:0:
239,222,29035,1,0,0:3:0:0:
239,222,29270,6,0,P|223:269|227:320,1,84.4999961318971,10|0,0:0|0:0,0:0:0:0:
312,355,29505,2,0,P|299:314|298:279,1,77.999997619629,4|0,0:0|0:0,0:0:0:0:
378,285,29739,6,0,P|386:250|390:215,1,71.5000021820069,12|0,0:0|0:0,0:0:0:0:
473,158,29974,2,0,P|435:132|411:101,1,77.999997619629,12|0,0:0|0:0,0:0:0:0:
213,94,30208,2,0,P|258:90|303:73,1,90.9999972229005,4|0,0:0|0:0,0:0:0:0:
489,24,30443,6,0,P|474:130|458:268,1,233.999992858887,6|0,0:3|0:0,0:0:0:0:
483,296,30912,2,0,P|400:301|313:328,1,155.999995239258,10|2,0:2|0:0,0:0:0:0:
217,277,31264,1,0,0:0:0:0:
202,268,31381,2,0,L|216:351,1,84.4999961318971,6|0,0:0|0:0,0:0:0:0:
283,221,31616,1,0,0:0:0:0:
283,221,31733,1,0,0:0:0:0:
283,221,31851,2,0,P|291:143|309:40,1,168.999992263794,10|0,0:2|0:0,0:0:0:0:
309,36,32203,1,0,0:0:0:0:
220,133,32320,6,0,P|147:160|61:157,1,155.999995239258,6|0,0:3|0:0,0:0:0:0:
17,109,32672,1,0,0:0:0:0:
22,127,32789,2,0,P|31:167|40:222,1,77.999997619629,8|0,0:2|0:0,0:0:0:0:
39,279,33024,2,0,P|25:324|19:366,1,77.999997619629,2|0,0:0|0:0,0:0:0:0:
238,336,33258,2,0,P|178:286|99:275,1,143.000004364014,6|0,0:0|0:0,0:0:0:0:
39,279,33610,1,0,0:0:0:0:
75,214,33728,2,0,P|132:171|211:172,1,143.000004364014,10|2,0:2|0:0,0:0:0:0:
330,241,34197,6,0,B|262:265|262:265|279:100,1,233.999992858887,6|0,0:3|0:0,0:0:0:0:
193,30,34666,2,0,L|206:122,1,77.999997619629,8|0,0:2|0:0,0:0:0:0:
131,120,34901,2,0,L|120:42,1,77.999997619629,0|0,0:0|0:0,0:0:0:0:
31,142,35135,1,4,0:0:0:0:
41,187,35253,1,0,0:0:0:0:
52,232,35370,1,0,0:0:0:0:
98,223,35488,1,0,0:0:0:0:
143,215,35604,2,0,P|188:227|217:256,1,77.999997619629,8|0,0:2|0:0,0:0:0:0:
320,121,35839,2,0,P|296:161|296:202,1,77.999997619629
478,286,36074,6,0,B|435:300|412:280|412:280|407:276|407:276|376:258|337:275,1,143.000004364014,6|0,0:3|0:0,0:0:0:0:
253,340,36426,1,0,0:0:0:0:
235,357,36543,2,0,P|312:374|373:338,1,143.000004364014,8|0,0:2|0:0,0:0:0:0:
342,272,36895,1,0,0:0:0:0:
329,280,37012,6,0,P|337:237|340:196,1,84.4999961318971,6|0,0:3|0:0,0:0:0:0:
458,138,37247,2,0,P|450:181|448:221,1,77.999997619629,6|0,0:3|0:0,0:0:0:0:
209,28,37481,2,0,P|251:28|292:36,1,84.4999961318971,14|0,0:2|0:0,0:0:0:0:
388,128,37716,2,0,P|349:128|311:119,1,77.999997619629,6|0,0:3|0:0,0:0:0:0:
74,51,37951,6,0,B|26:60|12:99|12:99|90:171|181:68,1,233.999992858887,6|0,0:3|0:0,0:0:0:0:
164,95,38420,2,0,P|140:162|126:259,1,155.999995239258,10|0,0:2|0:0,0:0:0:0:
6,293,38772,1,0,0:0:0:0:
56,346,38889,6,0,P|48:261|25:180,1,168.999992263794,6|0,0:0|0:0,0:0:0:0:
16,166,39241,1,0,0:0:0:0:
135,327,39358,2,0,B|203:351|203:351|302:324,1,168.999992263794,10|0,0:2|0:0,0:0:0:0:
443,296,39710,1,0,0:0:0:0:
377,203,39828,6,0,B|360:248|360:248|377:355,1,155.999995239258,6|0,0:3|0:0,0:0:0:0:
492,170,40179,1,0,0:0:0:0:
500,149,40297,2,0,L|423:136,1,77.999997619629,8|0,0:2|0:0,0:0:0:0:
357,40,40531,2,0,L|345:117,1,71.5000021820069,2|0,0:0|0:0,0:0:0:0:
138,158,40766,6,0,P|219:187|322:167,1,155.999995239258,6|0,0:0|0:0,0:0:0:0:
302,177,41118,1,0,0:0:0:0:
367,281,41235,2,0,L|377:203,1,77.999997619629,10|0,0:2|0:0,0:0:0:0:
500,149,41470,2,0,L|510:227,1,77.999997619629,2|0,0:0|0:0,0:0:0:0:
473,355,41704,6,0,P|391:326|297:318,1,168.999992263794,6|0,0:3|0:0,0:0:0:0:
202,265,42056,1,0,0:0:0:0:
138,364,42174,2,0,L|125:280,1,84.4999961318971,10|0,0:2|0:0,0:0:0:0:
21,343,42408,2,0,P|34:303|55:266,1,84.4999961318971,0|0,0:0|0:0,0:0:0:0:
0,147,42643,1,6,0:0:0:0:
14,155,42760,1,0,0:0:0:0:
30,159,42878,1,2,0:0:0:0:
46,159,42995,1,0,0:0:0:0:
61,151,43112,6,0,P|49:103|43:56,1,84.4999961318971,8|0,0:2|0:0,0:0:0:0:
143,13,43347,2,0,P|131:61|125:108,1,84.4999961318971,2|0,0:0|0:0,0:0:0:0:
293,214,43581,6,0,B|256:201|215:224|215:224|181:190|137:191,1,155.999995239258,6|0,0:3|0:0,0:0:0:0:
134,187,43933,1,0,0:0:0:0:
369,152,44051,2,0,L|384:246,1,77.999997619629,10|0,0:2|0:0,0:0:0:0:
446,139,44285,2,0,L|352:154,1,77.999997619629,0|0,0:0|0:0,0:0:0:0:
468,361,44520,6,0,P|479:326|482:281,1,71.5000021820069,6|0,0:3|0:0,0:0:0:0:
446,349,44754,6,0,P|435:314|432:264,1,77.999997619629,4|0,0:3|0:0,0:0:0:0:
340,314,44989,6,0,P|351:278|349:222,1,84.4999961318971,14|0,0:2|0:0,0:0:0:0:
185,345,45224,6,0,P|174:310|172:256,1,90.9999972229005,4|0,0:3|0:0,0:0:0:0:
15,186,45458,6,0,B|25:228|91:253|91:253|109:183|179:177,1,214.500006546021,6|0,0:3|0:0,0:0:0:0:
233,215,45927,2,0,P|270:211|300:191,1,71.5000021820069,10|0,0:2|0:0,0:0:0:0:
318,185,46162,2,0,L|310:259,1,71.5000021820069,2|0,0:0|0:0,0:0:0:0:
488,172,46397,5,6,0:0:0:0:
488,172,46514,1,0,0:0:0:0:
488,172,46631,2,0,P|451:168|418:146,1,77.999997619629,0|0,0:0|0:0,0:0:0:0:
403,142,46866,2,0,L|412:225,1,77.999997619629,10|0,0:2|0:0,0:0:0:0:
326,90,47101,2,0,L|317:12,1,77.999997619629,0|0,0:0|0:0,0:0:0:0:
98,129,47335,6,0,B|147:157|147:157|191:129|242:135,1,155.999995239258,6|0,0:3|0:0,0:0:0:0:
318,185,47687,1,0,0:0:0:0:
310,256,47804,2,0,P|306:296|297:352,1,77.999997619629,10|0,0:2|0:0,0:0:0:0:
211,359,48039,2,0,P|204:319|198:263,1,84.4999961318971,2|0,0:0|0:0,0:0:0:0:
41,245,48274,6,0,P|132:241|215:292,1,168.999992263794,6|0,0:0|0:0,0:0:0:0:
310,256,48626,1,0,0:0:0:0:
206,191,48743,2,0,L|199:276,1,84.4999961318971,10|0,0:2|0:0,0:0:0:0:
41,245,48977,2,0,L|31:138,1,84.4999961318971,2|0,0:0|0:0,0:0:0:0:
226,37,49212,6,0,P|309:66|358:119,1,155.999995239258,6|0,0:3|0:0,0:0:0:0:
401,179,49564,1,0,0:0:0:0:
309,261,49681,2,0,L|320:163,1,77.999997619629,8|0,0:2|0:0,0:0:0:0:
446,108,49916,2,0,P|448:74|438:31,1,77.999997619629,2|0,0:0|0:0,0:0:0:0:
476,95,50151,2,0,P|474:129|484:172,1,77.999997619629,6|0,0:0|0:0,0:0:0:0:
439,242,50385,2,0,P|437:276|447:319,1,77.999997619629,0|0,0:0|0:0,0:0:0:0:
472,344,50620,2,0,P|473:309|463:266,1,77.999997619629,8|0,0:2|0:0,0:0:0:0:
261,331,50854,2,0,L|353:344,1,77.999997619629,0|0,0:0|0:0,0:0:0:0:
133,270,51089,5,6,0:3:0:0:
110,247,51206,1,0,0:0:0:0:
77,236,51324,2,0,P|47:267|25:301,1,77.999997619629,0|0,0:0|0:0,0:0:0:0:
44,350,51558,2,0,P|60:314|71:277,1,77.999997619629,8|0,0:2|0:0,0:0:0:0:
185,197,51793,2,0,P|173:156|150:106,1,77.999997619629,0|0,0:0|0:0,0:0:0:0:
190,212,52027,6,0,P|200:249|215:285,1,77.999997619629,6|0,0:3|0:0,0:0:0:0:
262,185,52262,2,0,P|300:173|343:149,1,77.999997619629,6|0,0:3|0:0,0:0:0:0:
217,61,52497,2,0,P|184:44|127:35,1,77.999997619629,14|0,0:2|0:0,0:0:0:0:
5,174,52731,2,0,P|41:170|82:154,1,77.999997619629,6|0,0:3|0:0,0:0:0:0:
301,325,52966,6,0,B|273:348|243:335|243:335|263:176,1,214.500006546021,6|0,0:3|0:0,0:0:0:0:
263,169,53435,2,0,P|229:181|194:183,1,71.5000021820069,10|0,0:2|0:0,0:0:0:0:
49,120,53670,2,0,P|82:107|117:105,1,71.5000021820069,2|0,0:0|0:0,0:0:0:0:
232,37,53904,6,0,P|305:52|401:60,1,155.999995239258,6|0,0:0|0:0,0:0:0:0:
409,58,54256,1,0,0:0:0:0:
503,210,54374,2,0,P|434:225|342:234,1,155.999995239258,10|0,0:2|0:0,0:0:0:0:
276,199,54725,1,0,0:0:0:0:
159,302,54843,6,0,P|228:330|282:278,1,155.999995239258,6|0,0:3|0:0,0:0:0:0:
349,233,55195,1,0,0:0:0:0:
427,346,55312,2,0,P|389:337|354:317,1,77.999997619629,8|0,0:2|0:0,0:0:0:0:
276,199,55547,2,0,P|242:179|204:170,1,77.999997619629,2|0,0:2|0:0,0:0:0:0:
112,70,55781,6,0,P|130:148|143:243,1,155.999995239258,6|0,0:0|0:0,0:0:0:0:
86,333,56133,1,0,0:0:0:0:
70,358,56250,2,0,P|71:319|77:280,1,77.999997619629,10|0,0:2|0:0,0:0:0:0:
60,199,56485,2,0,P|25:221|0:249,1,77.999997619629,2|0,0:0|0:0,0:0:0:0:
158,301,56720,6,0,P|236:304|311:283,1,155.999995239258,6|0,0:3|0:0,0:0:0:0:
362,195,57072,1,0,0:0:0:0:
497,285,57189,2,0,L|485:373,1,77.999997619629,10|0,0:2|0:0,0:0:0:0:
414,357,57424,2,0,L|426:269,1,77.999997619629,0|0,0:0|0:0,0:0:0:0:
362,195,57658,6,0,L|463:178,1,77.999997619629,6|0,0:0|0:0,0:0:0:0:
498,94,57893,1,0,0:0:0:0:
498,94,58010,1,2,0:0:0:0:
498,94,58127,2,0,L|397:111,1,77.999997619629,8|0,0:2|0:0,0:0:0:0:
255,73,58362,2,0,L|356:56,1,77.999997619629,2|0,0:0|0:0,0:0:0:0:
433,21,58597,6,0,L|407:195,1,168.999992263794,6|0,0:3|0:0,0:0:0:0:
308,327,58949,2,0,P|316:277|327:227,1,84.4999961318971,2|8,0:0|0:2,0:0:0:0:
183,271,59183,1,0,0:0:0:0:
180,255,59300,2,0,P|172:205|161:155,1,84.4999961318971,2|0,0:0|0:0,0:0:0:0:
77,27,59535,2,0,P|26:110|118:79,1,253.499988395691,6|0,0:0|0:0,0:0:0:0:
128,65,60004,6,0,P|167:76|206:97,1,84.4999961318971,10|0,0:2|0:0,0:0:0:0:
291,172,60239,2,0,P|319:201|342:239,1,84.4999961318971,0|0,0:0|0:0,0:0:0:0:
479,342,60473,6,0,B|414:336|414:336|374:354|374:354|287:343,1,168.999992263794,6|0,0:3|0:0,0:0:0:0:
232,276,60825,1,0,0:0:0:0:
414,179,60943,2,0,P|429:217|433:265,1,84.4999961318971,10|0,0:2|0:0,0:0:0:0:
291,172,61177,2,0,P|291:134|302:83,1,84.4999961318971,2|0,0:0|0:0,0:0:0:0:
232,276,61412,6,0,P|165:299|94:290,1,143.000004364014,6|0,0:0|0:0,0:0:0:0:
21,265,61764,1,0,0:0:0:0:
120,205,61881,2,0,P|117:175|109:135,1,71.5000021820069,10|0,0:2|0:0,0:0:0:0:
210,98,62116,2,0,P|213:67|221:27,1,71.5000021820069,0|0,0:0|0:0,0:0:0:0:
0,81,62350,6,0,P|62:26|144:27,1,168.999992263794,6|0,0:3|0:0,0:0:0:0:
210,98,62702,1,0,0:0:0:0:
291,89,62820,2,0,L|378:78,1,84.4999961318971,8|0,0:2|0:0,0:0:0:0:
497,168,63054,2,0,L|410:179,1,84.4999961318971,2|0,0:0|0:0,0:0:0:0:
308,352,63289,6,0,B|286:230|286:230|321:178,1,168.999992263794,6|0,0:0|0:0,0:0:0:0:
440,253,63641,1,0,0:0:0:0:
470,286,63758,2,0,L|360:265,1,84.4999961318971,10|0,0:2|0:0,0:0:0:0:
311,192,63993,2,0,P|261:199|227:207,1,84.4999961318971,2|0,0:0|0:0,0:0:0:0:
27,108,64227,6,0,B|87:143|87:143|175:117,1,143.000004364014,6|0,0:3|0:0,0:0:0:0:
238,97,64579,1,0,0:0:0:0:
164,46,64697,1,10,0:2:0:0:
157,48,64814,1,0,0:0:0:0:
149,51,64931,2,0,L|159:135,1,71.5000021820069,0|0,0:0|0:0,0:0:0:0:
168,197,65166,2,0,L|79:209,1,84.4999961318971,6|0,0:0|0:0,0:0:0:0:
18,290,65400,2,0,L|101:278,1,84.4999961318971,0|0,0:0|0:0,0:0:0:0:
168,364,65635,1,10,0:2:0:0:
175,367,65752,1,0,0:0:0:0:
182,371,65870,2,0,P|192:328|193:287,1,84.4999961318971,0|0,0:0|0:0,0:0:0:0:
387,208,66104,6,0,L|245:229,1,143.000004364014,6|0,0:3|0:0,0:0:0:0:
160,192,66456,1,0,0:0:0:0:
240,163,66573,1,10,0:2:0:0:
246,159,66691,1,0,0:0:0:0:
252,157,66808,2,0,L|242:255,1,71.5000021820069,0|0,0:0|0:0,0:0:0:0:
241,253,67043,6,0,P|283:260|325:262,1,84.4999961318971,6|0,0:3|0:0,0:0:0:0:
337,339,67277,2,0,P|385:336|432:325,1,90.9999972229005,6|0,0:3|0:0,0:0:0:0:
483,222,67512,2,0,P|435:213|384:207,1,97.50000371933,14|0,0:2|0:0,0:0:0:0:
324,52,67747,2,0,P|267:59|220:76,1,104,6|0,0:3|0:0,0:0:0:0:
14,222,67981,6,0,B|68:244|68:244|76:190|48:126,1,168.999992263794,6|0,0:3|0:0,0:0:0:0:
14,66,68333,1,0,0:0:0:0:
9,58,68450,2,0,P|48:41|90:32,1,84.4999961318971,10|0,0:2|0:0,0:0:0:0:
166,158,68685,2,0,L|157:242,1,84.4999961318971,2|0,0:0|0:0,0:0:0:0:
332,356,68920,6,0,B|315:279|315:279|353:199,1,143.000004364014,6|0,0:0|0:0,0:0:0:0:
451,182,69271,1,0,0:0:0:0:
433,185,69389,2,0,L|423:101,1,71.5000021820069,10|0,0:2|0:0,0:0:0:0:
349,49,69623,2,0,P|342:85|339:133,1,71.5000021820069,0|0,0:0|0:0,0:0:0:0:
443,266,69858,6,0,P|349:252|254:242,1,168.999992263794,6|0,0:3|0:0,0:0:0:0:
210,193,70210,1,0,0:0:0:0:
180,353,70327,2,0,L|171:270,1,84.4999961318971,8|0,0:2|0:0,0:0:0:0:
88,279,70562,2,0,L|98:363,1,84.4999961318971,2|0,0:0|0:0,0:0:0:0:
118,199,70796,6,0,B|133:95|133:95|98:95|72:134,1,168.999992263794,6|0,0:0|0:0,0:0:0:0:
88,279,71148,1,0,0:0:0:0:
7,235,71266,1,10,0:2:0:0:
8,243,71383,1,0,0:0:0:0:
8,251,71500,2,0,P|48:261|94:282,1,84.4999961318971,2|0,0:0|0:0,0:0:0:0:
118,199,71735,6,0,P|200:162|290:146,1,181.999994445801,6|0,0:3|0:0,0:0:0:0:
367,92,72087,1,0,0:0:0:0:
433,233,72204,2,0,P|384:226|327:208,1,90.9999972229005,10|0,0:2|0:0,0:0:0:0:
501,136,72439,2,0,P|452:143|395:161,1,90.9999972229005,0|0,0:0|0:0,0:0:0:0:
267,350,72673,6,0,L|255:255,1,90.9999972229005,4|0,0:0|0:0,0:0:0:0:
111,202,72908,2,0,L|123:107,1,90.9999972229005,0|0,0:0|0:0,0:0:0:0:
207,46,73143,1,10,0:2:0:0:
241,36,73260,1,0,0:0:0:0:
277,37,73377,2,0,L|292:141,1,90.9999972229005,0|0,0:0|0:0,0:0:0:0:
336,322,73612,6,0,P|407:278|490:268,1,168.999992263794,6|0,0:3|0:0,0:0:0:0:
324,221,73964,1,0,0:0:0:0:
304,214,74081,2,0,P|260:203|203:198,1,84.4999961318971,10|0,0:2|0:0,0:0:0:0:
17,118,74316,2,0,P|59:117|99:102,1,84.4999961318971,2|0,0:0|0:0,0:0:0:0:
129,195,74550,2,0,P|75:200|22:223,1,97.50000371933,4|0,0:0|0:0,0:0:0:0:
198,24,74785,6,0,B|209:121|209:121|215:117|215:117|230:242,1,221.000004215241,4|8,0:1|0:2,0:0:0:0:
402,138,75254,2,0,P|391:189|385:243,1,90.9999972229005,2|0,0:0|0:0,0:0:0:0:
244,339,75489,6,0,B|158:355|158:355|164:354|164:354|148:248,1,195.00000743866,4|0,0:1|0:0,0:0:0:0:
129,152,75841,1,0,0:0:0:0:
43,210,75958,2,0,P|85:187|133:177,1,97.50000371933,10|0,0:2|0:0,0:0:0:0:
322,122,76193,1,0,0:0:0:0:
325,112,76310,1,0,0:0:0:0:
329,103,76427,6,0,P|236:56|147:56,1,181.999994445801,6|0,0:0|0:0,0:0:0:0:
49,31,76779,1,0,0:0:0:0:
31,29,76896,2,0,L|20:119,1,90.9999972229005,10|0,0:2|0:0,0:0:0:0:
17,137,77131,2,0,L|107:148,1,90.9999972229005,2|0,0:0|0:0,0:0:0:0:
200,305,77366,6,0,P|273:280|351:273,1,155.999995239258,6|0,0:3|0:0,0:0:0:0:
440,241,77718,1,0,0:0:0:0:
459,224,77835,2,0,L|442:318,1,77.999997619629,8|0,0:2|0:0,0:0:0:0:
369,177,78069,2,0,L|360:81,1,90.9999972229005,2|0,0:0|0:0,0:0:0:0:
465,23,78304,6,0,P|382:57|285:53,1,181.999994445801,6|0,0:0|0:0,0:0:0:0:
274,49,78656,1,0,0:0:0:0:
214,168,78773,2,0,P|164:163|119:145,1,90.9999972229005,10|0,0:2|0:0,0:0:0:0:
133,274,79008,2,0,P|92:244|62:206,1,90.9999972229005,0|0,0:0|0:0,0:0:0:0:
32,31,79243,6,0,B|2:53|10:81|71:101|140:51,1,168.999992263794,6|0,0:3|0:0,0:0:0:0:
188,174,79594,1,0,0:0:0:0:
214,168,79712,2,0,P|298:178|377:208,1,168.999992263794,8|2,0:2|0:0,0:0:0:0:
457,281,80064,1,0,0:0:0:0:
469,290,80181,2,0,L|462:203,1,77.999997619629,6|0,0:0|0:0,0:0:0:0:
382,130,80416,2,0,L|375:217,1,77.999997619629,0|0,0:0|0:0,0:0:0:0:
366,317,80650,2,0,P|284:345|206:338,1,155.999995239258,8|0,0:2|0:0,0:0:0:0:
142,265,81002,1,0,0:0:0:0:
145,251,81119,6,0,P|186:256|228:271,2,77.999997619629,6|0|0,0:3|0:0|0:0,0:0:0:0:
46,313,81471,1,0,0:0:0:0:
4,194,81589,2,0,P|40:178|78:170,1,77.999997619629,10|0,0:2|0:0,0:0:0:0:
101,134,81823,2,0,P|137:150|175:158,1,77.999997619629,2|0,0:0|0:0,0:0:0:0:
290,226,82058,2,0,P|297:158|314:68,1,143.000004364014,6|0,0:0|0:0,0:0:0:0:
439,237,82410,1,0,0:0:0:0:
439,257,82527,2,0,P|347:251|286:224,1,155.999995239258,10|0,0:2|0:0,0:0:0:0:
233,29,82996,6,0,P|296:83|378:92,1,168.999992263794,6|2,0:3|0:0,0:0:0:0:
464,41,83348,1,0,0:0:0:0:
512,169,83466,2,0,P|430:182|341:229,1,168.999992263794,10|2,0:2|0:0,0:0:0:0:
262,343,83818,1,0,0:0:0:0:
242,358,83935,6,0,L|256:200,1,155.999995239258,6|0,0:0|0:0,0:0:0:0:
134,129,84287,1,0,0:0:0:0:
113,112,84404,2,0,P|132:147|145:183,1,77.999997619629,10|0,0:2|0:0,0:0:0:0:
201,99,84639,2,0,P|230:37|237:-1,1,77.999997619629,0|0,0:0|0:0,0:0:0:0:
54,48,84873,6,0,P|22:118|6:195,1,155.999995239258,6|0,0:3|0:0,0:0:0:0:
5,195,85225,1,0,0:0:0:0:
60,282,85343,2,0,P|54:320|43:358,1,77.999997619629,8|0,0:2|0:0,0:0:0:0:
93,273,85577,2,0,P|123:296|149:325,1,77.999997619629,2|0,0:0|0:0,0:0:0:0:
152,192,85812,6,0,P|229:165|320:151,1,155.999995239258,6|0,0:0|0:0,0:0:0:0:
358,99,86164,1,0,0:0:0:0:
333,65,86281,2,0,P|407:91|484:105,1,155.999995239258,10|2,0:2|0:0,0:0:0:0:
509,217,86633,1,0,0:0:0:0:
494,242,86750,6,0,P|429:274|350:268,1,143.000004364014,6|0,0:3|0:0,0:0:0:0:
312,233,87102,1,0,0:0:0:0:
283,178,87219,2,0,P|318:167|361:164,1,71.5000021820069,10|0,0:2|0:0,0:0:0:0:
129,276,87454,2,0,P|93:272|59:261,1,71.5000021820069,0|0,0:2|0:0,0:0:0:0:
204,321,87689,5,6,0:0:0:0:
205,328,87806,1,0,0:0:0:0:
205,335,87923,1,0,0:0:0:0:
205,342,88041,1,0,0:0:0:0:
206,349,88158,5,10,0:2:0:0:
202,292,88275,1,0,0:0:0:0:
196,235,88392,1,2,0:0:0:0:
191,177,88510,1,0,0:0:0:0:
186,114,88627,6,0,P|143:118|96:146,1,77.999997619629,14|0,0:2|0:0,0:0:0:0:
68,73,88862,5,0,0:0:0:0:
49,70,88979,2,0,P|73:107|128:137,1,90.9999972229005,14|0,0:2|0:0,0:0:0:0:
57,208,89214,5,0,0:0:0:0:
84,227,89331,2,0,P|108:190|109:123,1,104,14|0,0:2|0:0,0:0:0:0:
289,84,89566,6,0,P|251:75|217:55,1,77.999997619629,14|0,0:2|0:0,0:0:0:0:
392,101,89800,5,0,0:0:0:0:
450,196,89917,2,0,P|434:239|390:270,1,90.9999972229005,14|0,0:2|0:0,0:0:0:0:
365,184,90152,5,0,0:0:0:0:
418,18,90269,2,0,P|468:28|517:59,1,104,14|0,0:2|0:0,0:0:0:0:
491,333,90504,6,0,B|383:356|383:356|265:304,1,195.00000743866,6|0,0:3|0:0,0:0:0:0:
140,205,90856,1,0,0:0:0:0:
65,317,90973,2,0,P|113:319|159:304,1,97.50000371933,10|0,0:2|0:0,0:0:0:0:
319,240,91208,2,0,L|333:144,1,97.50000371933,0|0,0:0|0:0,0:0:0:0:
152,50,91442,2,0,P|217:120|244:213,1,195.00000743866,4|0,0:0|0:0,0:0:0:0:
277,334,91794,1,0,0:0:0:0:
509,186,91912,2,0,P|427:135|332:143,1,195.00000743866,10|0,0:2|0:0,0:0:0:0:
244,213,92264,1,0,0:0:0:0:
277,334,92381,6,0,B|336:358|336:358|343:234,1,181.999994445801,6|0,0:3|0:0,0:0:0:0:
352,61,92733,1,0,0:0:0:0:
337,66,92850,2,0,P|293:79|248:87,1,90.9999972229005,8|0,0:2|0:0,0:0:0:0:
140,205,93085,2,0,P|126:161|118:116,1,90.9999972229005,2|0,0:0|0:0,0:0:0:0:
78,18,93319,2,0,P|28:87|5:173,1,168.999992263794,6|0,0:0|0:0,0:0:0:0:
12,209,93671,1,0,0:0:0:0:
123,335,93789,2,0,P|163:338|224:351,1,77.999997619629,10|0,0:2|0:0,0:0:0:0:
250,267,94023,2,0,P|290:263|351:251,1,77.999997619629,2|0,0:0|0:0,0:0:0:0:
469,219,94258,6,0,B|428:229|394:199|394:199|388:195|388:195|350:168|312:176,1,168.999992263794,6|0,0:3|0:0,0:0:0:0:
192,206,94610,1,0,0:0:0:0:
250,267,94727,2,0,P|239:307|232:349,1,84.4999961318971,8|0,0:2|0:0,0:0:0:0:
192,206,94962,2,0,P|186:170|174:123,1,84.4999961318971,2|0,0:0|0:0,0:0:0:0:
423,48,95196,2,0,B|331:92|331:92|266:77,1,168.999992263794,6|0,0:0|0:0,0:0:0:0:
216,63,95548,1,0,0:0:0:0:
115,220,95665,2,0,P|71:216|28:203,1,84.4999961318971,8|0,0:2|0:0,0:0:0:0:
9,108,95900,2,0,P|53:112|96:125,1,84.4999961318971,0|0,0:0|0:0,0:0:0:0:
261,180,96135,5,6,0:3:0:0:
255,225,96252,1,0,0:0:0:0:
250,270,96369,1,0,0:0:0:0:
245,315,96486,1,0,0:0:0:0:
242,361,96604,2,0,P|223:320|213:258,1,90.9999972229005,10|0,0:2|0:0,0:0:0:0:
328,259,96839,2,0,P|347:218|357:156,1,90.9999972229005,0|0,0:0|0:0,0:0:0:0:
216,25,97073,6,0,P|294:71|387:69,1,181.999994445801,6|2,0:0|0:0,0:0:0:0:
512,39,97425,1,0,0:0:0:0:
512,138,97542,2,0,P|503:193|499:228,1,90.9999972229005,10|0,0:2|0:0,0:0:0:0:
409,257,97777,2,0,P|413:302|421:347,1,90.9999972229005,2|0,0:0|0:0,0:0:0:0:
220,304,98012,6,0,P|126:346|20:331,1,195.00000743866,6|0,0:3|0:0,0:0:0:0:
0,255,98364,1,0,0:0:0:0:
128,213,98481,2,0,L|119:116,1,97.50000371933,8|0,0:2|0:0,0:0:0:0:
212,170,98715,2,0,L|199:45,1,97.50000371933,2|0,0:0|0:0,0:0:0:0:
122,27,98950,5,6,0:0:0:0:
122,35,99067,1,0,0:0:0:0:
18,109,99185,2,0,P|26:154|34:210,1,84.4999961318971,0|0,0:0|0:0,0:0:0:0:
115,270,99419,5,8,0:2:0:0:
114,279,99537,1,0,0:0:0:0:
214,350,99654,2,0,P|218:308|225:267,1,84.4999961318971,0|0,0:0|0:0,0:0:0:0:
487,275,99889,6,0,P|394:230|298:225,1,195.00000743866,6|0,0:3|0:0,0:0:0:0:
361,142,100240,1,0,0:0:0:0:
378,145,100358,2,0,P|425:156|470:174,1,97.50000371933,8|0,0:2|0:0,0:0:0:0:
488,182,100592,2,0,P|476:134|458:89,1,97.50000371933,2|0,0:0|0:0,0:0:0:0:
370,32,100827,5,6,0:0:0:0:
372,40,100944,1,0,0:0:0:0:
374,48,101062,2,0,P|336:66|294:68,1,84.4999961318971,0|0,0:0|0:0,0:0:0:0:
200,174,101296,2,0,P|237:192|279:194,1,84.4999961318971,10|0,0:2|0:0,0:0:0:0:
340,252,101531,2,0,P|302:270|260:272,1,84.4999961318971,2|0,0:0|0:0,0:0:0:0:
37,232,101765,6,0,P|115:276|167:354,1,181.999994445801,6|0,0:3|0:0,0:0:0:0:
170,369,102117,1,0,0:0:0:0:
351,249,102235,1,10,0:2:0:0:
368,250,102352,1,0,0:0:0:0:
383,259,102469,2,0,L|368:354,1,90.9999972229005,0|0,0:0|0:0,0:0:0:0:
396,178,102704,6,0,L|506:201,1,90.9999972229005,6|0,0:0|0:0,0:0:0:0:
273,294,102939,1,0,0:0:0:0:
238,265,103056,1,0,0:0:0:0:
212,216,103173,2,0,P|172:243|114:257,1,90.9999972229005,10|0,0:2|0:0,0:0:0:0:
56,168,103408,2,0,P|100:177|146:174,1,90.9999972229005,0|0,0:0|0:0,0:0:0:0:
297,40,103642,6,0,B|364:47|364:47|373:52|373:52|450:61,1,155.999995239258,6|0,0:3|0:0,0:0:0:0:
489,104,103995,1,0,0:0:0:0:
489,104,104112,2,0,B|421:96|421:96|412:91|412:91|335:82,1,155.999995239258,10|0,0:2|0:0,0:0:0:0:
183,59,104463,1,0,0:0:0:0:
199,136,104581,6,0,B|215:215|215:215|303:197,1,155.999995239258,6|0,0:0|0:0,0:0:0:0:
470,196,104932,1,0,0:0:0:0:
455,272,105050,2,0,B|439:351|439:351|351:333,1,155.999995239258,10|0,0:2|0:0,0:0:0:0:
288,199,105402,1,0,0:0:0:0:
51,46,105519,6,0,P|87:112|98:219,1,168.999992263794,4|0,0:1|0:0,0:0:0:0:
179,264,105871,1,0,0:0:0:0:
11,336,105988,2,0,L|107:324,1,84.4999961318971,10|0,0:2|0:0,0:0:0:0:
179,264,106223,2,0,P|219:275|268:301,1,84.4999961318971,0|0,0:0|0:0,0:0:0:0:
385,354,106458,1,4,0:0:0:0:
385,345,106575,1,0,0:0:0:0:
385,336,106692,2,0,L|390:237,1,84.4999961318971,0|0,0:0|0:0,0:0:0:0:
284,118,106927,2,0,L|297:228,1,90.9999972229005,10|0,0:2|0:0,0:0:0:0:
466,286,107162,2,0,L|479:176,1,90.9999972229005,0|0,0:0|0:0,0:0:0:0:
328,42,107396,6,0,P|238:51|144:81,1,168.999992263794,6|0,0:3|0:0,0:0:0:0:
148,82,107748,1,0,0:0:0:0:
16,184,107865,2,0,P|57:202|97:209,1,84.4999961318971,8|0,0:2|0:0,0:0:0:0:
199,175,108100,2,0,P|189:221|182:264,1,84.4999961318971,2|0,0:0|0:0,0:0:0:0:
326,363,108335,2,0,P|321:268|305:182,1,168.999992263794,6|0,0:0|0:0,0:0:0:0:
269,114,108687,1,0,0:0:0:0:
368,40,108804,2,0,P|366:88|349:139,1,84.4999961318971,10|0,0:2|0:0,0:0:0:0:
468,147,109038,2,0,P|432:179|384:203,1,84.4999961318971,2|0,0:0|0:0,0:0:0:0:
490,346,109273,6,0,P|423:303|349:287,1,155.999995239258,6|0,0:3|0:0,0:0:0:0:
235,228,109625,1,0,0:0:0:0:
210,218,109742,2,0,L|221:311,1,77.999997619629,8|0,0:2|0:0,0:0:0:0:
123,362,109977,2,0,P|125:318|134:269,1,77.999997619629,2|0,0:0|0:0,0:0:0:0:
29,300,110212,5,6,0:0:0:0:
27,292,110329,1,0,0:0:0:0:
21,269,110446,1,0,0:0:0:0:
19,261,110563,1,0,0:0:0:0:
101,170,110681,1,8,0:2:0:0:
123,175,110798,1,0,0:0:0:0:
119,198,110915,1,0,0:0:0:0:
95,194,111033,1,0,0:0:0:0:
60,111,111150,6,0,P|64:62|74:17,1,84.4999961318971,6|0,0:3|0:0,0:0:0:0:
0,84,111385,2,0,P|27:43|59:9,1,84.4999961318971,0|0,0:0|0:0,0:0:0:0:
201,234,111619,6,0,P|219:271|232:312,1,84.4999961318971,10|0,0:2|0:0,0:0:0:0:
162,244,111854,2,0,P|157:286|150:328,1,84.4999961318971,0|0,0:0|0:0,0:0:0:0:
278,123,112088,6,0,P|358:87|468:86,1,181.999994445801,6|2,0:0|0:0,0:0:0:0:
468,88,112440,1,2,0:0:0:0:
512,241,112558,2,0,P|463:241|420:227,1,90.9999972229005,10|0,0:2|0:0,0:0:0:0:
331,353,112792,2,0,L|321:229,1,90.9999972229005,2|0,0:0|0:0,0:0:0:0:
218,62,113027,6,0,P|111:68|31:128,1,195.00000743866,6|0,0:3|0:0,0:0:0:0:
31,133,113379,1,0,0:0:0:0:
7,240,113496,2,0,P|58:255|115:255,1,97.50000371933,8|0,0:2|0:0,0:0:0:0:
103,346,113731,2,0,P|154:331|211:331,1,97.50000371933,2|0,0:0|0:0,0:0:0:0:
252,222,113965,5,6,0:0:0:0:
250,238,114083,1,0,0:0:0:0:
248,254,114200,1,0,0:0:0:0:
246,270,114317,1,0,0:0:0:0:
334,361,114435,2,0,P|328:318|325:278,1,84.4999961318971,8|0,0:2|0:0,0:0:0:0:
451,315,114669,2,0,P|422:286|399:249,1,84.4999961318971,2|0,0:0|0:0,0:0:0:0:
469,119,114904,6,0,B|370:96|370:96|290:138,1,181.999994445801,6|0,0:3|0:0,0:0:0:0:
284,145,115256,1,0,0:0:0:0:
125,47,115373,2,0,P|170:46|212:63,1,90.9999972229005,8|0,0:2|0:0,0:0:0:0:
99,114,115608,2,0,P|131:145|148:187,1,90.9999972229005,2|0,0:0|0:0,0:0:0:0:
52,320,115842,6,0,P|38:243|32:141,1,155.999995239258,6|0,0:0|0:0,0:0:0:0:
33,149,116194,1,0,0:0:0:0:
216,228,116311,2,0,P|205:274|202:304,1,77.999997619629,10|0,0:2|0:0,0:0:0:0:
141,356,116546,2,0,P|130:310|127:280,1,77.999997619629,2|0,0:0|0:0,0:0:0:0:
291,189,116781,6,0,B|370:180|370:180|437:215,1,155.999995239258,6|0,0:3|0:0,0:0:0:0:
449,292,117133,1,0,0:0:0:0:
449,292,117250,2,0,P|439:254|437:215,1,77.999997619629,8|0,0:2|0:0,0:0:0:0:
291,189,117485,2,0,P|301:151|319:116,1,77.999997619629,0|0,0:0|0:0,0:0:0:0:
432,21,117719,5,6,0:0:0:0:
468,8,117836,1,0,0:0:0:0:
482,44,117953,1,0,0:0:0:0:
446,57,118070,1,0,0:0:0:0:
435,134,118188,2,0,P|438:95|447:57,1,77.999997619629,8|0,0:2|0:0,0:0:0:0:
354,182,118423,2,0,P|344:142|342:89,1,77.999997619629
456,304,118658,6,0,P|378:335|296:335,1,143.000004364014,6|0,0:3|0:0,0:0:0:0:
218,255,119010,1,0,0:0:0:0:
182,353,119127,2,0,P|142:341|105:334,1,71.5000021820069,8|0,0:2|0:0,0:0:0:0:
34,278,119361,2,0,P|72:260|111:253,1,71.5000021820069,0|0,0:0|0:0,0:0:0:0:
264,225,119596,6,0,B|218:255|218:255|202:134,1,155.999995239258,6|0,0:3|0:0,0:0:0:0:
189,34,119948,1,0,0:0:0:0:
16,67,120065,2,0,P|73:96|137:93,1,130,8|0,0:2|0:0,0:0:0:0:
277,25,120417,1,0,0:0:0:0:
456,104,120534,6,0,P|442:190|428:305,1,195.00000743866,4|0,0:1|0:0,0:0:0:0:
310,278,120886,1,0,0:0:0:0:
360,362,121004,2,0,P|350:311|343:251,1,97.50000371933,10|0,0:2|0:0,0:0:0:0:
457,199,121238,2,0,P|467:148|469:89,1,97.50000371933,0|0,0:0|0:0,0:0:0:0:
286,28,121473,2,0,P|174:50|98:113,1,195.00000743866,4|0,0:0|0:0,0:0:0:0:
48,180,121825,1,0,0:0:0:0:
205,287,121942,6,0,L|183:193,1,90.9999972229005,10|0,0:2|0:0,0:0:0:0:
272,177,122177,2,0,L|178:199,1,90.9999972229005,0|0,0:0|0:0,0:0:0:0:
11,327,122411,2,0,B|74:364|74:364|198:347,1,168.999992263794,6|0,0:3|0:0,0:0:0:0:
273,252,122763,1,0,0:0:0:0:
342,290,122881,2,0,L|356:191,1,84.4999961318971,8|0,0:2|0:0,0:0:0:0:
393,135,123115,6,0,P|427:169|435:221,1,84.4999961318971,2|0,0:0|0:0,0:0:0:0:
429,357,123350,2,0,B|534:328|488:233|427:267|437:292,1,168.999992263794,6|0,0:0|0:0,0:0:0:0:
287,337,123702,1,0,0:0:0:0:
273,334,123819,2,0,L|165:319,1,84.4999961318971,10|0,0:2|0:0,0:0:0:0:
94,258,124054,2,0,P|124:227|160:206,1,84.4999961318971,2|0,0:0|0:0,0:0:0:0:
290,58,124288,6,0,L|271:228,1,155.999995239258,6|0,0:3|0:0,0:0:0:0:
459,81,124640,1,0,0:0:0:0:
440,78,124758,2,0,L|358:66,1,77.999997619629,10|0,0:2|0:0,0:0:0:0:
512,249,124992,1,0,0:0:0:0:
465,246,125109,1,0,0:0:0:0:
415,256,125227,2,0,P|316:282|247:310,1,168.999992263794,6|0,0:0|0:0,0:0:0:0:
201,256,125579,1,0,0:0:0:0:
123,354,125696,2,0,L|12:337,1,97.50000371933,8|0,0:2|0:0,0:0:0:0:
201,256,125931,2,0,P|192:210|186:150,1,97.50000371933,0|0,0:0|0:0,0:0:0:0:
412,45,126165,6,0,P|334:102|281:172,1,181.999994445801,6|0,0:3|0:0,0:0:0:0:
206,80,126517,1,0,0:0:0:0:
175,69,126634,2,0,P|179:111|186:158,1,90.9999972229005,8|0,0:2|0:0,0:0:0:0:
50,260,126869,2,0,P|57:215|61:169,1,90.9999972229005,0|0,0:0|0:0,0:0:0:0:
211,341,127104,6,0,B|255:355|298:324|298:324|307:318|307:318|340:295|382:305,1,181.999994445801,6|2,0:0|0:0,0:0:0:0:
468,224,127456,1,0,0:0:0:0:
496,250,127573,2,0,B|479:257|456:245|456:245|449:242|449:242|425:225|409:230,1,90.9999972229005,10|0,0:2|0:0,0:0:0:0:
211,341,127808,2,0,L|187:233,1,90.9999972229005,2|0,0:0|0:0,0:0:0:0:
425,138,128042,6,0,P|340:186|265:248,1,195.00000743866,6|0,0:3|0:0,0:0:0:0:
127,175,128394,1,0,0:0:0:0:
95,251,128511,2,0,P|111:292|122:350,1,97.50000371933,8|0,0:2|0:0,0:0:0:0:
35,373,128746,2,0,P|23:325|3:281,1,97.50000371933,2|0,0:2|0:0,0:0:0:0:
23,195,128981,5,6,0:0:0:0:
26,187,129098,1,0,0:0:0:0:
27,178,129215,2,0,P|22:134|8:94,1,84.4999961318971,0|0,0:0|0:0,0:0:0:0:
172,34,129450,2,0,P|138:64|112:94,1,84.4999961318971,8|0,0:2|0:0,0:0:0:0:
287,100,129684,2,0,P|242:108|205:122,1,84.4999961318971,2|0,0:0|0:0,0:0:0:0:
447,263,129919,6,0,P|364:212|268:201,1,195.00000743866,6|0,0:3|0:0,0:0:0:0:
239,209,130271,1,0,0:0:0:0:
101,332,130388,2,0,P|203:336|294:296,1,195.00000743866,8|2,0:2|0:0,0:0:0:0:
399,203,130740,1,0,0:0:0:0:
462,261,130857,6,0,L|441:88,1,168.999992263794,4|0,0:0|0:0,0:0:0:0:
352,44,131209,1,0,0:0:0:0:
337,34,131327,2,0,L|349:135,1,84.4999961318971,10|0,0:2|0:0,0:0:0:0:
239,209,131561,2,0,L|229:125,1,84.4999961318971,0|0,0:0|0:0,0:0:0:0:
83,61,131796,5,6,0:3:0:0:
80,78,131913,1,0,0:0:0:0:
125,85,132031,1,0,0:0:0:0:
115,112,132148,1,0,0:0:0:0:
158,124,132265,5,10,0:2:0:0:
121,164,132382,1,0,0:0:0:0:
161,201,132500,1,0,0:0:0:0:
199,162,132617,1,0,0:0:0:0:
250,162,132734,5,6,0:0:0:0:
276,219,132852,1,0,0:0:0:0:
275,281,132969,1,0,0:0:0:0:
238,331,133086,1,0,0:0:0:0:
241,339,133204,5,10,0:2:0:0:
319,384,133321,1,0,0:0:0:0:
366,306,133438,1,0,0:0:0:0:
293,249,133556,1,0,0:0:0:0:
189,247,133673,6,0,P|172:225|160:200,15,55.2500010538101,6|0|0|0|0|0|0|0|0|0|0|0|0|0|0|0,0:3|0:0|0:0|0:0|0:0|0:0|0:0|0:0|0:0|0:0|0:0|0:0|0:0|0:0|0:0|0:0,0:0:0:0:
324,366,134611,6,0,P|293:334|263:293,1,73.6666680717469,10|0,0:2|0:0,0:0:0:0:
209,329,134768,6,0,P|244:318|291:309,1,69.3333333333333,10|0,0:2|0:0,0:0:0:0:
293,249,134924,6,0,P|285:286|268:334,1,65.0000024795533,10|0,0:2|0:0,0:0:0:0:
504,202,135081,6,0,P|483:222|462:245,1,60.666664815267,10|0,0:2|0:0,0:0:0:0:
379,216,135237,6,0,P|369:242|365:270,1,56.3333307545981,10|0,0:2|0:0,0:0:0:0:
276,311,135393,6,0,P|281:336|291:360,1,51.999998413086,10|0,0:2|0:0,0:0:0:0:
35,160,135550,6,0,P|113:116|144:256,1,272.999991668701,4|0,0:1|0:0,0:0:0:0:
36,360,136019,2,0,L|21:255,1,90.9999972229005,10|0,0:2|0:0,0:0:0:0:
133,128,136254,1,0,0:0:0:0:
158,138,136371,1,0,0:0:0:0:
174,158,136488,2,0,P|130:183|75:188,1,90.9999972229005,4|0,0:0|0:0,0:0:0:0:
139,49,136723,2,0,P|183:56|222:80,1,90.9999972229005,0|0,0:0|0:0,0:0:0:0:
273,230,136957,2,0,B|358:257|358:257|479:212,1,195.00000743866,10|0,0:2|0:0,0:0:0:0:
475,214,137309,1,0,0:0:0:0:
278,152,137427,6,0,L|265:344,1,181.999994445801,6|0,0:3|0:0,0:0:0:0:
376,360,137779,1,0,0:0:0:0:
370,345,137896,2,0,P|359:297|360:227,1,90.9999972229005,8|0,0:2|0:0,0:0:0:0:
474,213,138130,2,0,P|472:168|462:124,1,90.9999972229005,2|0,0:0|0:0,0:0:0:0:
290,56,138365,6,0,P|206:91|115:97,1,181.999994445801,6|0,0:0|0:0,0:0:0:0:
35,39,138717,2,0,P|80:40|122:57,1,90.9999972229005,0|10,0:0|0:2,0:0:0:0:
263,141,138952,1,0,0:0:0:0:
278,151,139069,2,0,L|266:272,1,90.9999972229005,2|0,0:0|0:0,0:0:0:0:
93,350,139304,6,0,P|79:259|63:173,1,168.999992263794,6|0,0:3|0:0,0:0:0:0:
130,138,139655,1,0,0:0:0:0:
257,333,139773,2,0,P|212:332|162:314,1,84.4999961318971,8|0,0:2|0:0,0:0:0:0:
345,207,140007,2,0,P|309:230|269:242,1,84.4999961318971,2|0,0:0|0:0,0:0:0:0:
279,34,140242,6,0,P|228:104|198:198,1,181.999994445801,6|0,0:0|0:0,0:0:0:0:
134,247,140594,2,0,P|114:214|116:172,1,77.999997619629,0|10,0:0|0:2,0:0:0:0:
70,92,140829,1,0,0:0:0:0:
54,72,140946,2,0,P|29:114|18:162,1,77.999997619629,0|0,0:0|0:0,0:0:0:0:
3,352,141180,6,0,B|95:329|95:329|142:352|142:352|192:340,1,195.00000743866,6|0,0:3|0:0,0:0:0:0:
332,231,141532,1,0,0:0:0:0:
352,301,141650,2,0,L|250:327,1,97.50000371933,10|0,0:2|0:0,0:0:0:0:
316,158,141884,1,0,0:0:0:0:
316,158,142002,1,0,0:0:0:0:
297,82,142119,6,0,L|101:129,1,195.00000743866,6|0,0:0|0:0,0:0:0:0:
0,160,142471,2,0,P|91:201|187:198,1,195.00000743866,2|0,0:0|0:0,0:0:0:0:
160,291,142823,2,0,P|166:243|184:198,1,97.50000371933,2|0,0:0|0:0,0:0:0:0:
277,297,143057,6,0,B|279:281|226:292|202:354|273:377|354:361|386:324,1,208,6|0,0:3|0:0,0:0:0:0:
472,258,143409,1,0,0:0:0:0:
486,244,143527,2,0,P|431:216|379:220,1,104,8|0,0:2|0:0,0:0:0:0:
310,182,143761,2,0,P|355:140|407:131,1,104,2|0,0:0|0:0,0:0:0:0:
473,29,143996,6,0,B|459:103|396:131|396:131|340:94,1,181.999994445801,6|0,0:0|0:0,0:0:0:0:
254,26,144348,1,0,0:0:0:0:
193,105,144465,2,0,L|202:195,1,90.9999972229005,8|0,0:2|0:0,0:0:0:0:
102,114,144700,2,0,L|213:102,1,90.9999972229005,2|0,0:0|0:0,0:0:0:0:
218,326,144934,6,0,B|137:354|137:354|33:319,1,195.00000743866,6|0,0:3|0:0,0:0:0:0:
14,312,145286,1,0,0:0:0:0:
33,120,145404,2,0,L|46:223,1,97.50000371933,8|0,0:2|0:0,0:0:0:0:
149,177,145638,2,0,P|140:232|136:280,1,97.50000371933,2|0,0:0|0:0,0:0:0:0:
404,261,145873,6,0,P|326:232|242:237,1,168.999992263794,6|0,0:0|0:0,0:0:0:0:
219,247,146225,1,0,0:0:0:0:
393,344,146342,2,0,L|404:260,1,84.4999961318971,10|0,0:2|0:0,0:0:0:0:
487,364,146577,2,0,L|476:280,1,84.4999961318971,2|0,0:0|0:0,0:0:0:0:
302,228,146811,6,0,L|319:65,1,155.999995239258,6|0,0:3|0:0,0:0:0:0:
321,49,147163,1,0,0:0:0:0:
475,143,147280,1,10,0:2:0:0:
475,143,147398,1,0,0:0:0:0:
475,143,147515,2,0,P|434:158|385:161,1,77.999997619629,0|0,0:0|0:0,0:0:0:0:
227,83,147750,5,6,0:0:0:0:
212,87,147867,1,0,0:0:0:0:
189,92,147984,1,0,0:0:0:0:
174,96,148101,1,0,0:0:0:0:
96,181,148219,1,10,0:2:0:0:
130,198,148336,1,0,0:0:0:0:
149,164,148453,1,0,0:0:0:0:
114,146,148571,1,0,0:0:0:0:
20,196,148688,6,0,P|35:269|50:355,1,155.999995239258,6|0,0:3|0:0,0:0:0:0:
52,364,149040,1,0,0:0:0:0:
126,279,149157,2,0,P|211:309|300:298,1,181.999994445801,10|0,0:2|0:0,0:0:0:0:
369,244,149509,1,0,0:0:0:0:
406,168,149627,6,0,P|308:175|215:231,1,195.00000743866,6|0,0:0|0:0,0:0:0:0:
117,289,149978,1,0,0:0:0:0:
20,196,150096,2,0,P|13:151|22:99,1,90.9999972229005,10|0,0:2|0:0,0:0:0:0:
162,28,150330,2,0,P|130:60|113:102,1,90.9999972229005,0|0,0:2|0:0,0:0:0:0:
355,87,150565,5,6,0:3:0:0:
312,167,150800,5,0,0:0:0:0:
306,181,151034,1,10,0:2:0:0:
213,138,151269,1,0,0:0:0:0:
123,282,151503,6,0,L|131:197,3,65,2|0|0|0,0:0|0:0|0:0|0:0,0:0:0:0:
160,349,151973,2,0,P|115:358|76:340,1,86.6666666666667,10|0,0:0|0:0,0:0:0:0:
123,282,152285,1,0,0:2:0:0:
306,181,152442,5,6,0:3:0:0:
372,294,152677,5,0,0:0:0:0:
371,306,152911,1,10,0:2:0:0:
370,319,153146,1,0,0:0:0:0:
390,356,153380,5,2,0:0:0:0:
391,321,153497,1,0,0:0:0:0:
394,290,153614,1,0,0:0:0:0:
395,258,153731,1,0,0:0:0:0:
398,218,153850,2,0,P|430:221|458:235,2,65,10|0|0,0:2|0:0|0:0,0:0:0:0:
257,303,154319,5,6,0:3:0:0:
199,89,154553,5,0,0:0:0:0:
184,91,154788,1,10,0:2:0:0:
137,235,155023,1,0,0:0:0:0:
125,240,155257,6,0,L|116:171,1,65,2|0,0:0|0:0,0:0:0:0:
114,149,155492,2,0,P|74:152|45:169,1,65,0|0,0:0|0:0,0:0:0:0:
31,172,155726,2,0,P|34:132|57:88,2,86.6666666666667,10|0|0,0:2|0:0|0:0,0:0:0:0:
215,236,156196,5,6,0:3:0:0:
45,288,156430,5,0,0:0:0:0:
46,300,156665,1,10,0:2:0:0:
48,312,156900,1,0,0:0:0:0:
50,324,157134,6,0,L|133:307,1,65,2|0,0:0|0:0,0:0:0:0:
126,309,157369,2,0,L|109:392,1,65,0|0,0:0|0:0,0:0:0:0:
274,240,157603,5,10,0:2:0:0:
235,232,157720,1,0,0:0:0:0:
198,225,157838,2,0,L|215:308,1,65,0|0,0:0|0:0,0:0:0:0:
350,257,158073,6,0,P|361:185|376:124,1,130,6|0,0:3|0:0,0:0:0:0:
384,107,158542,1,10,0:2:0:0:
384,107,158776,6,0,L|464:127,1,65,0|0,0:0|0:0,0:0:0:0:
505,193,159011,2,0,P|466:208|431:212,1,65,2|0,0:0|0:0,0:0:0:0:
443,211,159246,1,0,0:0:0:0:
443,211,159363,1,0,0:0:0:0:
444,212,159480,2,0,L|458:306,2,86.6666666666667,10|0|0,0:2|0:0|0:0,0:0:0:0:
310,358,159950,6,0,L|292:203,1,130,6|0,0:3|0:0,0:0:0:0:
293,215,160419,1,10,0:2:0:0:
316,143,160653,6,0,P|279:142|244:155,1,65
153,304,160888,1,2,0:0:0:0:
159,306,161005,1,0,0:0:0:0:
165,308,161123,2,0,P|201:311|239:300,1,65,0|0,0:0|0:0,0:0:0:0:
246,296,161357,2,0,P|210:299|172:288,1,65,10|0,0:2|0:0,0:0:0:0:
90,237,161592,1,0,0:0:0:0:
90,237,161826,6,0,L|76:89,1,130,6|0,0:3|0:0,0:0:0:0:
77,94,162296,1,10,0:2:0:0:
292,22,162530,6,0,P|261:31|235:51,1,65
163,105,162765,2,0,P|197:117|231:147,1,65
288,194,162999,1,0,0:0:0:0:
292,210,163116,1,0,0:0:0:0:
294,222,163234,2,0,P|250:228|197:202,2,86.6666666666667,10|0|0,0:2|0:0|0:0,0:0:0:0:
490,89,163703,6,0,P|428:66|364:56,1,130,6|0,0:3|0:0,0:0:0:0:
355,59,164173,1,10,0:2:0:0:
292,156,164407,6,0,L|299:220,1,65
378,238,164642,1,2,0:0:0:0:
394,236,164759,1,0,0:0:0:0:
410,234,164876,1,0,0:0:0:0:
426,233,164993,1,0,0:0:0:0:
439,231,165111,2,0,P|435:266|433:315,1,65,10|0,0:2|0:0,0:0:0:0:
339,359,165346,2,0,P|335:324|333:275,1,65,0|0,0:0|0:0,0:0:0:0:
179,186,165580,6,0,P|244:192|304:218,1,130,6|0,0:3|0:0,0:0:0:0:
313,225,166049,1,10,0:2:0:0:
313,225,166284,6,0,P|324:193|327:151,1,65
250,112,166519,1,2,0:0:0:0:
199,121,166636,1,0,0:0:0:0:
149,90,166753,2,0,P|126:64|91:40,1,65,0|0,0:0|0:0,0:0:0:0:
84,139,166988,2,0,P|51:127|-3:122,2,86.6666666666667,10|0|0,0:2|0:0|0:0,0:0:0:0:
84,139,167457,6,0,L|98:278,1,130,6|0,0:3|0:0,0:0:0:0:
97,268,167926,1,10,0:2:0:0:
103,275,168161,6,0,L|29:256,1,65
23,340,168396,2,0,L|97:359,1,65,2|0,0:0|0:0,0:0:0:0:
160,221,168630,2,0,L|234:202,1,65,0|0,0:0|0:0,0:0:0:0:
237,277,168865,2,0,L|163:296,2,65,10|0|0,0:2|0:0|0:0,0:0:0:0:
332,259,169217,1,0,0:0:0:0:
332,259,169334,6,0,P|400:271|456:297,1,130,6|0,0:3|0:0,0:0:0:0:
464,305,169803,1,10,0:2:0:0:
482,226,170038,6,0,P|485:194|494:144,1,65
392,170,170273,1,0,0:0:0:0:
392,170,170390,1,0,0:0:0:0:
392,170,170507,2,0,P|383:139|365:102,1,65,0|0,0:0|0:0,0:0:0:0:
360,26,170742,2,0,P|405:31|436:59,2,86.6666666666667,10|0|0,0:2|0:0|0:0,0:0:0:0:
244,138,171211,6,0,P|308:133|368:109,1,130,6|0,0:3|0:0,0:0:0:0:
368,108,171680,1,10,0:2:0:0:
462,140,171915,6,0,P|457:180|443:222,1,65
332,327,172149,1,2,0:0:0:0:
382,311,172267,1,0,0:0:0:0:
409,265,172384,2,0,L|327:246,1,65,0|0,0:0|0:0,0:0:0:0:
239,134,172619,2,0,P|205:139|171:153,1,65,10|0,0:2|0:0,0:0:0:0:
141,222,172853,2,0,P|109:221|74:212,1,65,0|0,0:0|0:0,0:0:0:0:
13,175,173088,6,0,P|33:239|43:310,1,130,6|0,0:3|0:0,0:0:0:0:
42,301,173557,1,10,0:2:0:0:
49,307,173792,6,0,P|39:341|20:371,1,65
114,261,174026,2,0,P|122:292|122:324,1,65,2|0,0:0|0:0,0:0:0:0:
218,329,174261,1,0,0:0:0:0:
223,283,174378,1,0,0:0:0:0:
227,238,174496,2,0,P|259:230|322:232,2,86.6666666666667,10|0|0,0:2|0:0|0:0,0:0:0:0:
440,139,174965,6,0,P|375:143|312:120,1,130,6|0,0:3|0:0,0:0:0:0:
314,121,175434,1,10,0:2:0:0:
240,89,175669,2,0,L|247:153,1,65
411,264,175903,5,2,0:0:0:0:
410,283,176021,1,0,0:0:0:0:
408,302,176138,1,0,0:0:0:0:
407,321,176255,1,0,0:0:0:0:
404,340,176372,2,0,P|435:346|476:351,1,65,10|0,0:2|0:0,0:0:0:0:
309,315,176607,2,0,P|283:336|245:351,1,65
98,297,176842,6,0,P|174:295|257:261,1,143.000004364014,6|0,0:3|0:0,0:0:0:0:
240,276,177311,1,10,0:2:0:0:
240,276,177546,6,0,P|235:235|215:199,1,71.5000021820069
51,176,177780,2,0,P|80:195|115:202,1,71.5000021820069,2|0,0:0|0:0,0:0:0:0:
207,50,178015,1,0,0:0:0:0:
245,62,178132,1,0,0:0:0:0:
279,94,178249,6,0,P|326:91|371:77,2,95.3333362426759,10|0|0,0:2|0:0|0:0,0:0:0:0:
465,193,178719,6,0,B|426:174|428:241|339:216|426:300|272:281|257:193|299:145|351:134|381:149|377:207|417:137,1,312,6|0,0:3|0:0,0:0:0:0:
401,57,179657,6,0,L|485:86,3,65,2|0|0|0,0:0|0:0|0:0|0:0,0:0:0:0:
331,171,180126,2,0,P|370:156|423:159,1,77.999997619629,10|0,0:2|0:0,0:0:0:0:
314,253,180361,2,0,P|340:220|387:194,1,84.4999961318971
468,333,180595,6,0,B|415:370|369:349|369:349|363:346|363:346|291:301|291:301|285:298|285:298|224:266|184:301,1,311.999990478516,6|0,0:0|0:0,0:0:0:0:
139,353,182003,6,0,L|117:178,1,175.499994644165,2|0,0:0|0:0,0:0:0:0:
114,152,182472,2,0,B|173:193|248:182|248:182|274:162|314:154,1,208,2|0,0:0|0:0,0:0:0:0:
320,152,183176,1,2,0:0:0:0:
479,334,183411,6,0,P|404:352|333:323,2,156,6|6|6,0:0|0:0|0:0,0:0:0:0:
479,334,184349,2,0,P|472:266|449:182,1,130,6|0,0:0|0:0,0:0:0:0:
461,210,185053,1,2,0:0:0:0:
461,210,185288,2,0,P|323:223|203:156,1,272.999991668701,2|0,0:0|0:0,0:0:0:0:
208,161,186226,2,0,P|299:88|262:199,1,312,2|0,0:0|0:0,0:0:0:0:
171,32,187165,5,2,0:0:0:0:
101,114,187399,1,0,0:0:0:0:
101,114,187517,1,0,0:0:0:0:
143,210,187751,1,0,0:0:0:0:
143,210,187869,1,0,0:0:0:0:
316,342,188103,6,0,B|207:356|207:356|208:271|275:238|361:268,1,286.000008728028,6|0,0:0|0:0,0:0:0:0:
327,263,188807,1,2,0:0:0:0:
327,263,189042,6,0,B|396:299|439:273|468:223|468:223|425:194|394:216,1,233.999992858887,2|0,0:0|0:0,0:0:0:0:
248,229,189745,1,2,0:0:0:0:
248,229,189980,6,0,B|146:251|90:176|90:176|131:126|195:164,1,286.000008728028,6|0,0:0|0:0,0:0:0:0:
326,87,190684,1,2,0:0:0:0:
326,87,190918,6,0,P|412:90|485:43,2,175.499994644165,6|6|6,0:0|0:0|0:0,0:0:0:0:
152,43,191857,6,0,L|160:113,1,65,2|0,0:0|0:0,0:0:0:0:
121,61,192092,2,0,L|128:128,1,58.4999982147217,2|0,0:0|0:0,0:0:0:0:
86,214,192326,6,0,P|51:213|10:199,1,65,2|0,0:0|0:0,0:0:0:0:
100,193,192561,2,0,P|77:180|57:163,1,52,2|0,0:0|0:0,0:0:0:0:
186,201,192795,6,0,P|177:238|176:275,1,65,2|0,0:0|0:0,0:0:0:0:
199,210,193030,2,0,P|200:240|206:272,1,45.4999986114502,2|0,0:0|0:0,0:0:0:0:
291,300,193265,6,0,P|300:263|301:226,1,65,2|0,0:0|0:0,0:0:0:0:
278,291,193500,2,0,P|277:261|271:229,1,38.9999988098145,2|0,0:0|0:0,0:0:0:0:
478,320,193734,6,0,P|429:347|350:345,1,130,2|0,0:0|0:0,0:0:0:0:
343,346,194086,2,0,P|392:319|481:321,1,143.000004364014,2|0,0:0|0:0,0:0:0:0:
490,326,194438,1,2,0:0:0:0:
341,177,194672,5,2,0:0:0:0:
371,170,194790,1,0,0:0:0:0:
408,177,194907,1,0,0:0:0:0:
444,195,195024,1,0,0:0:0:0:
487,248,195142,2,0,P|477:221|474:192,1,58.4999982147217,2|0,0:0|0:0,0:0:0:0:
475,110,195376,2,0,P|485:82|489:33,1,71.5000021820069,2|0,0:0|0:0,0:0:0:0:
364,82,195611,6,0,B|284:139|195:109|195:109|216:50|281:47,1,286.000008728028,6|0,0:3|0:0,0:0:0:0:
275,47,196315,2,0,P|272:90|264:136,1,71.5000021820069,0|0,0:0|0:0,0:0:0:0:
124,142,196549,2,0,P|105:110|95:76,1,71.5000021820069
114,154,196784,2,0,P|78:145|47:127,1,71.5000021820069
9,231,197018,2,0,P|79:262|156:257,1,155.999995239258,2|0,0:0|0:0,0:0:0:0:
303,278,197488,6,0,B|298:303|278:324|278:324|158:360|158:360|184:292|150:246,1,286.000008728028,6|0,0:3|0:0,0:0:0:0:
98,182,198191,1,2,0:0:0:0:
221,219,198426,6,0,P|256:213|287:197,2,71.5000021820069,2|0|2,0:0|0:0|0:0,0:0:0:0:
346,141,198778,2,0,P|315:125|279:117,2,71.5000021820069,0|0|0,0:0|0:0|0:0,0:0:0:0:
395,72,199130,2,0,P|413:98|425:131,1,58.4999982147217,0|0,0:0|0:0,0:0:0:0:
474,183,199365,6,0,L|443:312,1,130,6|0,0:3|0:0,0:0:0:0:
356,239,199834,1,0,0:0:0:0:
358,251,200068,2,0,L|368:338,1,65,2|0,0:0|0:0,0:0:0:0:
290,355,200303,2,0,L|281:279,1,71.5000021820069,2|0,0:0|0:0,0:0:0:0:
199,258,200538,2,0,L|208:334,1,71.5000021820069
270,191,200772,2,0,P|204:166|133:168,1,143.000004364014,0|0,0:0|0:0,0:0:0:0:
33,255,201241,5,6,0:3:0:0:
33,255,201476,2,0,L|121:242,1,77.999997619629
132,168,201711,2,0,L|209:156,1,77.999997619629
199,315,201945,2,0,L|111:328,1,77.999997619629,0|0,0:0|0:0,0:0:0:0:
46,340,202180,6,0,B|21:169,1,155.999995239258,2|0,0:0|0:0,0:0:0:0:
8,93,202532,2,0,P|87:92|169:143,1,155.999995239258,2|0,0:0|0:0,0:0:0:0:
153,127,202884,1,2,0:0:0:0:
116,219,203118,6,0,B|204:245|286:176|286:176|349:204|328:249|272:231,1,286.000008728028,6|0,0:3|0:0,0:0:0:0:
293,238,203822,1,0,0:0:0:0:
293,238,204057,2,0,L|303:324,1,71.5000021820069,2|0,0:0|0:0,0:0:0:0:
233,361,204291,6,0,L|223:275,1,71.5000021820069
363,187,204526,2,0,L|372:258,1,71.5000021820069,0|0,0:0|0:0,0:0:0:0:
404,337,204761,2,0,P|440:351|483:344,1,71.5000021820069
447,270,204995,6,0,B|481:54|481:54|436:37|377:75,1,311.999990478516,6|0,0:3|0:0,0:0:0:0:
395,70,205699,1,2,0:0:0:0:
395,70,205934,2,0,P|326:97|250:95,1,130,2|0,0:0|0:0,0:0:0:0:
253,97,206286,2,0,P|256:159|269:240,1,130,2|0,0:0|0:0,0:0:0:0:
281,242,206638,2,0,P|280:283|273:330,1,65,2|0,0:0|0:0,0:0:0:0:
156,352,206872,6,0,L|149:277,1,65,6|0,0:3|0:0,0:0:0:0:
172,355,207107,2,0,L|184:280,1,65,0|0,0:0|0:0,0:0:0:0:
58,270,207341,6,0,P|47:241|42:199,1,65,2|0,0:0|0:0,0:0:0:0:
140,212,207576,2,0,P|143:181|137:139,1,65,0|0,0:0|0:0,0:0:0:0:
33,31,207811,6,0,P|20:66|13:105,1,65,2|0,0:0|0:0,0:0:0:0:
205,11,208045,2,0,P|226:42|243:77,1,65,0|0,0:0|0:0,0:0:0:0:
153,148,208280,6,0,P|143:178|139:211,1,65,2|0,0:0|0:0,0:0:0:0:
281,176,208514,2,0,P|290:206|294:239,1,65,0|0,0:0|0:0,0:0:0:0:
218,284,208749,6,0,P|221:327|231:374,1,71.5000021820069,6|0,0:3|0:0,0:0:0:0:
250,301,208984,2,0,P|253:336|245:371,1,71.5000021820069,0|0,0:0|0:0,0:0:0:0:
364,285,209218,6,0,P|372:253|377:203,1,71.5000021820069,2|0,0:0|0:0,0:0:0:0:
464,323,209453,2,0,P|456:291|451:241,1,71.5000021820069,0|0,0:0|0:0,0:0:0:0:
449,66,209688,6,0,B|498:79|498:138|498:138|416:184|326:95|326:95|261:152|167:128,1,455,2|0,0:0|0:0,0:0:0:0:
55,55,210626,5,6,0:3:0:0:
93,170,210861,1,0,0:0:0:0:
21,265,211095,2,0,L|31:342,3,65,8|0|0|0,0:2|0:0|0:0|0:0,0:0:0:0:
20,251,211564,6,0,P|86:253|147:291,1,130,4|0,0:0|0:0,0:0:0:0:
189,345,211916,1,4,0:0:0:0:
308,222,212190,5,4,0:0:0:0:
468,360,212503,6,0,P|474:289|486:182,1,155.999995239258,6|0,0:3|0:0,0:0:0:0:
486,178,212972,1,8,0:2:0:0:
354,156,213207,1,0,0:0:0:0:
498,28,213441,6,0,P|468:39|423:47,1,65,4|0,0:0|0:0,0:0:0:0:
354,156,213676,2,0,P|324:145|279:137,1,65,4|0,0:0|0:0,0:0:0:0:
194,88,213911,1,12,0:2:0:0:
194,88,214028,1,0,0:0:0:0:
194,88,214145,2,0,L|206:166,1,65,4|0,0:0|0:0,0:0:0:0:
18,293,214380,6,0,B|72:268|118:312|118:312|154:277|186:274|186:274|195:338|247:347|247:347|269:342|285:327,1,311.999990478516,6|8,0:3|0:2,0:0:0:0:
266,340,215084,2,0,L|276:270,1,65,0|0,0:0|0:0,0:0:0:0:
285,198,215318,5,4,0:0:0:0:
209,85,215553,1,4,0:0:0:0:
209,85,215670,1,4,0:0:0:0:
68,141,215944,5,4,0:0:0:0:
127,326,216257,6,0,B|58:351|58:351|63:349|63:349|19:240|19:240|17:246|17:246|119:206,1,311.999990478516,6|8,0:3|0:2,0:0:0:0:
119,206,216961,1,0,0:0:0:0:
79,53,217195,5,4,0:0:0:0:
79,53,217312,1,0,0:0:0:0:
79,53,217430,2,0,L|0:43,1,65,4|0,0:0|0:0,0:0:0:0:
99,126,217664,2,0,L|178:116,1,65,12|0,0:2|0:0,0:0:0:0:
279,204,217899,2,0,L|200:194,1,65,4|0,0:0|0:0,0:0:0:0:
198,324,218134,6,0,B|362:345|362:345|369:268|369:268|453:277,1,311.999990478516,6|8,0:3|0:2,0:0:0:0:
437,275,218837,2,0,L|425:200,1,65,0|0,0:0|0:0,0:0:0:0:
410,89,219072,5,4,0:0:0:0:
317,189,219307,1,4,0:0:0:0:
317,189,219424,1,4,0:0:0:0:
187,122,219698,5,4,0:0:0:0:
290,22,220011,6,0,P|185:131|196:282,1,311.999990478516,6|8,0:3|0:2,0:0:0:0:
201,294,220714,2,0,L|287:313,1,65,0|0,0:0|0:0,0:0:0:0:
417,305,220949,5,6,0:3:0:0:
405,297,221066,1,0,0:0:0:0:
392,291,221184,1,4,0:0:0:0:
379,290,221301,1,0,0:0:0:0:
366,291,221418,2,0,L|358:371,1,65,12|0,0:2|0:0,0:0:0:0:
264,308,221653,2,0,L|271:227,1,65,4|0,0:0|0:0,0:0:0:0:
398,64,221887,6,0,B|308:98|308:98|313:96|313:96|348:194|348:194|341:196|341:196|435:163,1,311.999990478516,6|8,0:3|0:2,0:0:0:0:
468,174,222591,2,0,L|383:202,1,65,0|0,0:0|0:0,0:0:0:0:
313,99,222826,5,4,0:0:0:0:
210,202,223061,1,4,0:0:0:0:
210,202,223178,1,4,0:0:0:0:
271,325,223452,5,4,0:0:0:0:
245,52,223764,6,0,B|223:129|223:129|223:129|223:129|77:79|77:79|80:78|80:78|52:165,1,311.999990478516,6|8,0:3|0:2,0:0:0:0:
57,162,224468,2,0,L|119:183,1,65,0|0,0:0|0:0,0:0:0:0:
177,238,224703,6,0,P|142:256|104:261,1,77.999997619629,4|0,0:0|0:0,0:0:0:0:
263,185,224937,2,0,P|228:166|192:160,1,65,4|0,0:0|0:0,0:0:0:0:
263,353,225172,6,0,P|249:314|247:272,1,84.4999961318971,12|0,0:2|0:0,0:0:0:0:
398,305,225407,2,0,P|412:265|414:215,1,65,4|0,0:0|0:0,0:0:0:0:
282,111,225641,6,0,P|272:62|258:24,1,90.9999972229005,6|0,0:3|0:0,0:0:0:0:
309,120,225876,2,0,P|320:89|326:58,1,65,4|0,0:0|0:0,0:0:0:0:
406,172,226110,6,0,P|443:149|479:105,1,90.9999972229005,14|0,0:2|0:0,0:0:0:0:
412,186,226345,2,0,P|440:202|471:213,1,65,4|0,0:0|0:0,0:0:0:0:
393,316,226580,6,0,L|300:301,1,90.9999972229005,6|0,0:3|0:0,0:0:0:0:
130,330,226814,5,4,0:0:0:0:
60,292,226932,1,0,0:0:0:0:
53,210,227049,2,0,P|60:164|77:112,1,90.9999972229005,14|0,0:2|0:0,0:0:0:0:
162,121,227284,2,0,P|155:75|137:17,1,84.4999961318971,4|0,0:0|0:0,0:0:0:0:
10,271,227518,6,0,P|13:315|26:358,1,71.5000021820069,6|0,0:3|0:0,0:0:0:0:
26,357,227753,2,0,P|70:354|122:341,1,84.4999961318971,4|0,0:0|0:0,0:0:0:0:
311,201,227987,6,0,P|308:236|300:274,1,71.5000021820069,14|0,0:2|0:0,0:0:0:0:
212,262,228222,2,0,P|214:226|224:178,1,84.4999961318971,4|0,0:0|0:0,0:0:0:0:
376,132,228457,6,0,P|333:116|288:110,1,90.9999972229005,6|0,0:3|0:0,0:0:0:0:
121,193,228691,5,4,0:0:0:0:
42,252,228809,1,0,0:0:0:0:
18,353,228926,2,0,P|61:356|113:370,1,90.9999972229005,14|0,0:2|0:0,0:0:0:0:
123,372,229160,2,0,L|139:289,1,84.4999961318971,4|0,0:0|0:0,0:0:0:0:
15,143,229395,6,0,L|79:131,1,65,6|0,0:3|0:0,0:0:0:0:
101,61,229630,2,0,P|140:66|178:75,1,77.999997619629,4|0,0:0|0:0,0:0:0:0:
199,211,229864,6,0,P|236:220|270:225,1,65,14|0,0:2|0:0,0:0:0:0:
282,200,230099,2,0,L|358:186,1,77.999997619629,4|0,0:0|0:0,0:0:0:0:
466,341,230334,6,0,P|417:341|378:321,1,84.4999961318971,6|0,0:3|0:0,0:0:0:0:
454,246,230568,5,4,0:0:0:0:
450,213,230685,1,0,0:0:0:0:
446,184,230803,2,0,P|438:141|433:92,1,84.4999961318971,14|0,0:2|0:0,0:0:0:0:
260,34,231037,2,0,P|255:77|248:116,1,77.999997619629,4|0,0:0|0:0,0:0:0:0:
158,290,231272,6,0,P|121:301|75:300,1,71.5000021820069,6|0,0:3|0:0,0:0:0:0:
21,240,231507,2,0,P|58:229|112:230,1,84.4999961318971,4|0,0:0|0:0,0:0:0:0:
205,357,231741,6,0,P|242:368|287:367,1,71.5000021820069,14|0,0:2|0:0,0:0:0:0:
327,297,231976,2,0,P|290:286|240:289,1,84.4999961318971,4|0,0:0|0:0,0:0:0:0:
103,228,232210,6,0,P|80:187|70:133,1,90.9999972229005,6|0,0:3|0:0,0:0:0:0:
124,40,232445,5,4,0:0:0:0:
239,25,232562,1,0,0:0:0:0:
337,94,232680,2,0,P|300:121|276:159,1,90.9999972229005,14|0,0:2|0:0,0:0:0:0:
432,233,232914,2,0,P|390:228|349:237,1,84.4999961318971,0|0,0:0|0:0,0:0:0:0:
241,338,233149,6,0,L|228:252,1,65,6|0,0:3|0:0,0:0:0:0:
339,314,233383,2,0,P|343:272|354:214,1,77.999997619629,4|0,0:0|0:0,0:0:0:0:
496,183,233618,6,0,L|509:97,1,65,14|0,0:2|0:0,0:0:0:0:
392,121,233852,2,0,P|390:81|376:24,1,77.999997619629,4|0,0:0|0:0,0:0:0:0:
276,215,234087,6,0,P|270:182|270:146,1,65,6|0,0:3|0:0,0:0:0:0:
132,95,234322,5,4,0:0:0:0:
50,121,234439,1,0,0:0:0:0:
20,201,234557,2,0,P|36:246|42:295,1,84.4999961318971,14|0,0:2|0:0,0:0:0:0:
117,259,234791,2,0,P|117:297|101:333,1,77.999997619629,4|0,0:0|0:0,0:0:0:0:
100,333,235026,6,0,L|192:320,1,71.5000021820069,6|0,0:3|0:0,0:0:0:0:
334,352,235260,2,0,L|251:341,1,84.4999961318971,4|0,0:0|0:0,0:0:0:0:
413,277,235495,6,0,P|373:276|334:263,1,71.5000021820069,14|0,0:2|0:0,0:0:0:0:
274,123,235730,2,0,L|266:208,1,84.4999961318971,4|0,0:0|0:0,0:0:0:0:
366,85,235964,6,0,P|359:50|349:16,1,71.5000021820069,6|0,0:3|0:0,0:0:0:0:
458,137,236199,5,4,0:0:0:0:
368,184,236316,1,0,0:0:0:0:
266,207,236433,2,0,P|263:254|256:293,1,84.4999961318971,14|0,0:2|0:0,0:0:0:0:
342,267,236668,2,0,P|348:312|357:349,1,77.999997619629,4|0,0:0|0:0,0:0:0:0:
176,353,236903,6,0,L|166:267,1,65,6|0,0:3|0:0,0:0:0:0:
165,265,237137,2,0,L|71:276,1,77.999997619629,4|0,0:0|0:0,0:0:0:0:
12,281,237372,6,0,L|4:217,1,65,14|0,0:2|0:0,0:0:0:0:
2,200,237607,2,0,L|102:188,1,77.999997619629,4|0,0:0|0:0,0:0:0:0:
198,116,237841,6,0,P|167:94|139:60,1,65,6|0,0:3|0:0,0:0:0:0:
350,33,238076,5,4,0:0:0:0:
440,74,238193,1,0,0:0:0:0:
495,159,238310,2,0,P|462:185|440:221,1,84.4999961318971,14|0,0:2|0:0,0:0:0:0:
375,172,238545,2,0,P|360:211|360:245,1,77.999997619629,4|0,0:0|0:0,0:0:0:0:
423,306,238780,6,0,L|493:316,1,71.5000021820069,6|0,0:3|0:0,0:0:0:0:
512,343,239014,2,0,L|428:328,1,84.4999961318971,4|0,0:0|0:0,0:0:0:0:
275,239,239249,6,0,L|198:251,1,71.5000021820069,14|0,0:2|0:0,0:0:0:0:
129,347,239483,2,0,L|217:333,1,84.4999961318971,4|0,0:0|0:0,0:0:0:0:
351,128,239718,6,0,P|348:163|343:199,1,71.5000021820069,6|0,0:3|0:0,0:0:0:0:
240,55,239953,6,0,P|261:92|277:132,1,84.4999961318971,6|0,0:3|0:0,0:0:0:0:
87,72,240187,6,0,P|129:94|165:127,1,97.50000371933,14|0,0:3|0:0,0:0:0:0:
1,308,240422,6,0,P|44:273|96:253,1,110.50000210762,6|0,0:3|0:0,0:0:0:0:
308,352,240656,6,0,B|236:372|182:321|182:321|209:255|289:249,1,272.999991668701,6|0,0:3|0:0,0:0:0:0:
307,252,241126,2,0,P|352:260|398:277,1,90.9999972229005,10|0,0:2|0:0,0:0:0:0:
351,128,241360,2,0,P|301:133|261:155,1,90.9999972229005,0|0,0:0|0:0,0:0:0:0:
62,73,241595,6,0,P|80:159|100:274,1,181.999994445801,6|4,0:3|0:0,0:0:0:0:
100,269,241947,1,0,0:0:0:0:
180,253,242064,2,0,P|189:209|193:164,1,90.9999972229005,14|0,0:2|0:0,0:0:0:0:
13,261,242299,2,0,P|17:307|26:351,1,90.9999972229005,4|0,0:0|0:0,0:0:0:0:
155,333,242533,6,0,P|246:332|328:288,1,181.999994445801,6|0,0:3|0:0,0:0:0:0:
390,242,242885,1,0,0:0:0:0:
299,129,243003,2,0,L|321:228,1,90.9999972229005,10|0,0:2|0:0,0:0:0:0:
461,265,243237,2,0,P|455:310|440:352,1,90.9999972229005,0|0,0:0|0:0,0:0:0:0:
437,58,243472,5,6,0:3:0:0:
396,64,243589,1,0,0:0:0:0:
359,76,243706,1,4,0:0:0:0:
329,100,243824,1,0,0:0:0:0:
299,129,243941,2,0,P|252:114|216:79,1,97.50000371933,14|0,0:2|0:0,0:0:0:0:
116,116,244176,2,0,L|95:1,1,97.50000371933,4|0,0:0|0:0,0:0:0:0:
13,247,244410,6,0,P|107:264|206:291,1,181.999994445801,6|0,0:3|0:0,0:0:0:0:
315,343,244762,1,0,0:0:0:0:
308,326,244880,2,0,P|292:284|271:244,1,90.9999972229005,10|0,0:2|0:0,0:0:0:0:
409,316,245114,2,0,P|446:343|480:374,1,90.9999972229005,0|0,0:0|0:0,0:0:0:0:
474,82,245349,6,0,P|384:99|298:128,1,181.999994445801,6|4,0:3|0:0,0:0:0:0:
213,188,245701,1,0,0:0:0:0:
193,188,245818,2,0,P|140:181|93:166,1,90.9999972229005,14|0,0:2|0:0,0:0:0:0:
20,26,246053,2,0,P|41:72|60:116,1,90.9999972229005,4|0,0:0|0:0,0:0:0:0:
218,106,246287,6,0,P|192:199|180:292,1,181.999994445801,6|0,0:3|0:0,0:0:0:0:
181,301,246639,1,0,0:0:0:0:
103,274,246756,2,0,P|58:281|14:292,1,90.9999972229005,10|0,0:2|0:0,0:0:0:0:
30,368,246991,2,0,P|75:361|120:351,1,90.9999972229005,0|0,0:0|0:0,0:0:0:0:
262,289,247226,6,0,L|276:189,1,84.4999961318971,6|0,0:3|0:0,0:0:0:0:
357,182,247460,2,0,L|344:275,1,90.9999972229005,6|0,0:3|0:0,0:0:0:0:
253,50,247695,6,0,P|301:38|359:37,1,97.50000371933,14|0,0:2|0:0,0:0:0:0:
500,96,247930,2,0,P|454:109|388:110,1,90.9999972229005,6|0,0:3|0:0,0:0:0:0:
202,216,248164,6,0,P|118:210|42:173,1,168.999992263794,6|0,0:3|0:0,0:0:0:0:
62,55,248516,1,0,0:0:0:0:
90,32,248633,2,0,P|116:71|135:114,1,84.4999961318971,10|0,0:2|0:0,0:0:0:0:
224,134,248868,2,0,P|215:175|202:215,1,84.4999961318971,0|0,0:0|0:0,0:0:0:0:
389,324,249103,6,0,P|315:279|227:297,1,168.999992263794,6|4,0:3|0:0,0:0:0:0:
215,306,249454,1,0,0:0:0:0:
109,357,249572,5,14,0:2:0:0:
109,357,249689,1,0,0:0:0:0:
109,357,249806,2,0,B|65:356|32:328,1,84.4999961318971,4|0,0:0|0:0,0:0:0:0:
0,164,250041,6,0,P|63:208|172:240,1,168.999992263794,6|0,0:3|0:0,0:0:0:0:
277,199,250393,1,0,0:0:0:0:
340,140,250510,2,0,B|379:149|385:184|385:184|336:226|273:197,1,181.999994445801,10|0,0:2|0:0,0:0:0:0:
174,134,250862,1,0,0:0:0:0:
246,22,250979,6,0,P|252:72|259:130,1,97.50000371933,6|0,0:3|0:0,0:0:0:0:
277,199,251214,2,0,P|269:251|264:295,1,97.50000371933,4|0,0:0|0:0,0:0:0:0:
126,352,251449,2,0,B|202:306|202:306|318:331,1,208,14|4,0:2|0:0,0:0:0:0:
403,269,251801,1,0,0:0:0:0:
498,309,251918,6,0,B|421:354|421:354|310:329,1,195.00000743866,6|0,0:3|0:0,0:0:0:0:
204,308,252270,1,0,0:0:0:0:
71,281,252387,2,0,P|58:232|49:175,1,97.50000371933,10|0,0:2|0:0,0:0:0:0:
46,166,252622,2,0,P|94:153|152:144,1,97.50000371933,0|0,0:0|0:0,0:0:0:0:
313,24,252856,6,0,L|334:125,1,97.50000371933,6|0,0:3|0:0,0:0:0:0:
338,148,253091,2,0,L|242:168,1,97.50000371933,4|0,0:0|0:0,0:0:0:0:
162,261,253326,2,0,L|363:217,1,195.00000743866,14|0,0:2|0:0,0:0:0:0:
459,150,253678,5,0,0:0:0:0:
459,150,253736,1,0,0:0:0:0:
459,150,253795,2,0,L|450:253,1,84.4999961318971,6|0,0:3|0:0,0:0:0:0:
442,309,254029,2,0,L|358:297,1,84.4999961318971,0|0,0:0|0:0,0:0:0:0:
258,285,254264,1,8,0:2:0:0:
258,285,254499,6,0,P|214:301|161:304,1,84.4999961318971,0|0,0:0|0:0,0:0:0:0:
88,347,254733,2,0,P|72:303|69:255,1,71.5000021820069,6|0,0:3|0:0,0:0:0:0:
137,220,254968,6,0,P|106:255|58:284,1,90.9999972229005,6|0,0:3|0:0,0:0:0:0:
206,100,255203,6,0,P|189:54|187:-6,1,97.50000371933,14|0,0:2|0:0,0:0:0:0:
294,201,255437,6,0,P|340:209|395:238,1,104,6|0,0:3|0:0,0:0:0:0:
504,307,255672,6,0,B|367:360|367:360|246:316,1,253.499988395691,6|0,0:3|0:0,0:0:0:0:
243,313,256141,2,0,L|72:345,1,168.999992263794,10|0,0:2|0:0,0:0:0:0:
2,262,256493,1,0,0:0:0:0:
8,240,256610,6,0,P|58:246|95:266,1,90.9999972229005,6|0,0:0|0:0,0:0:0:0:
226,222,256845,1,0,0:0:0:0:
202,235,256962,1,0,0:0:0:0:
174,237,257079,2,0,P|160:146|143:57,1,181.999994445801,10|0,0:2|0:0,0:0:0:0:
139,39,257431,1,0,0:0:0:0:
237,135,257549,6,0,P|321:148|404:166,1,168.999992263794,6|0,0:3|0:0,0:0:0:0:
505,94,257901,1,0,0:0:0:0:
477,182,258018,2,0,L|460:86,1,84.4999961318971,8|0,0:2|0:0,0:0:0:0:
421,245,258252,2,0,P|414:282|407:329,1,84.4999961318971,2|0,0:0|0:0,0:0:0:0:
502,359,258487,6,0,P|421:333|338:316,1,168.999992263794,6|0,0:0|0:0,0:0:0:0:
245,269,258839,1,0,0:0:0:0:
224,254,258956,2,0,P|183:272|134:279,1,84.4999961318971,10|0,0:2|0:0,0:0:0:0:
79,186,259191,2,0,L|68:275,1,84.4999961318971,2|0,0:0|0:0,0:0:0:0:
44,361,259426,6,0,P|33:283|15:207,1,155.999995239258,6|0,0:3|0:0,0:0:0:0:
65,111,259777,1,0,0:0:0:0:
88,102,259895,2,0,B|128:108|154:133|154:133|197:104|252:94,1,155.999995239258,10|0,0:2|0:0,0:0:0:0:
347,64,260247,1,0,0:0:0:0:
373,55,260364,6,0,L|283:37,1,77.999997619629,4|0,0:0|0:0,0:0:0:0:
392,142,260599,1,0,0:0:0:0:
392,142,260716,1,0,0:0:0:0:
392,142,260833,2,0,L|302:124,1,77.999997619629,10|0,0:2|0:0,0:0:0:0:
203,194,261068,2,0,P|209:236|215:278,1,77.999997619629,0|0,0:0|0:0,0:0:0:0:
333,372,261302,6,0,P|345:295|356:197,1,155.999995239258,6|0,0:3|0:0,0:0:0:0:
462,146,261654,1,0,0:0:0:0:
470,131,261772,2,0,P|394:109|357:107,1,77.999997619629,10|0,0:2|0:0,0:0:0:0:
291,63,262006,2,0,P|367:41|404:39,1,77.999997619629,0|0,0:0|0:0,0:0:0:0:
161,25,262241,6,0,P|169:69|176:116,1,84.4999961318971,6|0,0:3|0:0,0:0:0:0:
178,131,262476,2,0,P|135:140|90:146,1,77.999997619629,6|0,0:3|0:0,0:0:0:0:
0,262,262710,6,0,P|36:282|78:286,1,84.4999961318971,14|0,0:2|0:0,0:0:0:0:
102,357,262945,2,0,P|140:342|179:300,1,77.999997619629,6|0,0:3|0:0,0:0:0:0:
342,227,263179,6,0,B|270:260|270:260|147:226,1,168.999992263794,6|0,0:3|0:0,0:0:0:0:
384,342,263531,1,0,0:0:0:0:
406,355,263649,2,0,P|416:262|431:163,1,168.999992263794,10|0,0:2|0:0,0:0:0:0:
475,83,264001,1,0,0:0:0:0:
476,63,264118,6,0,P|428:74|380:89,1,90.9999972229005,6|0,0:0|0:0,0:0:0:0:
238,58,264352,2,0,P|285:46|333:31,1,90.9999972229005,0|0,0:0|0:0,0:0:0:0:
429,170,264587,2,0,P|376:164|329:152,1,90.9999972229005,10|0,0:2|0:0,0:0:0:0:
166,202,264821,1,0,0:0:0:0:
173,236,264938,1,0,0:0:0:0:
178,269,265056,6,0,B|87:287|87:287|-1:247,1,168.999992263794,6|0,0:3|0:0,0:0:0:0:
2,247,265408,1,0,0:0:0:0:
90,67,265526,2,0,P|51:46|-12:38,1,84.4999961318971,8|0,0:2|0:0,0:0:0:0:
153,135,265760,1,2,0:0:0:0:
153,135,265877,1,0,0:0:0:0:
153,135,265995,6,0,P|237:106|347:93,1,168.999992263794,6|2,0:0|0:0,0:0:0:0:
425,139,266347,1,0,0:0:0:0:
443,152,266464,2,0,L|429:247,1,84.4999961318971,10|0,0:2|0:0,0:0:0:0:
319,239,266699,2,0,P|325:280|331:322,1,84.4999961318971,2|0,0:0|0:0,0:0:0:0:
501,366,266933,6,0,P|421:323|331:323,1,181.999994445801,6|0,0:3|0:0,0:0:0:0:
193,277,267285,1,0,0:0:0:0:
157,288,267402,2,0,P|204:309|269:317,1,90.9999972229005,10|0,0:2|0:0,0:0:0:0:
124,212,267637,2,0,P|78:215|35:230,1,90.9999972229005,0|0,0:0|0:0,0:0:0:0:
240,149,267872,5,6,0:0:0:0:
244,126,267989,1,0,0:0:0:0:
248,104,268106,1,2,0:0:0:0:
253,82,268223,1,0,0:0:0:0:
257,64,268341,2,0,L|155:95,1,90.9999972229005,10|0,0:2|0:0,0:0:0:0:
31,52,268575,2,0,L|133:21,1,90.9999972229005,0|0,0:0|0:0,0:0:0:0:
345,90,268810,6,0,B|380:143|380:143|363:284,1,181.999994445801,6|0,0:3|0:0,0:0:0:0:
364,278,269162,1,0,0:0:0:0:
233,225,269279,2,0,P|239:278|247:322,1,90.9999972229005,8|0,0:2|0:0,0:0:0:0:
167,355,269514,2,0,P|161:302|153:258,1,90.9999972229005,0|0,0:0|0:0,0:0:0:0:
6,185,269749,6,0,P|48:201|93:204,1,90.9999972229005,6|0,0:3|0:0,0:0:0:0:
237,111,269983,2,0,P|194:94|149:91,1,90.9999972229005,6|0,0:3|0:0,0:0:0:0:
36,44,270218,6,0,P|78:29|123:21,1,90.9999972229005,14|0,0:2|0:0,0:0:0:0:
237,111,270452,2,0,P|281:123|326:125,1,90.9999972229005,6|0,0:3|0:0,0:0:0:0:
491,30,270687,6,0,P|434:118|399:232,1,214.500006546021,6|0,0:3|0:0,0:0:0:0:
399,251,271156,2,0,L|308:238,1,71.5000021820069,10|0,0:2|0:0,0:0:0:0:
390,324,271391,2,0,L|461:335,1,71.5000021820069,2|0,0:0|0:0,0:0:0:0:
210,356,271625,6,0,P|199:273|182:172,1,155.999995239258,6|0,0:0|0:0,0:0:0:0:
187,201,271977,1,0,0:0:0:0:
187,201,272095,2,0,L|32:221,1,155.999995239258,10|2,0:2|0:0,0:0:0:0:
140,96,272564,6,0,P|216:94|277:146,1,155.999995239258,6|0,0:3|0:0,0:0:0:0:
290,169,272916,1,0,0:0:0:0:
290,169,273033,2,0,L|303:72,1,77.999997619629,8|0,0:2|0:0,0:0:0:0:
369,35,273268,2,0,P|380:76|384:133,1,84.4999961318971,2|0,0:0|0:0,0:0:0:0:
428,272,273502,6,0,B|355:283|355:283|268:244,1,168.999992263794,6|0,0:0|0:0,0:0:0:0:
191,184,273854,2,0,L|215:361,1,168.999992263794,2|0,0:0|0:0,0:0:0:0:
213,351,274206,2,0,L|312:337,1,84.4999961318971,2|0,0:0|0:0,0:0:0:0:
92,284,274441,6,0,P|56:289|-3:310,2,77.999997619629,6|0|0,0:3|0:0|0:0,0:0:0:0:
96,288,274910,1,8,0:0:0:0:
96,288,275145,2,0,L|85:191,1,77.999997619629,2|0,0:0|0:0,0:0:0:0:
48,64,275379,5,6,0:0:0:0:
128,34,275614,1,0,0:0:0:0:
152,116,275848,2,0,P|187:127|221:132,2,71.5000021820069,8|0|0,0:2|0:0|0:0,0:0:0:0:
152,116,276318,5,6,0:3:0:0:
152,116,276435,1,0,0:0:0:0:
152,116,276552,1,0,0:0:0:0:
113,208,276787,1,8,0:2:0:0:
171,282,277022,1,0,0:0:0:0:
253,260,277256,1,6,0:0:0:0:
261,173,277491,1,0,0:0:0:0:
274,178,277725,1,8,0:2:0:0:
286,184,277960,1,0,0:0:0:0:
474,209,278195,6,0,P|417:232|353:237,1,116.999996429443,6|0,0:3|0:0,0:0:0:0:
346,236,278664,1,10,0:2:0:0:
363,152,278898,1,0,0:0:0:0:
367,143,279133,6,0,P|297:108|220:98,2,155.999995239258,2|10|4,0:0|0:2|0:0,0:0:0:0:
371,146,280541,5,8,0:2:0:0:
371,146,280775,1,2,0:0:0:0:
445,111,281010,5,2,0:0:0:0:
420,218,281362,1,2,0:0:0:0:
455,286,281714,1,2,0:0:0:0:
256,192,281948,12,0,283825,1:1:0:0:
