osu file format v14

[General]
AudioFilename: audio.mp3
AudioLeadIn: 0
PreviewTime: 256
Countdown: 0
SampleSet: Soft
StackLeniency: 0.7
Mode: 2
LetterboxInBreaks: 0
WidescreenStoryboard: 0

[Editor]
DistanceSpacing: 1
BeatDivisor: 12
GridSize: 16
TimelineZoom: 2.4

[Metadata]
Title:Kaine / Salvation
TitleUnicode:カイネ/救済
Artist:Okabe Keiichi
ArtistUnicode:岡部 啓一
Creator:Nelly
Version:Platter
Source:NieR
Tags:classical kainé カイネ ニーア emi evans square enix cavia toylogic platinum games platinumgames replicant gestalt ver ver. 1.22474487139...
BeatmapID:3245247
BeatmapSetID:1588824

[Difficulty]
HPDrainRate:5
CircleSize:4
OverallDifficulty:7.6
ApproachRate:7.6
SliderMultiplier:2.2
SliderTickRate:1

[Events]
//Background and Video events
0,0,"e.jpg",0,0
//Break Periods
//Storyboard Layer 0 (Background)
//Storyboard Layer 1 (Fail)
//Storyboard Layer 2 (Pass)
//Storyboard Layer 3 (Foreground)
//Storyboard Layer 4 (Overlay)
//Storyboard Sound Samples

[TimingPoints]
447,571.428571428571,3,2,2,40,1,0
447,-100,3,2,2,40,0,0
589,-100,3,2,1,30,0,0
14161,-100,3,2,2,30,0,0
14304,-100,3,2,1,30,0,0
27875,-100,3,2,2,30,0,0
28018,-100,3,2,1,40,0,0
41589,-100,3,2,2,40,0,0
41732,-100,3,2,1,40,0,0
55304,-100,3,2,2,50,0,1
55446,-100,3,2,1,50,0,0
69018,-100,3,2,2,50,0,1
69161,-100,3,2,1,50,0,0
86161,-100,3,2,2,40,0,0
86196,-100,3,2,1,40,0,0
91589,-100,3,2,1,20,0,0
93018,-100,3,2,2,40,0,0

[Colours]
Combo1 : 202,201,191
Combo2 : 32,53,174
Combo3 : 57,112,202

[HitObjects]
318,276,340,5,0,0:0:0:0:
362,272,411,1,0,0:0:0:0:
376,271,447,2,0,L|379:160,1,110,2|0,0:0|0:0,0:0:0:0:
269,218,1018,2,0,L|266:107,1,110,2|2,0:0|0:0,0:0:0:0:
24,38,1589,2,0,L|135:35,1,110,2|0,0:0|0:0,0:0:0:0:
377,26,2161,6,0,L|486:28,2,110,2|0|2,0:0|0:0|0:0,0:0:0:0:
268,129,3018,1,2,0:0:0:0:
377,127,3303,1,2,0:0:0:0:
487,126,3589,1,2,0:0:0:0:
245,248,3875,6,0,L|135:245,1,110,2|0,0:0|0:0,0:0:0:0:
25,138,4446,2,0,L|134:135,1,110,2|2,0:0|0:0,0:0:0:0:
378,117,5018,2,0,L|381:6,1,110,2|0,0:0|0:0,0:0:0:0:
139,332,5589,6,0,L|136:221,1,110,2|0,0:0|0:0,0:0:0:0:
247,177,6161,1,2,0:0:0:0:
137,75,6446,2,0,L|246:77,2,110,2|2|2,0:0|0:0|0:0,0:0:0:0:
380,361,7304,5,2,0:0:0:0:
378,231,7589,1,0,0:0:0:0:
300,128,7875,1,2,0:0:0:0:
175,93,8161,1,2,0:0:0:0:
300,86,8446,1,2,0:0:0:0:
425,79,8732,1,0,0:0:0:0:
183,352,9018,6,0,L|180:241,1,110,2|0,0:0|0:0,0:0:0:0:
290,166,9589,1,2,0:0:0:0:
180,165,9875,1,2,0:0:0:0:
422,48,10161,2,0,L|313:45,1,110,2|2,0:0|0:0,0:0:0:0:
70,289,10732,6,0,L|67:178,1,110,2|0,0:0|0:0,0:0:0:0:
178,103,11304,1,2,0:0:0:0:
68,102,11590,1,2,0:0:0:0:
309,194,11875,2,0,L|418:191,1,110,2|0,0:0|0:0,0:0:0:0:
177,362,12446,5,2,0:0:0:0:
108,252,12731,1,0,0:0:0:0:
149,131,13017,1,2,0:0:0:0:
268,87,13303,1,2,0:0:0:0:
394,76,13589,2,0,L|397:185,1,110,2|2,0:0|0:0,0:0:0:0:
43,349,14161,6,0,L|40:240,1,110,2|0,0:0|0:0,0:0:0:0:
150,275,14732,2,0,L|153:166,1,110,2|2,0:0|0:0,0:0:0:0:
396,236,15304,2,0,L|399:127,1,110,2|0,0:0|0:0,0:0:0:0:
157,69,15875,6,0,L|154:178,1,110,2|0,0:0|0:0,0:0:0:0:
264,203,16446,1,2,0:0:0:0:
154,285,16732,2,0,L|263:282,2,110,2|2|2,0:0|0:0|0:0,0:0:0:0:
396,339,17589,6,0,L|399:230,1,110,2|0,0:0|0:0,0:0:0:0:
289,219,18161,1,2,0:0:0:0:
179,210,18446,1,2,0:0:0:0:
421,129,18732,2,0,L|312:126,1,110,2|0,0:0|0:0,0:0:0:0:
68,128,19304,6,0,L|65:237,1,110,2|0,0:0|0:0,0:0:0:0:
175,306,19875,1,2,0:0:0:0:
65,315,20160,1,2,0:0:0:0:
307,219,20446,2,0,L|416:222,1,110,2|2,0:0|0:0,0:0:0:0:
174,362,21018,5,2,0:0:0:0:
105,252,21303,1,0,0:0:0:0:
146,131,21589,1,2,0:0:0:0:
265,87,21875,1,2,0:0:0:0:
140,80,22160,1,2,0:0:0:0:
15,73,22446,1,0,0:0:0:0:
257,198,22732,6,0,L|366:195,2,110,2|0|2,0:0|0:0|0:0,0:0:0:0:
147,296,23589,2,0,L|256:299,2,110,2|2|2,0:0|0:0|0:0,0:0:0:0:
389,361,24446,5,2,0:0:0:0:
458,251,24731,1,0,0:0:0:0:
417,130,25017,1,2,0:0:0:0:
298,86,25303,1,2,0:0:0:0:
56,210,25589,2,0,L|165:207,1,110,2|2,0:0|0:0,0:0:0:0:
464,190,26066,1,0,0:0:0:0:
482,172,26113,1,0,0:0:0:0:
478,146,26161,1,0,0:0:0:0:
461,130,26208,1,2,0:0:0:0:
80,248,27875,5,2,0:0:0:0:
256,241,28446,1,2,0:0:0:0:
432,235,29017,1,2,0:0:0:0:
79,348,29589,2,0,P|59:320|231:37,1,440,2|0,0:0|0:0,0:0:0:0:
452,230,31304,6,0,L|232:224,2,220,2|2|2,0:0|0:0|0:0,0:0:0:0:
100,368,33018,2,0,L|91:-72,1,440,2|0,0:0|0:0,0:0:0:0:
312,328,34732,6,0,L|316:107,1,220,2|2,0:0|0:0,0:0:0:0:
97,235,35874,1,2,0:0:0:0:
450,348,36446,2,0,P|470:320|298:37,1,440,2|0,0:0|0:0,0:0:0:0:
77,230,38161,6,0,L|297:224,2,220,2|2|2,0:0|0:0|0:0,0:0:0:0:
429,368,39875,2,0,L|437:-74,1,440,2|0,0:0|0:0,0:0:0:0:
217,219,41589,5,2,0:0:0:0:
435,347,42160,2,0,L|438:127,1,220,2|2,0:0|0:0,0:0:0:0:
85,363,43304,2,0,P|59:342|187:55,1,440,2|0,0:0|0:0,0:0:0:0:
407,230,45018,6,0,L|187:224,2,220,2|2|2,0:0|0:0|0:0,0:0:0:0:
54,373,46732,2,0,L|51:-73,1,440,2|0,0:0|0:0,0:0:0:0:
272,326,48446,6,0,P|294:320|272:177,1,220,2|2,0:0|0:0,0:0:0:0:
163,177,49304,1,2,0:0:0:0:
404,10,49589,2,0,L|408:121,1,110,2|0,0:0|0:0,0:0:0:0:
165,261,50161,6,0,L|386:254,2,220,2|2|2,0:0|0:0|0:0,0:0:0:0:
385,364,51875,6,0,L|392:142,1,220,2|2,0:0|0:0,0:0:0:0:
173,238,53018,2,0,L|169:128,1,110,2|2,0:0|0:0,0:0:0:0:
411,44,53589,6,0,L|190:39,1,220,2|0,0:0|0:0,0:0:0:0:
59,71,54446,2,0,L|54:291,1,220,2|0,0:0|0:0,0:0:0:0:
410,367,55304,6,0,L|413:258,1,110,2|2,0:0|0:0,0:0:0:0:
281,274,55875,2,0,L|278:165,1,110,2|2,0:0|0:0,0:0:0:0:
410,73,56446,2,0,L|301:70,1,110,2|2,0:0|0:0,0:0:0:0:
57,338,57018,5,2,0:0:0:0:
6,244,57303,1,2,0:0:0:0:
49,147,57589,1,2,0:0:0:0:
152,121,57875,1,2,0:0:0:0:
262,223,58161,2,0,L|153:220,1,110,2|2,0:0|0:0,0:0:0:0:
394,326,58732,6,0,L|503:323,2,110,2|2|2,0:0|0:0|0:0,0:0:0:0:
262,293,59589,2,0,L|259:184,1,110,2|2,0:0|0:0,0:0:0:0:
392,144,60161,1,2,0:0:0:0:
151,52,60446,6,0,L|42:49,2,110,2|2|2,0:0|0:0|0:0,0:0:0:0:
394,221,61304,2,0,L|503:218,2,110,2|2|2,0:0|0:0|0:0,0:0:0:0:
42,351,62161,6,0,L|39:242,1,110,2|2,0:0|0:0,0:0:0:0:
149,236,62732,1,2,0:0:0:0:
259,231,63018,2,0,L|262:122,1,110,2|2,0:0|0:0,0:0:0:0:
152,116,63589,1,2,0:0:0:0:
394,41,63875,6,0,L|503:38,2,110,2|2|2,0:0|0:0|0:0,0:0:0:0:
262,151,64732,2,0,L|371:154,2,110,2|2|2,0:0|0:0|0:0,0:0:0:0:
20,362,65589,6,0,L|13:142,1,220,2|2,0:0|0:0,0:0:0:0:
256,228,66446,2,0,L|259:119,1,110,2|2,0:0|0:0,0:0:0:0:
149,113,67017,1,2,0:0:0:0:
392,340,67304,5,2,0:0:0:0:
411,234,67589,1,2,0:0:0:0:
353,143,67875,1,2,0:0:0:0:
250,115,68161,1,2,0:0:0:0:
125,110,68446,2,0,L|122:219,1,110,2|2,0:0|0:0,0:0:0:0:
476,313,69018,6,0,L|479:204,1,110,2|2,0:0|0:0,0:0:0:0:
369,193,69589,1,2,0:0:0:0:
259,99,69875,2,0,L|368:96,1,110,2|2,0:0|0:0,0:0:0:0:
479,90,70446,1,2,0:0:0:0:
237,209,70732,6,0,L|128:206,2,110,2|2|2,0:0|0:0|0:0,0:0:0:0:
369,303,71589,2,0,L|260:306,2,110,2|2|2,0:0|0:0|0:0,0:0:0:0:
127,362,72446,5,2,0:0:0:0:
76,268,72731,1,2,0:0:0:0:
119,171,73017,1,2,0:0:0:0:
223,146,73304,2,0,L|226:37,1,110,2|2,0:0|0:0,0:0:0:0:
116,26,73875,1,2,0:0:0:0:
358,16,74161,6,0,L|467:19,2,110,2|2|2,0:0|0:0|0:0,0:0:0:0:
116,143,75018,2,0,L|7:146,2,110,2|2|2,0:0|0:0|0:0,0:0:0:0:
468,322,75875,5,2,0:0:0:0:
486,216,76160,1,2,0:0:0:0:
431,123,76446,1,2,0:0:0:0:
329,89,76732,1,2,0:0:0:0:
204,85,77018,2,0,L|201:194,1,110,2|2,0:0|0:0,0:0:0:0:
443,352,77589,6,0,L|446:243,1,110,2|2,0:0|0:0,0:0:0:0:
336,232,78160,1,2,0:0:0:0:
227,141,78446,1,2,0:0:0:0:
336,139,78731,1,2,0:0:0:0:
446,137,79017,1,2,0:0:0:0:
92,339,79304,6,0,P|46:313|96:186,1,220,2|2,0:0|0:0,0:0:0:0:
337,60,80161,2,0,L|228:57,1,110,2|2,0:0|0:0,0:0:0:0:
117,51,80732,1,2,0:0:0:0:
469,314,81018,6,0,P|499:281|421:157,1,220,2|2,0:0|0:0,0:0:0:0:
180,56,81875,2,0,L|289:53,1,110,2|2,0:0|0:0,0:0:0:0:
400,47,82446,1,2,0:0:0:0:
48,352,82732,5,2,0:0:0:0:
45,242,83017,1,2,0:0:0:0:
42,132,83303,1,2,0:0:0:0:
284,189,83589,2,0,L|281:80,1,110,2|2,0:0|0:0,0:0:0:0:
149,68,84160,1,2,0:0:0:0:
391,24,84446,6,0,L|500:27,2,110,2|2|2,0:0|0:0|0:0,0:0:0:0:
148,181,85304,1,2,0:0:0:0:
257,177,85589,1,2,0:0:0:0:
387,172,85875,1,2,0:0:0:0:
35,310,86161,5,2,0:0:0:0:
33,297,86196,1,0,0:0:0:0:
32,282,86232,1,0,0:0:0:0:
30,268,86268,1,0,0:0:0:0:
32,201,86446,1,2,0:0:0:0:
79,102,86732,1,2,0:0:0:0:
166,36,87018,1,2,0:0:0:0:
273,16,87303,1,2,0:0:0:0:
148,11,87589,1,2,0:0:0:0:
390,80,87875,6,0,L|393:189,1,110,2|0,0:0|0:0,0:0:0:0:
261,157,88446,2,0,L|258:266,1,110,2|0,0:0|0:0,0:0:0:0:
125,305,89018,1,2,0:0:0:0:
111,303,89054,2,0,L|108:207,1,96.25,2|2,0:0|0:0,0:0:0:0:
349,111,89589,6,0,L|240:108,2,110,2|2|2,0:0|0:0|0:0,0:0:0:0:
107,206,90446,2,0,L|216:203,2,110,2|2|2,0:0|0:0|0:0,0:0:0:0:
422,306,91232,5,2,0:0:0:0:
435,304,91267,1,2,0:0:0:0:
450,303,91303,1,2,0:0:0:0:
464,301,91339,1,2,0:0:0:0:
256,192,91589,12,2,93018,0:0:0:0:
