osu file format v14

[General]
AudioFilename: audio.mp3
AudioLeadIn: 0
PreviewTime: 256
Countdown: 0
SampleSet: Soft
StackLeniency: 0.7
Mode: 2
LetterboxInBreaks: 0
WidescreenStoryboard: 1

[Editor]
DistanceSpacing: 1
BeatDivisor: 4
GridSize: 16
TimelineZoom: 1

[Metadata]
Title:Kaine / Salvation
TitleUnicode:カイネ/救済
Artist:Okabe Keiichi
ArtistUnicode:岡部 啓一
Creator:Nelly
Version:Cup
Source:NieR
Tags:classical kainé カイネ ニーア emi evans square enix cavia toylogic platinum games platinumgames replicant gestalt ver ver. 1.22474487139...
BeatmapID:3245637
BeatmapSetID:1588824

[Difficulty]
HPDrainRate:3
CircleSize:3
OverallDifficulty:5.6
ApproachRate:5.6
SliderMultiplier:1.6
SliderTickRate:1

[Events]
//Background and Video events
0,0,"e.jpg",0,0
//Break Periods
//Storyboard Layer 0 (Background)
//Storyboard Layer 1 (Fail)
//Storyboard Layer 2 (Pass)
//Storyboard Layer 3 (Foreground)
//Storyboard Layer 4 (Overlay)
//Storyboard Sound Samples

[TimingPoints]
447,571.428571428571,3,2,2,40,1,0
447,-100,3,2,2,40,0,0
589,-100,3,2,1,30,0,0
14161,-100,3,2,2,30,0,0
14304,-100,3,2,1,30,0,0
27875,-100,3,2,2,30,0,0
28018,-100,3,2,1,40,0,0
41589,-100,3,2,2,40,0,0
41732,-100,3,2,1,40,0,0
55304,-100,3,2,2,50,0,1
55446,-100,3,2,1,50,0,0
69018,-100,3,2,2,50,0,1
69161,-100,3,2,1,50,0,0
86161,-100,3,2,2,40,0,0
86446,-100,3,2,1,40,0,0
91589,-100,3,2,1,20,0,0
93018,-100,3,2,2,40,0,0

[Colours]
Combo1 : 202,201,191
Combo2 : 32,53,174
Combo3 : 57,112,202

[HitObjects]
316,282,447,6,0,L|322:114,1,160,2|2,0:0|0:0,0:0:0:0:
162,52,1589,1,2,0:0:0:0:
322,38,2161,1,2,0:0:0:0:
482,23,2732,2,0,L|487:182,1,160,2|2,0:0|0:0,0:0:0:0:
327,257,3875,6,0,L|167:262,2,160,2|2|2,0:0|0:0|0:0,0:0:0:0:
167,344,5589,1,2,0:0:0:0:
47,233,6161,1,2,0:0:0:0:
96,85,6732,1,2,0:0:0:0:
242,37,7304,6,0,L|402:42,2,160,2|2|2,0:0|0:0|0:0,0:0:0:0:
82,96,9018,2,0,L|77:255,1,160,2|2,0:0|0:0,0:0:0:0:
237,255,10161,1,2,0:0:0:0:
396,355,10732,6,0,L|236:350,1,160,2|2,0:0|0:0,0:0:0:0:
76,245,11875,2,0,L|236:240,1,160,2|2,0:0|0:0,0:0:0:0:
76,0,13018,2,0,L|71:159,1,160,2|2,0:0|0:0,0:0:0:0:
231,244,14161,6,0,L|391:249,2,160,2|2|2,0:0|0:0|0:0,0:0:0:0:
391,346,15875,1,2,0:0:0:0:
498,235,16446,1,2,0:0:0:0:
462,87,17018,1,2,0:0:0:0:
316,39,17589,6,0,L|311:198,1,160,2|2,0:0|0:0,0:0:0:0:
151,130,18732,2,0,L|146:289,1,160,2|2,0:0|0:0,0:0:0:0:
306,333,19875,2,0,L|465:328,1,160,2|2,0:0|0:0,0:0:0:0:
306,208,21018,6,0,L|147:203,2,160,2|2|2,0:0|0:0|0:0,0:0:0:0:
146,14,22732,2,0,L|141:173,1,160,2|2,0:0|0:0,0:0:0:0:
301,211,23875,1,2,0:0:0:0:
141,333,24446,5,2,0:0:0:0:
42,214,25018,1,2,0:0:0:0:
84,66,25589,1,2,0:0:0:0:
229,14,26161,1,2,0:0:0:0:
478,354,27875,6,0,L|483:195,1,160,2|2,0:0|0:0,0:0:0:0:
323,175,29018,1,2,0:0:0:0:
483,167,29589,1,2,0:0:0:0:
194,253,31304,6,0,L|35:248,2,160,2|2|2,0:0|0:0|0:0,0:0:0:0:
354,251,33018,1,2,0:0:0:0:
34,354,34732,6,0,L|29:195,1,160,2|2,0:0|0:0,0:0:0:0:
189,175,35875,1,2,0:0:0:0:
29,167,36446,1,2,0:0:0:0:
315,340,38161,6,0,L|320:181,1,160,2|2,0:0|0:0,0:0:0:0:
160,161,39304,1,2,0:0:0:0:
320,153,39875,1,2,0:0:0:0:
64,347,41589,5,2,0:0:0:0:
174,240,42161,1,2,0:0:0:0:
149,88,42732,1,2,0:0:0:0:
10,23,43304,1,2,0:0:0:0:
318,253,45018,6,0,L|477:248,2,160,2|2|2,0:0|0:0|0:0,0:0:0:0:
158,251,46732,1,2,0:0:0:0:
439,342,48446,6,0,P|467:307|372:172,1,240,2|2,0:0|0:0,0:0:0:0:
281,77,49589,2,0,L|440:72,2,160,2|2|2,0:0|0:0|0:0,0:0:0:0:
121,75,51304,1,2,0:0:0:0:
281,353,51875,6,0,L|286:194,1,160,2|2,0:0|0:0,0:0:0:0:
126,165,53018,1,2,0:0:0:0:
30,170,53304,1,2,0:0:0:0:
126,165,53589,5,2,0:0:0:0:
367,161,54446,1,2,0:0:0:0:
126,344,55304,6,0,P|83:323|170:73,1,400,2|2,0:0|0:0,0:0:0:0:
265,73,57018,2,0,L|270:232,1,160,2|2,0:0|0:0,0:0:0:0:
110,260,58161,1,2,0:0:0:0:
270,335,58732,6,0,P|368:181|227:64,1,400,2|2,0:0|0:0,0:0:0:0:
227,64,60446,2,0,L|467:57,1,240,2|2,0:0|0:0,0:0:0:0:
226,339,62161,6,0,P|214:301|427:77,1,400,2|2,0:0|0:0,0:0:0:0:
424,76,63875,2,0,L|185:73,2,240,2|2|2,0:0|0:0|0:0,0:0:0:0:
264,305,66161,5,2,0:0:0:0:
184,296,66446,2,0,L|179:137,1,160,2|2,0:0|0:0,0:0:0:0:
259,111,67304,2,0,L|421:105,1,160,2|2,0:0|0:0,0:0:0:0:
431,183,68161,1,2,0:0:0:0:
404,257,68446,1,2,0:0:0:0:
344,309,68732,1,2,0:0:0:0:
264,326,69018,6,0,P|166:172|307:55,1,400,2|2,0:0|0:0,0:0:0:0:
403,58,70732,2,0,L|408:217,1,160,2|2,0:0|0:0,0:0:0:0:
248,267,71875,1,2,0:0:0:0:
89,314,72446,6,0,P|63:195|261:40,1,400,2|2,0:0|0:0,0:0:0:0:
258,39,74161,2,0,L|18:32,1,240,2|2,0:0|0:0,0:0:0:0:
259,350,75875,6,0,P|357:196|216:79,1,400,2|2,0:0|0:0,0:0:0:0:
215,79,77589,2,0,L|455:72,2,240,2|2|2,0:0|0:0|0:0,0:0:0:0:
55,307,79875,6,0,L|50:226,1,80,2|2,0:0|0:0,0:0:0:0:
290,243,81018,2,0,L|295:76,1,160,2|2,0:0|0:0,0:0:0:0:
199,66,81875,1,2,0:0:0:0:
440,346,82732,6,0,P|455:303|446:106,1,240,2|2,0:0|0:0,0:0:0:0:
231,299,84446,2,0,L|223:60,1,240,2|2,0:0|0:0,0:0:0:0:
6,41,86161,5,2,0:0:0:0:
256,192,86446,12,0,88732,0:0:0:0:
461,80,89018,5,2,0:0:0:0:
301,376,89589,5,2,0:0:0:0:
208,354,89874,1,2,0:0:0:0:
140,288,90160,1,2,0:0:0:0:
115,196,90446,1,2,0:0:0:0:
140,104,90731,1,2,0:0:0:0:
208,39,91017,1,2,0:0:0:0:
301,16,91304,5,2,0:0:0:0:
256,192,91589,12,2,93018,0:0:0:0:
