osu file format v14

[General]
AudioFilename: song.mp3
AudioLeadIn: 0
PreviewTime: 27591
Countdown: 0
SampleSet: Soft
StackLeniency: 0
Mode: 0
LetterboxInBreaks: 0
WidescreenStoryboard: 0

[Editor]
Bookmarks: 27875,55304,86161,93018
DistanceSpacing: 1
BeatDivisor: 9
GridSize: 16
TimelineZoom: 2.6

[Metadata]
Title:Kaine / Salvation
TitleUnicode:カイネ/救済
Artist:Okabe Keiichi
ArtistUnicode:岡部 啓一
Creator:Linada
Version:Replicant
Source:NieR
Tags:kin chaos カイネ gestalt replicant kainé classical square enix platinumgames ニーア
BeatmapID:3031524
BeatmapSetID:1477599

[Difficulty]
HPDrainRate:6
CircleSize:5.8
OverallDifficulty:8
ApproachRate:8.7
SliderMultiplier:1.6
SliderTickRate:1

[Events]
//Background and Video events
0,0,"e.jpg",0,0
//Break Periods
//Storyboard Layer 0 (Background)
//Storyboard Layer 1 (Fail)
//Storyboard Layer 2 (Pass)
//Storyboard Layer 3 (Foreground)
//Storyboard Layer 4 (Overlay)
//Storyboard Sound Samples

[TimingPoints]
447,571.428571428571,3,2,1,30,1,0
447,-500,3,2,2,30,0,0
1018,-500,3,2,1,30,0,0
2018,-500,3,2,1,5,0,0
2161,-500,3,2,1,30,0,0
12304,-500,3,2,1,5,0,0
12446,-500,3,2,1,30,0,0
14161,-66.6666666666667,3,2,2,30,0,0
14232,-66.6666666666667,3,2,1,5,0,0
14304,-500,3,2,1,30,0,0
19161,-500,3,2,1,5,0,0
19304,-500,3,2,1,30,0,0
25946,-100,3,2,1,30,0,0
27875,-133.333333333333,3,2,2,30,0,0
28018,-133.333333333333,3,2,10,40,0,0
29589,-79.9999999999999,3,2,10,40,0,0
30161,-79.9999999999999,3,2,10,5,0,0
30304,-79.9999999999999,3,2,10,40,0,0
30589,-79.9999999999999,3,2,10,5,0,0
30732,-100,3,2,10,40,0,0
31161,-100,3,2,10,5,0,0
31304,-133.333333333333,3,2,10,40,0,0
34732,-133.333333333333,3,2,2,40,0,0
34875,-133.333333333333,3,2,10,40,0,0
36446,-100,3,2,10,40,0,0
36875,-100,3,2,10,5,0,0
37018,-133.333333333333,3,2,10,40,0,0
37446,-133.333333333333,3,2,10,5,0,0
37589,-133.333333333333,3,2,10,40,0,0
38018,-133.333333333333,3,2,10,5,0,0
38161,-133.333333333333,3,2,10,40,0,0
43304,-79.9999999999999,3,2,2,40,0,0
43732,-79.9999999999999,3,2,10,5,0,0
43875,-100,3,2,10,40,0,0
44304,-100,3,2,10,5,0,0
44446,-111.111111111111,3,2,10,40,0,0
44875,-111.111111111111,3,2,10,5,0,0
45018,-133.333333333333,3,2,2,40,0,0
47018,-133.333333333333,3,2,10,5,0,0
48446,-133.333333333333,3,2,10,40,0,0
49304,-181.818181818181,3,2,10,40,0,0
50018,-181.818181818181,3,2,10,5,0,0
50161,-133.333333333333,3,2,10,40,0,0
50589,-133.333333333333,3,2,10,5,0,0
50732,-133.333333333333,3,2,10,40,0,0
51161,-133.333333333333,3,2,10,15,0,0
51446,-100,3,2,10,40,0,0
52875,-100,3,2,10,5,0,0
53018,-100,3,2,10,40,0,0
54732,-100,3,2,10,5,0,0
55304,-133.333333333333,3,2,10,50,0,0
56732,-66.6666666666667,3,2,10,50,0,0
56875,-66.6666666666667,3,2,10,5,0,0
57018,-55.5555555555556,3,2,10,50,0,0
57161,-55.5555555555556,3,2,10,5,0,0
57304,-66.6666666666667,3,2,10,50,0,0
57446,-66.6666666666667,3,2,10,5,0,0
57589,-83.3333333333333,3,2,10,50,0,0
57732,-83.3333333333333,3,2,10,5,0,0
57875,-100,3,2,10,50,0,0
58018,-100,3,2,10,5,0,0
58161,-100,3,2,10,50,0,0
58304,-100,3,2,10,5,0,0
58446,-100,3,2,10,50,0,0
58589,-100,3,2,10,5,0,0
58732,-100,3,2,10,50,0,0
60161,-100,3,2,10,50,0,0
60304,-100,3,2,10,5,0,0
60446,-55.5555555555556,3,2,10,50,0,0
60589,-55.5555555555556,3,2,10,5,0,0
60732,-66.6666666666667,3,2,10,50,0,0
60875,-66.6666666666667,3,2,10,5,0,0
61018,-83.3333333333333,3,2,10,50,0,0
61161,-83.3333333333333,3,2,10,5,0,0
61304,-100,3,2,10,50,0,0
62161,-100,3,2,10,50,0,0
63589,-100,3,2,10,50,0,0
63732,-100,3,2,10,5,0,0
63875,-55.5555555555556,3,2,10,50,0,0
64018,-55.5555555555556,3,2,10,5,0,0
64161,-66.6666666666667,3,2,10,50,0,0
64304,-66.6666666666667,3,2,10,5,0,0
64446,-83.3333333333333,3,2,10,50,0,0
64589,-83.3333333333333,3,2,10,5,0,0
64732,-100,3,2,10,50,0,0
64875,-100,3,2,10,5,0,0
65018,-100,3,2,10,50,0,0
65161,-100,3,2,10,5,0,0
65304,-100,3,2,10,50,0,0
65446,-100,3,2,10,5,0,0
65589,-100,3,2,10,50,0,0
66018,-100,3,2,10,5,0,0
66161,-100,3,2,10,50,0,0
66304,-100,3,2,10,5,0,0
66446,-66.6666666666667,3,2,10,50,0,0
66589,-66.6666666666667,3,2,10,5,0,0
66732,-76.9230769230769,3,2,10,50,0,0
66875,-76.9230769230769,3,2,10,5,0,0
67018,-90.9090909090909,3,2,10,50,0,0
67161,-90.9090909090909,3,2,10,5,0,0
67304,-125,3,2,10,50,0,0
69018,-111.111111111111,3,2,10,50,0,0
70446,-100,3,2,10,50,0,0
70589,-100,3,2,10,5,0,0
70732,-55.5555555555556,3,2,10,50,0,0
70875,-55.5555555555556,3,2,10,5,0,0
71018,-66.6666666666667,3,2,10,50,0,0
71161,-66.6666666666667,3,2,10,5,0,0
71304,-83.3333333333333,3,2,10,50,0,0
71446,-83.3333333333333,3,2,10,5,0,0
71589,-100,3,2,10,50,0,0
71732,-100,3,2,10,5,0,0
71875,-100,3,2,10,50,0,0
72018,-100,3,2,10,5,0,0
72161,-100,3,2,10,50,0,0
72304,-100,3,2,10,5,0,0
72446,-100,3,2,10,50,0,0
73875,-100,3,2,10,50,0,0
74018,-100,3,2,10,5,0,0
74161,-66.6666666666667,3,2,10,50,0,0
74304,-66.6666666666667,3,2,10,5,0,0
74446,-76.9230769230769,3,2,10,50,0,0
74589,-76.9230769230769,3,2,10,5,0,0
74732,-90.9090909090909,3,2,10,50,0,0
74875,-90.9090909090909,3,2,10,5,0,0
75018,-133.333333333333,3,2,10,50,0,0
75732,-133.333333333333,3,2,10,5,0,0
75875,-100,3,2,10,50,0,0
77304,-100,3,2,10,50,0,0
77446,-100,3,2,10,5,0,0
77589,-55.5555555555556,3,2,10,50,0,0
77732,-55.5555555555556,3,2,10,5,0,0
77875,-66.6666666666667,3,2,10,50,0,0
78018,-66.6666666666667,3,2,10,5,0,0
78161,-83.3333333333333,3,2,10,50,0,0
78304,-83.3333333333333,3,2,10,5,0,0
78446,-100,3,2,10,50,0,0
78589,-100,3,2,10,5,0,0
78732,-100,3,2,10,50,0,0
78875,-100,3,2,10,5,0,0
79018,-100,3,2,10,50,0,0
79161,-100,3,2,10,5,0,0
79304,-133.333333333333,3,2,10,50,0,0
79875,-133.333333333333,3,2,10,50,0,0
80161,-100,3,2,10,50,0,0
81018,-133.333333333333,3,2,10,50,0,0
81446,-133.333333333333,3,2,10,5,0,0
81589,-100,3,2,10,50,0,0
81732,-100,3,2,10,5,0,0
81875,-55.5555555555556,3,2,10,50,0,0
82018,-55.5555555555556,3,2,10,5,0,0
82161,-66.6666666666667,3,2,10,50,0,0
82304,-66.6666666666667,3,2,10,5,0,0
82446,-83.3333333333333,3,2,10,50,0,0
82589,-83.3333333333333,3,2,10,5,0,0
82732,-100,3,2,10,50,0,0
83589,-200,3,2,10,50,0,0
84304,-200,3,2,10,5,0,0
84446,-100,3,2,10,50,0,0
85161,-100,3,2,10,5,0,0
85304,-76.9230769230769,3,2,10,50,0,0
86018,-76.9230769230769,3,2,10,5,0,0
86161,-76.9230769230769,3,2,2,40,0,0
86304,-76.9230769230769,3,2,10,40,0,0
89018,-200,3,2,10,40,0,0
91304,-200,3,2,2,40,0,0
93018,-200,3,2,2,40,0,0

[Colours]
Combo1 : 255,255,157
Combo2 : 0,128,255
Combo3 : 182,243,208
Combo4 : 128,255,255

[HitObjects]
41,147,447,5,2,0:0:0:0:
40,143,1018,2,0,L|43:124,1,16
109,267,1589,2,0,L|112:290,1,24,2|0,0:0|0:0,0:0:0:0:
71,350,2161,6,0,L|52:347,1,16,2|0,0:0|0:0,0:0:0:0:
131,248,2732,2,0,L|147:246,1,16
80,155,3304,2,0,L|64:153,1,16
207,71,3875,5,2,0:0:0:0:
204,68,4446,1,0,0:0:0:0:
177,80,4732,1,0,0:0:0:0:
149,69,5018,1,2,0:0:0:0:
289,191,5589,6,0,L|304:193,1,16,2|0,0:0|0:0,0:0:0:0:
347,127,6161,2,0,L|362:124,1,16
387,50,6732,2,0,L|399:40,1,16
326,291,7304,5,2,0:0:0:0:
322,287,7875,1,0,0:0:0:0:
316,258,8161,1,0,0:0:0:0:
344,264,8446,1,2,0:0:0:0:
195,218,9018,6,0,L|190:233,1,16,2|0,0:0|0:0,0:0:0:0:
130,146,9589,2,0,L|129:161,1,16
51,89,10161,2,0,L|55:104,1,16
202,2,10732,5,2,0:0:0:0:
206,5,11304,2,0,L|221:3,1,16
339,66,11875,2,0,P|334:77|330:88,1,24,2|0,0:0|0:0,0:0:0:0:
358,159,12446,5,2,0:0:0:0:
393,271,13018,2,0,L|403:284,1,16
322,339,13589,2,0,L|322:360,1,16
160,305,14161,6,0,B|154:291|154:291|167:296,1,30.0000011444092,2|0,0:0|0:0,0:0:0:0:
157,310,14732,1,0,0:0:0:0:
148,337,15018,1,0,0:0:0:0:
152,365,15304,1,2,0:0:0:0:
302,241,15875,6,0,L|316:233,1,16,2|0,0:0|0:0,0:0:0:0:
294,146,16446,2,0,L|300:131,1,16
235,70,17018,2,0,L|231:54,1,16
48,120,17589,5,2,0:0:0:0:
46,124,18161,2,0,L|48:139,1,16
88,262,18732,2,0,L|94:238,1,24,2|0,0:0|0:0,0:0:0:0:
146,197,19304,6,0,L|165:194,1,16,2|0,0:0|0:0,0:0:0:0:
243,177,19875,2,0,L|257:191,1,16
335,207,20446,2,0,L|336:228,1,16
362,45,21018,5,2,0:0:0:0:
362,45,21589,1,0,0:0:0:0:
389,36,21875,1,0,0:0:0:0:
416,45,22161,1,2,0:0:0:0:
477,196,22732,6,0,L|474:211,1,16,2|0,0:0|0:0,0:0:0:0:
399,292,23304,2,0,L|396:276,1,16
333,187,23875,2,0,L|315:182,1,16
160,247,24446,5,2,0:0:0:0:
160,247,25018,1,0,0:0:0:0:
170,220,25304,1,0,0:0:0:0:
89,176,25589,5,2,0:0:0:0:
79,149,25875,1,0,0:0:0:0:
124,93,26089,6,0,L|129:76,3,10,0|0|2|0,0:0|0:0|0:0|0:0,0:0:0:0:
124,94,27875,6,0,P|273:81|417:40,1,300.000011444092,2|0,0:0|0:0,0:0:0:0:
511,60,29589,6,0,B|435:25|374:73|383:129|449:151|473:134|482:118|476:101|461:88,1,200,2|0,0:0|0:0,0:0:0:0:
401,135,30304,2,0,P|385:188|348:157,1,100,2|0,0:0|0:0,0:0:0:0:
307,282,30732,2,0,B|301:250|318:227|318:227|291:201|295:171,1,120,2|0,0:0|0:0,0:0:0:0:
363,323,31304,6,0,B|262:263|262:377|136:329|136:329|138:261|208:244|208:244|124:205|149:129,1,480.000018310548,2|0,0:0|0:0,0:0:0:0:
47,48,34732,6,0,P|61:168|71:287,1,240.000009155274,2|0,0:0|0:0,0:0:0:0:
187,188,36446,6,0,P|128:179|85:139,1,120,2|0,0:0|0:0,0:0:0:0:
168,93,37018,2,0,P|177:136|206:170,1,90.0000034332277,2|0,0:0|0:0,0:0:0:0:
233,164,37589,2,0,B|245:124|259:113|259:113|254:137|259:153,1,90.0000034332277,2|0,0:0|0:0,0:0:0:0:
289,205,38161,6,0,B|406:265|420:182|517:186|517:186|477:154|428:176|405:148|405:148|464:103|452:2|358:12|343:69|386:115,1,570.000021743775,2|0,0:0|0:0,0:0:0:0:
492,60,41589,6,0,B|369:75|418:-16|279:0,1,210.000008010865,2|0,0:0|0:0,0:0:0:0:
295,13,43304,6,0,P|318:73|254:73,1,150,2|0,0:0|0:0,0:0:0:0:
191,32,43875,2,0,B|178:58|181:78|181:78|133:57|126:14,1,120,2|0,0:0|0:0,0:0:0:0:
55,58,44446,2,0,P|83:103|68:156,1,107.999996704102,2|0,0:0|0:0,0:0:0:0:
11,216,45018,6,0,B|106:240|26:289|93:335|235:315|262:209|236:161|150:136|91:177|125:272,1,420.000016021729,2|0,0:0|0:0,0:0:0:0:
287,341,48446,6,0,P|229:349|180:317,1,120.000004577637,2|0,0:0|0:0,0:0:0:0:
164,187,49304,2,0,B|164:229|142:254|142:254|159:241|187:247,1,110.000003356934,2|0,0:0|0:0,0:0:0:0:
152,163,50161,2,0,P|162:119|144:79,1,90.0000034332277,2|0,0:0|0:0,0:0:0:0:
31,70,50732,2,0,B|120:59,1,90.0000034332277,2|0,0:0|0:0,0:0:0:0:
214,0,51446,6,0,P|261:33|273:91,1,120,2|0,0:0|0:0,0:0:0:0:
321,0,52161,2,0,P|300:97|298:197,1,200,2|0,0:0|0:0,0:0:0:0:
273,194,53018,2,0,P|272:154|274:115,1,80,2|0,0:0|0:0,0:0:0:0:
191,186,53589,2,0,P|222:72|135:153,1,320,2|0,0:0|0:0,0:0:0:0:
364,331,55304,6,0,P|360:212|395:98,1,240,2|0,0:0|0:0,0:0:0:0:
453,62,56732,2,0,P|482:65|507:81,1,60.0000022888184,2|0,0:0|0:0,0:0:0:0:
309,9,57018,6,0,P|309:45|325:78,1,71.9999978027344,2|0,0:0|0:0,0:0:0:0:
228,206,57304,2,0,P|232:177|247:151,1,60.0000022888184
124,74,57589,2,0,P|130:97|142:118,1,47.9999985351563
35,314,57875,6,0,L|58:281,1,40,2|0,0:0|0:0,0:0:0:0:
164,253,58161,2,0,L|125:251,1,40
47,171,58446,2,0,L|65:207,1,40
173,337,58732,6,0,P|292:326|409:299,1,240,2|0,0:0|0:0,0:0:0:0:
409,299,60161,2,0,L|416:259,1,40,2|0,0:0|0:0,0:0:0:0:
505,38,60446,6,0,P|469:39|438:56,1,71.9999978027344,2|0,0:0|0:0,0:0:0:0:
347,78,60732,2,0,P|371:96|387:122,1,60.0000022888184
389,192,61018,2,0,P|370:206|358:227,1,47.9999985351563
301,298,61304,6,0,P|330:226|306:151,1,160,2|0,0:0|0:0,0:0:0:0:
91,61,62161,6,0,B|-1:70|-17:150|15:203|76:214|107:157|83:132,1,259.999988098145,2|0,0:0|0:0,0:0:0:0:
83,132,63589,2,0,P|93:160|103:179,1,40,2|0,0:0|0:0,0:0:0:0:
187,329,63875,6,0,P|200:296|199:261,1,71.9999978027344,2|0,0:0|0:0,0:0:0:0:
253,163,64161,2,0,P|224:169|201:188,1,60.0000022888184
96,197,64446,2,0,P|114:212|137:221,1,47.9999985351563
238,254,64732,6,0,L|199:261,1,40,2|0,0:0|0:0,0:0:0:0:
299,278,65018,2,0,L|259:271,1,40
351,314,65304,2,0,L|313:300,1,40
400,358,65589,6,0,P|383:302|385:240,1,120,2|0,0:0|0:0,0:0:0:0:
454,194,66161,2,0,P|434:191|414:186,1,40,2|0,0:0|0:0,0:0:0:0:
342,168,66446,6,0,P|342:139|335:109,1,60.0000022888184,2|0,0:0|0:0,0:0:0:0:
238,48,66732,2,0,P|256:66|268:89,1,51.999997619629
163,129,67018,2,0,P|183:121|199:105,1,44.0000013427735
137,38,67304,6,0,P|130:165|115:292,1,256,2|0,0:0|0:0,0:0:0:0:
116,293,69018,6,0,B|160:299|196:276|196:276|227:294|274:286|274:286|212:237|245:164,1,287.999991210938,2|0,0:0|0:0,0:0:0:0:
247,116,70446,2,0,P|266:121|283:131,1,40,2|0,0:0|0:0,0:0:0:0:
336,247,70732,6,0,L|350:176,1,71.9999978027344,2|0,0:0|0:0,0:0:0:0:
450,87,71018,2,0,P|420:86|392:97,1,60.0000022888184
363,246,71304,2,0,L|373:292,1,47.9999985351563
211,353,71589,6,0,P|193:343|178:329,1,40,2|0,0:0|0:0,0:0:0:0:
273,287,71875,2,0,P|272:306|268:326,1,40
186,265,72161,2,0,P|202:253|221:248,1,40,0|0,0:3|0:3,0:3:0:0:
124,373,72446,6,0,P|157:259|129:143,1,240,2|0,0:0|0:0,0:0:0:0:
68,127,73875,2,0,P|49:129|30:136,1,40
129,29,74161,6,0,L|188:39,1,60.0000022888184,2|0,0:0|0:0,0:0:0:0:
263,104,74446,2,0,L|212:114,1,51.999997619629
285,34,74732,2,0,L|328:41,1,44.0000013427735
396,1,75018,6,0,P|392:76|418:146,1,150.000005722046,2|0,0:0|0:0,0:0:0:0:
479,122,75875,6,0,B|460:162|416:171|416:171|418:206|397:241|397:241|376:197|332:193,1,240,2|0,0:0|0:0,0:0:0:0:
316,198,77304,2,0,L|324:237,1,40,2|0,0:0|0:0,0:0:0:0:
251,320,77589,6,0,P|218:334|182:336,1,71.9999978027344,2|0,0:0|0:0,0:0:0:0:
101,208,77875,2,0,P|131:208|159:219,1,60.0000022888184
214,362,78161,2,0,P|190:356|169:345,1,47.9999985351563
77,270,78446,6,0,L|85:231,1,40,2|0,0:0|0:0,0:0:0:0:
12,139,78732,2,0,L|19:178,1,40
86,283,79018,2,0,L|93:243,1,40
224,142,79304,6,0,P|281:130|307:91,1,90.0000034332277,2|0,0:0|0:0,0:0:0:0:
216,162,79875,1,2,0:0:0:0:
342,0,80161,2,0,P|326:76|349:155,1,160,2|0,0:0|0:0,0:0:0:0:
489,229,81018,6,0,P|444:221|399:216,1,90.0000034332277,2|0,0:0|0:0,0:0:0:0:
359,262,81589,2,0,L|370:300,1,40,2|0,0:0|0:0,0:0:0:0:
161,223,81875,6,0,P|170:188|193:161,1,71.9999978027344,2|0,0:0|0:0,0:0:0:0:
285,215,82161,2,0,P|256:222|226:217,1,60.0000022888184
235,116,82446,2,0,P|248:135|253:158,1,47.9999985351563
214,273,82732,6,0,P|216:193|235:115,1,160,2|0,0:0|0:0,0:0:0:0:
428,258,83589,6,0,P|386:232|366:186,1,100,2|0,0:0|0:0,0:0:0:0:
261,266,84446,6,0,P|330:198|326:101,1,200,2|0,0:0|0:0,0:0:0:0:
489,121,85304,6,0,B|391:111|375:31|408:-22|469:-33|500:24|467:62,1,259.999988098145,2|0,0:0|0:0,0:0:0:0:
326,101,86161,5,2,0:0:0:0:
310,95,86446,1,0,0:0:0:0:
285,93,86732,1,2,0:0:0:0:
241,110,87018,1,0,0:0:0:0:
214,170,87304,1,2,0:0:0:0:
236,248,87589,1,0,0:0:0:0:
340,285,87875,5,2,0:0:0:0:
347,281,88446,1,2,0:0:0:0:
354,274,89018,2,0,L|361:223,1,40,2|0,0:0|0:0,0:0:0:0:
326,101,89589,5,2,0:0:0:0:
309,117,89875,1,0,0:0:0:0:
251,82,90161,1,2,0:0:0:0:
187,141,90446,1,0,0:0:0:0:
131,59,90732,1,2,0:0:0:0:
70,173,91018,1,0,0:0:0:0:
5,130,91240,6,0,L|3:116,2,8.88888888888889,0|2|0,0:0|0:0|0:0,0:0:0:0:
4,121,92891,6,0,L|7:106,2,8.88888888888889,0|0|6,0:0|0:0|0:0,0:0:0:0:
