osu file format v14

[General]
AudioFilename: audio.mp3
AudioLeadIn: 0
PreviewTime: 56670
Countdown: 0
SampleSet: Soft
StackLeniency: 0.5
Mode: 2
LetterboxInBreaks: 0
WidescreenStoryboard: 1

[Editor]
Bookmarks: 11670,34170,56670,81982,87607,110107,132607,157920,163545,174795
DistanceSpacing: 1.2
BeatDivisor: 6
GridSize: 4
TimelineZoom: 1

[Metadata]
Title:Kaine / Escape
TitleUnicode:カイネ/逃避
Artist:Okabe Keiichi
ArtistUnicode:岡部 啓一
Creator:Sorcerer
Version:Cup
Source:NieR
Tags:Replicant Gestalt Emi Evans OST
BeatmapID:1804081
BeatmapSetID:862465

[Difficulty]
HPDrainRate:3
CircleSize:2.9
OverallDifficulty:5.6
ApproachRate:5.6
SliderMultiplier:1.5
SliderTickRate:2

[Events]
//Background and Video events
0,0,"kaine.jpg",0,0
//Break Periods
//Storyboard Layer 0 (Background)
//Storyboard Layer 1 (Fail)
//Storyboard Layer 2 (Pass)
//Storyboard Layer 3 (Foreground)
//Storyboard Sound Samples

[TimingPoints]
420,703.12774659276,4,2,1,25,1,0
420,-66.6666666666667,4,2,1,25,0,0
11670,-66.6666666666667,4,2,1,45,0,0
34170,-66.6666666666667,4,2,1,40,0,0
56670,-66.6666666666667,4,2,1,50,0,1
81982,-66.6666666666667,4,2,1,45,0,0
86353,703.12774659276,4,2,1,45,1,0
86353,-66.6666666666667,4,2,1,45,0,0
86670,703.12774659276,4,2,1,45,1,0
86670,-66.6666666666667,4,2,1,45,0,0
87607,703.12774659276,4,2,1,45,1,0
87607,-66.6666666666667,4,2,1,45,0,0
110107,-66.6666666666667,4,2,1,40,0,0
132607,-66.6666666666667,4,2,1,50,0,1
157919,-66.6666666666667,4,2,1,45,0,0
162290,703.12774659276,4,2,1,45,1,0
162290,-66.6666666666667,4,2,1,45,0,0
162607,703.12774659276,4,2,1,45,1,0
162607,-66.6666666666667,4,2,1,45,0,0

[Colours]
Combo1 : 84,90,129
Combo2 : 191,249,255
Combo3 : 200,185,219

[HitObjects]
232,260,420,6,0,L|120:144,2,150,2|0|0,0:1|0:0|0:0,0:0:0:0:
344,264,1826,2,0,P|380:216|312:140,1,150,0|0,0:0|0:0,0:0:0:0:
236,116,2763,1,0,0:0:0:0:
116,140,3232,6,0,P|228:188|252:240,2,150,2|0|0,0:0|0:0|0:0,0:0:0:0:
224,180,4638,2,0,L|368:112,1,150,0|0,0:0|0:0,0:0:0:0:
432,28,5576,1,0,0:0:0:0:
280,36,6045,6,0,P|200:72|164:176,2,150,6|0|0,0:0|0:0|0:0,0:0:0:0:
384,88,7451,2,0,P|448:140|444:224,1,150,0|0,0:0|0:0,0:0:0:0:
348,232,8388,1,0,0:0:0:0:
196,224,8857,6,0,P|116:192|116:92,2,150,2|0|0,0:0|0:0|0:0,0:0:0:0:
320,272,10263,2,0,P|344:200|280:140,1,150,0|0,0:0|0:0,0:0:0:0:
128,140,11201,1,2,0:0:0:0:
320,224,11670,6,0,P|364:192|380:100,1,150,12|2,0:0|0:3,0:0:0:0:
360,88,12373,1,2,0:1:0:0:
320,84,12607,1,2,0:0:0:0:
152,72,13076,2,0,P|44:117|36:152,2,150,6|2|0,0:0|0:3|0:0,0:0:0:0:
348,48,14482,6,0,B|424:76|424:76|476:144,1,150,12|2,0:0|0:3,0:0:0:0:
440,172,15185,1,2,0:1:0:0:
388,204,15420,1,2,0:0:0:0:
236,224,15888,1,6,0:0:0:0:
360,216,16357,2,0,P|432:168|424:88,1,150,2|0,0:3|0:0,0:0:0:0:
236,76,17295,6,0,P|176:144|252:204,1,150,12|2,0:0|0:3,0:0:0:0:
252,212,17998,2,0,L|352:240,1,75,2|2,0:1|0:0,0:0:0:0:
168,224,18701,2,0,P|88:192|84:112,2,150,6|2|0,0:0|0:3|0:0,0:0:0:0:
352,236,20107,6,0,P|328:156|252:124,1,150,12|2,0:0|0:3,0:0:0:0:
200,116,20810,2,0,L|284:116,1,75,2|2,0:1|0:0,0:0:0:0:
416,124,21513,2,0,P|344:168|332:244,2,150,6|2|2,0:0|0:3|0:3,0:0:0:0:
228,108,22920,6,0,P|132:156|120:200,1,150,12|2,0:0|0:3,0:0:0:0:
148,216,23623,1,2,0:1:0:0:
200,248,23857,1,2,0:0:0:0:
364,244,24326,2,0,P|340:320|252:360,1,150,6|2,0:0|0:3,0:0:0:0:
164,344,25263,1,0,0:0:0:0:
356,292,25732,6,0,P|320:204|248:172,1,150,12|2,0:0|0:3,0:0:0:0:
312,160,26435,1,2,0:1:0:0:
364,140,26670,1,2,0:0:0:0:
208,148,27138,2,0,P|120:124|96:48,2,150,6|2|0,0:0|0:3|0:0,0:0:0:0:
400,172,28545,6,0,L|240:172,1,150,12|2,0:0|0:3,0:0:0:0:
192,188,29248,1,2,0:1:0:0:
252,208,29482,1,2,0:0:0:0:
408,208,29951,2,0,P|484:240|504:328,2,150,6|2|0,0:0|0:3|0:0,0:0:0:0:
208,224,31357,6,0,P|116:180|96:96,1,150,12|2,0:0|0:3,0:0:0:0:
124,112,32060,1,2,0:1:0:0:
180,84,32295,1,2,0:0:0:0:
368,84,32763,5,6,0:0:0:0:
420,136,32998,1,2,0:0:0:0:
438,208,33232,1,2,0:1:0:0:
419,280,33466,1,2,0:0:0:0:
366,332,33701,1,6,0:0:0:0:
160,288,34170,6,0,P|96:244|172:136,1,225,12|2,0:0|0:1,0:0:0:0:
244,132,35107,1,0,0:0:0:0:
380,148,35576,2,0,L|244:252,2,150,2|2|0,0:0|0:3|0:0,0:0:0:0:
204,196,36982,6,0,P|116:168|100:20,1,225,6|2,0:0|0:1,0:0:0:0:
152,40,37920,1,0,0:0:0:0:
296,224,38388,2,0,P|384:196|400:48,1,225,2|2,0:0|0:1,0:0:0:0:
348,68,39326,1,0,0:0:0:0:
148,80,39795,6,0,P|220:120|168:256,1,225,6|2,0:0|0:1,0:0:0:0:
148,252,40732,1,0,0:0:0:0:
328,244,41201,2,0,P|336:192|240:120,1,150,2|2,0:0|0:3,0:0:0:0:
164,148,42138,1,0,0:0:0:0:
352,132,42607,6,0,P|400:200|304:320,1,225,6|2,0:0|0:1,0:0:0:0:
272,304,43545,1,0,0:0:0:0:
116,112,44013,2,0,P|68:180|164:300,1,225,2|2,0:0|0:1,0:0:0:0:
196,284,44951,1,0,0:0:0:0:
392,232,45420,6,0,P|296:192|268:72,1,225,12|2,0:0|0:1,0:0:0:0:
312,52,46357,1,0,0:0:0:0:
152,52,46826,2,0,P|64:80|32:168,2,150,2|2|0,0:0|0:3|0:0,0:0:0:0:
340,48,48232,6,0,P|432:92|464:232,1,225,6|2,0:0|0:1,0:0:0:0:
392,216,49170,1,0,0:0:0:0:
236,96,49638,2,0,P|144:140|112:280,1,225,2|2,0:0|0:1,0:0:0:0:
184,264,50576,1,0,0:0:0:0:
380,280,51045,6,0,P|424:216|352:172,1,150,6|2,0:1|0:3,0:0:0:0:
312,180,51748,1,2,0:1:0:0:
112,236,52451,6,0,P|68:172|140:128,1,150,6|2,0:1|0:3,0:0:0:0:
180,136,53154,1,2,0:1:0:0:
384,144,53857,6,0,L|176:144,1,150,6|2,0:1|0:3,0:0:0:0:
180,136,54560,1,2,0:1:0:0:
220,96,54795,1,0,0:0:0:0:
392,264,55263,5,6,0:1:0:0:
454,224,55498,1,2,0:0:0:0:
475,154,55732,1,2,0:3:0:0:
445,87,55966,1,8,0:3:0:0:
378,56,56201,1,2,0:0:0:0:
184,232,56670,6,0,P|72:192|84:132,1,150,12|2,0:0|0:3,0:0:0:0:
100,156,57373,1,2,0:0:0:0:
156,128,57607,1,0,0:0:0:0:
344,120,58076,2,0,L|476:220,2,150,2|2|0,0:1|0:3|0:0,0:0:0:0:
148,88,59482,6,0,P|76:136|180:200,1,225,6|2,0:0|0:0,0:0:0:0:
328,216,60654,1,2,0:3:0:0:
376,184,60888,2,0,L|216:184,2,150,2|2|0,0:1|0:3|0:0,0:0:0:0:
180,184,62295,6,0,P|188:112|276:64,1,150,6|2,0:0|0:3,0:0:0:0:
296,64,62998,1,2,0:0:0:0:
352,52,63232,1,0,0:0:0:0:
156,64,63701,2,0,P|88:104|80:200,2,150,2|2|0,0:1|0:3|0:0,0:0:0:0:
360,64,65107,6,0,P|272:80|204:200,2,225,6|2|2,0:0|0:0|0:1,0:0:0:0:
176,176,66982,2,0,L|120:124,2,75,2|2|0,0:3|0:1|0:0,0:0:0:0:
376,172,67920,6,0,P|432:236|400:332,1,150,12|2,0:0|0:3,0:0:0:0:
400,328,68623,1,2,0:0:0:0:
348,352,68857,1,0,0:0:0:0:
176,312,69326,2,0,P|88:284|92:188,2,150,2|2|0,0:1|0:3|0:0,0:0:0:0:
372,280,70732,6,0,P|348:200|180:176,1,225,6|2,0:0|0:0,0:0:0:0:
380,172,71904,1,2,0:3:0:0:
312,172,72138,2,0,P|236:164|204:96,2,150,2|2|0,0:1|0:3|0:0,0:0:0:0:
104,116,73545,6,0,P|52:176|64:272,1,150,6|2,0:0|0:3,0:0:0:0:
72,284,74248,1,2,0:0:0:0:
120,312,74482,1,0,0:0:0:0:
320,292,74951,2,0,P|396:260|400:172,2,150,2|2|0,0:1|0:3|0:0,0:0:0:0:
120,248,76357,6,0,P|212:208|220:132,1,150,12|2,0:0|0:3,0:0:0:0:
196,124,77060,1,2,0:1:0:0:
356,108,77763,2,0,P|416:152|400:236,1,150,6|2,0:0|0:3,0:0:0:0:
364,248,78466,1,2,0:1:0:0:
156,240,79170,5,6,0:0:0:0:
304,200,79873,2,0,P|179:182|148:96,2,225,2|6|6,0:1|0:0|0:0,0:0:0:0:
360,196,81513,1,0,0:0:0:0:
156,200,81982,6,0,P|88:156|156:48,1,225,12|2,0:0|0:1,0:0:0:0:
200,44,82920,1,0,0:0:0:0:
356,40,83388,2,0,P|436:84|444:168,2,150,2|2|0,0:0|0:3|0:0,0:0:0:0:
200,84,84795,6,0,P|96:112|52:216,1,225,6|2,0:0|0:0,0:0:0:0:
96,236,85732,1,0,0:0:0:0:
288,308,86201,5,8,0:3:0:0:
376,192,86670,1,8,0:3:0:0:
340,120,86904,1,2,0:1:0:0:
273,69,87138,1,2,0:0:0:0:
88,80,87607,6,0,P|160:144|152:208,1,150,12|2,0:0|0:3,0:0:0:0:
136,220,88310,1,2,0:1:0:0:
92,252,88545,1,2,0:0:0:0:
272,256,89013,2,0,P|348:224|380:148,2,150,6|2|0,0:0|0:3|0:0,0:0:0:0:
80,268,90420,6,0,P|24:220|40:136,1,150,12|2,0:0|0:3,0:0:0:0:
72,132,91123,1,2,0:1:0:0:
136,116,91357,1,2,0:0:0:0:
304,108,91826,2,0,P|288:188|212:248,1,150,6|2,0:0|0:3,0:0:0:0:
108,244,92763,1,0,0:0:0:0:
304,236,93232,6,0,P|388:200|380:96,1,150,12|2,0:0|0:3,0:0:0:0:
440,144,93935,1,2,0:1:0:0:
400,112,94170,1,2,0:0:0:0:
256,200,94638,2,0,P|176:160|168:96,2,150,6|2|0,0:0|0:3|0:0,0:0:0:0:
444,184,96045,6,0,P|360:240|276:248,1,150,12|2,0:0|0:3,0:0:0:0:
244,248,96748,2,0,L|156:248,1,75,2|2,0:1|0:0,0:0:0:0:
348,200,97451,2,0,P|408:160|416:72,2,150,6|2|2,0:0|0:3|0:3,0:0:0:0:
160,216,98857,6,0,P|220:144|288:144,1,150,12|2,0:0|0:3,0:0:0:0:
331,183,99560,2,0,L|265:135,1,75,2|2,0:1|0:0,0:0:0:0:
104,168,100263,2,0,P|32:132|16:44,2,150,6|2|0,0:0|0:3|0:0,0:0:0:0:
308,156,101670,6,0,P|320:240|228:292,1,150,12|2,0:0|0:3,0:0:0:0:
220,272,102373,1,2,0:1:0:0:
152,272,102607,1,2,0:0:0:0:
316,252,103076,2,0,P|408:216|424:132,2,150,6|2|0,0:0|0:3|0:0,0:0:0:0:
132,256,104482,6,0,P|64:208|60:128,1,150,12|2,0:0|0:3,0:0:0:0:
84,124,105185,1,2,0:1:0:0:
140,96,105420,1,2,0:0:0:0:
296,100,105888,2,0,P|224:120|188:196,2,150,6|2|0,0:0|0:3|0:0,0:0:0:0:
480,104,107295,6,0,P|488:184|396:200,1,150,12|2,0:0|0:3,0:0:0:0:
378,262,107998,2,0,L|438:210,1,75,2|2,0:1|0:0,0:0:0:0:
268,248,108701,5,6,0:0:0:0:
202,213,108935,1,2,0:0:0:0:
176,145,109170,1,2,0:1:0:0:
200,76,109404,1,2,0:0:0:0:
264,39,109638,1,6,0:0:0:0:
464,88,110107,6,0,P|480:172|360:208,1,225,12|2,0:0|0:1,0:0:0:0:
304,168,111045,1,0,0:0:0:0:
152,168,111513,2,0,P|76:136|80:28,2,150,2|2|0,0:0|0:3|0:0,0:0:0:0:
336,116,112920,6,0,P|424:168|424:288,1,225,6|0,0:0|0:0,0:0:0:0:
364,308,113857,1,0,0:0:0:0:
200,96,114326,2,0,P|108:153|108:261,1,225,2|0,0:0|0:0,0:0:0:0:
171,287,115263,1,0,0:0:0:0:
368,280,115732,6,0,P|272:252|236:136,1,225,6|2,0:0|0:1,0:0:0:0:
296,120,116670,1,0,0:0:0:0:
144,120,117138,2,0,P|216:208|312:212,1,150,2|2,0:0|0:3,0:0:0:0:
384,228,118076,1,0,0:0:0:0:
196,228,118545,6,0,P|104:184|148:68,1,225,6|0,0:0|0:0,0:0:0:0:
196,48,119482,1,0,0:0:0:0:
340,248,119951,2,0,P|432:204|388:88,1,225,2|0,0:0|0:0,0:0:0:0:
340,68,120888,1,0,0:0:0:0:
160,60,121357,6,0,P|240:108|180:232,1,225,12|2,0:0|0:1,0:0:0:0:
160,240,122295,1,0,0:0:0:0:
332,236,122763,2,0,P|440:200|464:144,2,150,2|2|0,0:0|0:3|0:0,0:0:0:0:
176,224,124170,6,0,P|96:204|72:52,1,225,6|0,0:0|0:0,0:0:0:0:
132,48,125107,1,0,0:0:0:0:
288,248,125576,2,0,P|368:228|392:76,1,225,2|0,0:0|0:0,0:0:0:0:
332,72,126513,1,0,0:0:0:0:
140,264,126982,6,0,P|96:200|168:156,1,150,6|2,0:1|0:3,0:0:0:0:
208,164,127685,1,2,0:1:0:0:
408,220,128389,2,0,P|452:156|380:112,1,150,6|2,0:1|0:3,0:0:0:0:
340,120,129091,1,2,0:1:0:0:
136,128,129795,6,0,L|368:128,1,225,6|2,0:1|0:1,0:0:0:0:
300,80,130732,1,0,0:0:0:0:
128,248,131201,5,6,0:1:0:0:
66,208,131435,1,2,0:0:0:0:
45,138,131670,1,2,0:3:0:0:
75,71,131904,1,8,0:3:0:0:
142,40,132138,1,2,0:0:0:0:
340,36,132607,6,0,P|400:88|376:188,1,150,12|2,0:0|0:3,0:0:0:0:
360,172,133310,1,2,0:0:0:0:
300,184,133545,1,0,0:0:0:0:
152,188,134013,2,0,P|72:216|56:316,2,150,2|2|0,0:1|0:3|0:0,0:0:0:0:
340,92,135420,6,0,P|412:140|308:204,1,225,6|2,0:0|0:0,0:0:0:0:
160,220,136591,1,2,0:3:0:0:
104,188,136826,2,0,P|196:160|216:96,2,150,2|2|0,0:1|0:3|0:0,0:0:0:0:
304,240,138232,6,0,P|384:164|360:96,1,150,6|2,0:0|0:3,0:0:0:0:
356,112,138935,1,2,0:0:0:0:
304,88,139170,1,0,0:0:0:0:
144,88,139638,2,0,P|64:112|48:208,2,150,2|2|0,0:1|0:3|0:0,0:0:0:0:
332,72,141045,6,0,P|352:144|196:204,2,225,6|0|0,0:0|0:0|0:0,0:0:0:0:
144,56,142920,2,0,L|124:136,1,75,2|0,0:3|0:0,0:0:0:0:
196,164,143388,1,0,0:0:0:0:
392,160,143857,6,0,P|456:212|436:288,1,150,12|2,0:0|0:3,0:0:0:0:
432,288,144560,1,2,0:0:0:0:
392,304,144795,1,0,0:0:0:0:
236,304,145263,2,0,P|336:252|352:156,2,150,2|2|0,0:1|0:3|0:0,0:0:0:0:
88,308,146670,6,0,P|20:240|92:128,1,225,6|0,0:0|0:0,0:0:0:0:
244,140,147841,1,2,0:3:0:0:
304,136,148076,2,0,P|376:92|388:8,2,150,2|2|0,0:1|0:3|0:0,0:0:0:0:
120,96,149482,6,0,P|48:136|32:200,1,150,6|2,0:0|0:3,0:0:0:0:
64,236,150185,1,2,0:0:0:0:
120,264,150420,1,0,0:0:0:0:
288,240,150888,2,0,P|244:308|160:328,2,150,2|2|0,0:1|0:3|0:0,0:0:0:0:
428,248,152295,6,0,P|488:176|412:104,1,150,12|2,0:0|0:3,0:0:0:0:
408,112,152998,1,2,0:1:0:0:
208,256,153701,2,0,P|268:184|192:112,1,150,6|2,0:0|0:3,0:0:0:0:
188,120,154404,1,2,0:1:0:0:
384,100,155107,5,6,0:0:0:0:
216,204,155810,2,0,P|91:186|60:100,2,225,2|4|6,0:1|0:0|0:0,0:0:0:0:
272,200,157451,1,0,0:0:0:0:
80,208,157920,6,0,P|40:136|140:56,1,225,12|0,0:0|0:0,0:0:0:0:
208,56,158857,1,0,0:0:0:0:
396,88,159326,2,0,P|472:128|480:224,2,150,2|2|0,0:0|0:3|0:0,0:0:0:0:
200,240,160732,6,0,P|116:192|132:56,1,225,6|2,0:0|0:0,0:0:0:0:
180,44,161670,1,0,0:0:0:0:
364,320,162138,5,8,0:3:0:0:
448,184,162607,1,8,0:3:0:0:
417,113,162841,1,2,0:1:0:0:
353,77,163076,1,2,0:0:0:0:
156,72,163545,5,14,0:0:0:0:
