osu file format v14

[General]
AudioFilename: audio.mp3
AudioLeadIn: 0
PreviewTime: 56424
Countdown: 0
SampleSet: Soft
StackLeniency: 0.4
Mode: 0
LetterboxInBreaks: 0
WidescreenStoryboard: 1

[Editor]
Bookmarks: 180,11430,33930,56430,81742,87367
DistanceSpacing: 1
BeatDivisor: 4
GridSize: 8
TimelineZoom: 1.7

[Metadata]
Title:Kaine / Escape
TitleUnicode:カイネ/逃避
Artist:Okabe Keiichi
ArtistUnicode:岡部 啓一
Creator:Phynta
Version:Hard
Source:NieR
Tags:ニーア レプリカント ゲシュタルト gestalt replicant vgm video game videogame music ost original soundtrack square enix kainé jasontime12345 mizunashi akari lurumic folk sound track touhi tohi constructed language conlang
BeatmapID:4050336
BeatmapSetID:1894649

[Difficulty]
HPDrainRate:4
CircleSize:5.4
OverallDifficulty:6
ApproachRate:7
SliderMultiplier:1.5
SliderTickRate:1

[Events]
//Background and Video events
0,0,"kaine.png",0,0
//Break Periods
//Storyboard Layer 0 (Background)
//Storyboard Layer 1 (Fail)
//Storyboard Layer 2 (Pass)
//Storyboard Layer 3 (Foreground)
//Storyboard Layer 4 (Overlay)
//Storyboard Sound Samples

[TimingPoints]
185,468.75,3,2,0,40,1,0
185,-200,3,2,0,40,0,0
10966,-200,3,2,0,50,0,0
11435,-88.4955752212389,3,2,0,60,0,0
33935,-100,3,2,0,50,0,0
36747,-88.4955752212389,3,2,0,50,0,0
39560,-100,3,2,0,50,0,0
42372,-88.4955752212389,3,2,0,50,0,0
45185,-100,3,2,0,50,0,0
47997,-88.4955752212389,3,2,0,50,0,0
52216,-88.4955752212389,3,2,0,50,0,0
53622,-80,3,2,0,50,0,0
54560,-100,3,2,0,50,0,0
55731,-88.4955752212389,3,2,0,50,0,0
56435,-80,3,2,0,70,0,1
81747,-80,3,2,0,50,0,0

[Colours]
Combo1 : 255,198,198
Combo2 : 101,154,197

[HitObjects]
312,336,185,6,0,B|363:244|488:278|488:278|431:288|438:367|376:394|318:350,1,412.5,6|2,0:0|0:0,0:0:0:0:
200,336,2997,6,0,B|148:244|23:278|23:278|80:288|73:367|135:394|193:350,1,412.5,2|2,0:0|0:0,0:0:0:0:
280,352,5810,6,0,B|320:312|320:248|272:216|256:144|256:144|240:216|192:248|192:312|232:352,1,450,6|2,0:0|0:0,0:0:0:0:
256,192,8739,12,2,10731,0:0:0:0:
19,51,10966,5,2,0:3:0:0:
19,51,11083,1,2,0:3:0:0:
19,51,11200,1,2,0:3:0:0:
19,51,11317,1,2,0:3:0:0:
19,51,11435,2,0,P|57:39|102:11,1,84.7500002586365,6|2,1:2|0:2,0:2:0:0:
135,4,11785,1,0,0:0:0:0:
170,27,11903,2,0,P|193:59|233:93,1,84.7500002586365,2|10,3:2|3:2,0:0:0:0:
284,150,12372,1,0,0:0:0:0:
360,113,12606,1,2,3:2:0:0:
435,154,12841,6,0,P|446:203|453:253,2,84.7500002586365,2|2|2,3:2|0:2|3:2,0:0:0:0:
492,91,13544,2,0,P|498:49|508:7,1,84.7500002586365,10|0,3:2|0:0,0:2:0:0:
507,7,14013,1,2,1:2:0:0:
427,32,14247,6,0,B|393:56|370:31|329:44,1,84.7500002586365,2|0,1:2|0:0,0:2:0:0:
306,22,14599,1,0,0:0:0:0:
267,3,14716,2,0,B|270:44|237:51|228:93,1,84.7500002586365,2|10,3:2|3:2,0:2:0:0:
180,144,15185,1,2,0:2:0:0:
235,208,15419,1,2,3:2:0:0:
199,284,15653,6,0,P|152:293|114:306,2,84.7500002586365,2|2|2,3:2|0:2|3:2,0:2:0:0:
255,360,16356,1,10,3:2:0:0:
255,360,16591,1,2,0:2:0:0:
321,308,16825,1,2,1:2:0:0:
388,360,17060,6,0,P|430:365|477:346,1,84.7500002586365,2|2,1:2|0:2,0:2:0:0:
497,319,17411,1,0,0:0:0:0:
502,277,17528,2,0,P|485:238|445:206,1,84.7500002586365,2|10,3:2|3:2,0:2:0:0:
369,196,17997,1,0,0:0:0:0:
359,111,18231,1,2,3:2:0:0:
435,72,18466,6,0,P|468:77|496:120,2,84.7500002586365,2|2|2,3:2|0:2|3:2,0:2:0:0:
363,26,19169,2,0,P|329:22|292:57,1,84.7500002586365,10|2,3:2|0:2,0:0:0:0:
293,53,19638,1,2,1:2:0:0:
221,9,19872,6,0,P|173:4|134:-2,1,84.7500002586365,2|2,1:2|0:2,0:2:0:0:
100,20,20224,1,0,0:0:0:0:
65,45,20341,2,0,P|60:93|54:132,1,84.7500002586365,2|10,3:2|3:2,0:2:0:0:
20,206,20810,1,2,0:2:0:0:
100,232,21044,1,2,3:2:0:0:
180,205,21278,6,0,B|193:190|193:190|186:120,2,84.7500002586365,2|2|2,3:2|0:2|3:2,0:0:0:0:
233,276,21981,1,10,3:2:0:0:
233,276,22216,1,2,0:2:0:0:
315,295,22450,1,2,1:2:0:0:
253,358,22685,6,0,B|214:366|214:366|208:363|208:363|167:372,1,84.7500002586365,6|0,1:2|0:0,0:2:0:0:
129,381,23036,1,0,0:0:0:0:
87,374,23153,2,0,B|48:365|48:365|42:368|42:368|2:359,1,84.7500002586365,2|10,3:2|3:2,0:2:0:0:
10,276,23622,1,2,0:2:0:0:
18,191,23856,1,2,3:2:0:0:
64,119,24091,6,0,P|56:68|48:30,2,84.7500002586365,2|2|2,3:2|0:2|3:2,0:0:0:0:
130,171,24794,2,0,P|121:212|115:254,1,84.7500002586365,10|2,3:2|0:2,0:2:0:0:
114,254,25263,1,2,1:2:0:0:
195,226,25497,6,0,B|218:224|232:209|232:209|238:228|259:240,1,84.7500002586365,2|0,1:2|0:0,0:2:0:0:
271,281,25849,1,0,0:0:0:0:
282,322,25966,2,0,B|305:324|319:339|319:339|325:320|346:308,1,84.7500002586365,2|10,3:2|3:2,0:2:0:0:
413,254,26435,1,2,0:2:0:0:
477,308,26669,1,2,3:2:0:0:
495,225,26903,6,0,B|485:187|497:180|483:133,1,84.7500002586365,2|2,3:2|0:2,0:0:0:0:
416,91,27372,2,0,B|426:53|414:46|428:-1,1,84.7500002586365,2|10,3:2|3:2,0:0:0:0:
500,58,27841,1,2,0:2:0:0:
500,58,28075,1,2,1:2:0:0:
485,141,28310,6,0,P|456:168|412:177,1,84.7500002586365,2|0,1:2|0:0,0:2:0:0:
373,160,28661,1,0,0:0:0:0:
342,130,28778,2,0,P|313:103|269:94,1,84.7500002586365,2|10,3:2|3:2,0:2:0:0:
189,120,29247,1,2,0:2:0:0:
113,158,29481,1,2,3:2:0:0:
53,97,29716,6,0,L|61:8,2,84.7500002586365,2|2|2,3:2|0:2|3:2,0:0:0:0:
113,158,30419,2,0,L|105:247,1,84.7500002586365,10|2,3:2|0:2,0:2:0:0:
105,242,30888,1,2,1:2:0:0:
20,242,31122,6,0,B|9:256|9:256|30:324,1,84.7500002586365,2|0,1:2|0:0,0:2:0:0:
59,350,31474,1,0,0:0:0:0:
99,363,31591,2,0,B|113:374|113:374|181:353,1,84.7500002586365,2|10,3:2|3:2,0:2:0:0:
245,304,32060,1,2,0:2:0:0:
317,347,32294,1,2,3:2:0:0:
396,317,32528,6,0,P|405:263|406:225,1,84.7500002586365,2|2,3:2|0:2,0:0:0:0:
337,183,32997,2,0,P|317:131|299:98,1,84.7500002586365,2|10,3:2|3:2,0:0:0:0:
318,21,33466,1,2,3:2:0:0:
398,46,33700,1,2,1:2:0:0:
470,3,33935,6,0,B|506:80|459:145|503:239,1,225,6|8,1:2|3:2,0:2:0:0:
492,298,34872,2,0,P|504:338|511:373,1,75,0|0,0:0|3:2,0:0:0:0:
429,261,35341,6,0,B|345:269|345:269|320:276|320:276|252:282,1,150,2|2,3:2|3:2,0:2:0:0:
280,280,35927,1,0,0:0:0:0:
280,280,36044,1,8,0:2:0:0:
260,362,36278,1,2,0:2:0:0:
260,362,36513,1,0,0:0:0:0:
201,301,36747,6,0,P|210:201|220:133,1,169.500000517273,2|0,1:2|3:0,0:2:0:0:
288,81,37450,1,8,3:2:0:0:
242,9,37685,1,0,0:0:0:0:
175,61,37919,1,0,3:0:0:0:
220,132,38153,6,0,P|208:215|202:285,1,127.125000387955,0|0,3:0|3:0,0:0:0:0:
201,301,38622,1,2,3:0:0:0:
156,363,38856,2,0,P|199:378|236:369,2,84.7500002586365,8|0|0,0:2|0:0|1:2,0:0:0:0:
79,324,39560,6,0,B|42:332|27:363|27:363|-24:292|21:215,1,225,2|8,1:2|3:2,0:2:0:0:
94,173,40497,2,0,P|108:139|102:100,1,75,0|0,0:0|3:2,0:0:0:0:
30,58,40966,6,0,B|40:27|40:27|126:11|126:11|148:33,1,150,2|2,3:2|3:2,0:2:0:0:
147,32,41552,1,0,0:0:0:0:
147,32,41669,1,8,0:2:0:0:
193,110,41903,1,2,0:2:0:0:
193,110,42138,1,0,1:2:0:0:
260,59,42372,6,0,B|308:13|373:83|427:65,1,169.500000517273,2|0,1:2|3:0,0:2:0:0:
502,94,43075,1,8,3:2:0:0:
484,10,43310,1,0,0:0:0:0:
421,67,43544,1,0,3:0:0:0:
440,149,43778,6,0,B|404:182|356:131|317:144,1,127.125000387955,0|0,3:0|0:0,0:0:0:0:
276,144,44247,1,0,3:0:0:0:
214,201,44481,2,0,P|172:194|127:192,2,84.7500002586365,8|0|0,3:2|3:0|1:2,0:0:0:0:
272,263,45185,6,0,B|309:302|309:368|309:368|324:304|367:278,1,225,2|8,1:2|3:2,0:2:0:0:
438,233,46122,2,0,P|475:239|514:240,1,75,0|0,0:0|3:2,0:0:0:0:
484,160,46591,6,0,B|478:145|478:145|507:30|507:30|502:16,1,150,2|2,3:2|3:2,0:2:0:0:
503,16,47177,1,0,0:0:0:0:
503,16,47294,1,8,3:2:0:0:
419,0,47528,1,2,0:2:0:0:
419,0,47763,1,0,1:2:0:0:
392,80,47997,6,0,P|361:116|242:118,1,169.500000517273,2|0,1:2|3:0,0:2:0:0:
233,36,48700,1,8,3:2:0:0:
149,49,48935,1,0,0:0:0:0:
162,133,49169,1,0,3:0:0:0:
246,120,49403,6,0,P|303:134|349:191,1,127.125000387955,0|0,3:0|3:0,0:0:0:0:
354,225,49872,1,0,3:0:0:0:
321,303,50106,2,0,P|323:344|355:376,2,84.7500002586365,8|0|0,3:2|0:0|1:0,0:0:0:0:
267,236,50810,6,0,P|195:246|131:263,1,127.125000387955,2|0,1:2|3:0,0:2:0:0:
142,259,51278,1,0,3:2:0:0:
61,285,51513,2,0,P|67:328|77:367,2,84.7500002586365,10|0|0,3:2|0:2|1:2,0:2:0:0:
22,209,52216,5,2,1:2:0:0:
72,141,52450,1,0,0:2:0:0:
29,67,52685,2,0,B|44:26|44:26|87:15,1,84.7500002586365,2|8,3:2|3:2,0:0:0:0:
124,6,53036,1,0,0:0:0:0:
124,6,53153,1,0,0:0:0:0:
188,61,53388,1,2,1:2:0:0:
259,17,53622,6,0,B|322:0|350:79|430:78,1,187.5,2|0,1:2|3:0,0:2:0:0:
430,78,54208,1,0,0:0:0:0:
430,78,54325,1,8,0:2:0:0:
495,0,54560,2,0,P|506:37|514:81,1,75,2|2,0:2|3:2,0:0:0:0:
484,152,55028,5,2,1:2:0:0:
475,236,55263,1,0,0:2:0:0:
479,324,55497,1,0,3:2:0:0:
411,375,55731,2,0,P|369:369|318:363,1,84.7500002586365,0|2,1:2|0:3,0:0:0:0:
287,347,56083,1,2,0:3:0:0:
274,329,56200,1,2,1:3:0:0:
274,307,56317,1,2,0:3:0:0:
285,296,56435,6,0,P|270:343|182:211,1,375,6|0,1:2|0:2,0:2:0:0:
266,198,57606,1,2,0:2:0:0:
351,159,57841,6,0,P|346:133|337:94,1,46.875,2|0,0:2|0:0,0:0:0:0:
325,68,58075,1,2,0:2:0:0:
233,88,58310,1,2,3:2:0:0:
183,167,58544,6,0,P|178:193|169:232,1,46.875,10|0,3:2|0:0,0:0:0:0:
157,258,58778,1,2,0:2:0:0:
65,237,59012,1,2,1:2:0:0:
53,143,59247,6,0,P|33:-2|148:88,1,375,2|0,1:2|0:0,0:2:0:0:
191,175,60419,5,2,0:2:0:0:
191,175,60536,1,0,0:0:0:0:
191,175,60653,1,2,3:2:0:0:
263,115,60888,1,2,3:2:0:0:
341,165,61122,1,2,3:2:0:0:
408,100,61356,2,0,P|400:42|391:4,1,93.75,10|0,3:2|0:0,0:0:0:0:
486,36,61825,5,0,1:2:0:0:
486,36,62060,2,0,P|498:130|501:225,1,187.5,2|0,1:2|3:0,0:2:0:0:
425,278,62763,1,8,3:2:0:0:
497,353,62997,1,0,0:2:0:0:
497,353,63114,1,0,0:0:0:0:
497,353,63231,1,2,0:2:0:0:
405,375,63466,6,0,L|361:355,1,46.875,2|0,3:2|0:0,0:0:0:0:
338,315,63700,2,0,P|290:323|241:336,1,93.75,2|2,0:2|3:2,0:0:0:0:
159,368,64169,6,0,L|139:324,1,46.875,10|0,3:2|0:0,0:0:0:0:
99,301,64403,1,2,0:2:0:0:
27,362,64638,1,2,1:2:0:0:
14,269,64872,6,0,B|21:204|21:204|26:194|26:194|36:110,1,140.625,2|0,1:2|3:0,0:2:0:0:
33,130,65341,1,2,3:2:0:0:
30,36,65575,1,10,3:2:0:0:
118,4,65810,1,0,0:0:0:0:
175,77,66044,1,2,0:2:0:0:
123,153,66278,6,0,B|166:209|106:237|122:309,1,140.625,2|0,0:2|0:0,0:0:0:0:
119,287,66747,1,0,3:2:0:0:
186,352,66981,2,0,P|146:373|82:370,2,93.75,8|0|0,3:2|0:2|1:2,0:0:0:0:
215,314,67567,1,0,0:0:0:0:
207,267,67685,6,0,B|239:268|258:241|258:241|307:278|305:350|305:350|320:280|374:254|374:254|390:286|427:289,1,375,6|0,1:2|0:2,0:2:0:0:
499,348,68856,1,2,0:2:0:0:
511,254,69091,2,0,P|505:223|498:200,1,46.875,2|0,3:2|0:0,0:0:0:0:
469,173,69325,1,2,0:2:0:0:
483,80,69559,1,2,3:2:0:0:
404,30,69794,2,0,P|398:61|391:84,1,46.875,10|0,3:2|0:0,0:0:0:0:
362,111,70028,1,2,0:2:0:0:
376,203,70262,1,2,1:2:0:0:
427,289,70497,6,0,B|389:285|374:253|374:253|319:280|305:350|305:350|306:277|258:240|258:240|239:268|206:266,1,375,2|0,1:2|0:0,0:2:0:0:
133,322,71669,5,2,0:2:0:0:
133,322,71786,1,0,0:0:0:0:
133,322,71903,1,2,3:2:0:0:
48,286,72138,1,2,3:2:0:0:
36,194,72372,1,2,3:2:0:0:
109,137,72606,2,0,P|161:135|211:146,1,93.75,10|0,3:2|0:0,0:0:0:0:
259,223,73075,5,0,1:2:0:0:
259,223,73310,2,0,P|333:222|456:193,1,187.5,2|0,1:2|3:0,0:2:0:0:
509,130,74013,1,8,3:2:0:0:
486,48,74247,1,0,0:2:0:0:
486,48,74364,1,0,0:0:0:0:
486,48,74481,1,2,1:2:0:0:
394,28,74716,6,0,P|371:44|380:89,1,46.875,2|0,1:2|0:0,0:0:0:0:
329,90,74950,2,0,P|331:135|365:173,1,93.75,2|2,0:2|3:2,0:0:0:0:
443,217,75419,2,0,P|466:233|457:278,1,46.875,10|0,3:2|0:0,0:0:0:0:
508,279,75653,1,2,0:2:0:0:
474,366,75888,1,2,0:2:0:0:
381,354,76122,6,0,P|311:358|208:373,1,140.625,6|0,1:2|0:0,0:2:0:0:
194,372,76591,2,0,P|214:350|229:325,1,46.875,2|0,3:2|0:0,0:2:0:0:
239,291,76825,2,0,P|232:230|225:148,1,140.625,10|0,3:2|3:0,0:2:0:0:
225,151,77294,1,0,3:2:0:0:
267,67,77528,6,0,B|243:33|248:0|248:0|240:33|210:57,1,140.625,6|0,1:2|0:0,0:2:0:0:
170,81,77997,2,0,P|146:82|118:70,1,46.875,2|0,3:2|0:0,0:2:0:0:
100,34,78231,1,10,3:2:0:0:
14,72,78466,1,2,3:2:0:0:
4,165,78700,1,2,0:2:0:0:
80,219,78935,6,0,B|133:183|176:251|220:238,1,140.625,6|0,1:2|3:0,0:2:0:0:
212,240,79403,1,0,3:2:0:0:
271,167,79638,6,0,B|324:203|367:134|411:147,1,140.625,10|0,3:2|0:0,0:2:0:0:
403,146,80106,1,2,1:2:0:0:
485,190,80341,6,0,P|470:252|464:309,1,93.75,6|0,1:2|0:0,0:2:0:0:
465,281,80692,1,0,3:0:0:0:
465,281,80810,1,0,3:2:0:0:
385,330,81044,5,10,1:2:0:0:
301,290,81278,1,0,0:0:0:0:
223,343,81513,1,0,3:2:0:0:
307,383,81747,5,6,1:2:0:0:
139,303,82216,5,0,3:0:0:0:
139,303,82450,2,0,P|81:311|44:321,1,93.75,8|0,0:2|0:0,0:0:0:0:
6,235,82919,1,0,3:0:0:0:
70,166,83153,1,0,1:0:0:0:
255,216,83622,5,0,3:0:0:0:
255,216,83856,2,0,P|313:224|350:234,1,93.75,8|0,0:2|0:2,0:0:0:0:
388,148,84325,1,0,1:2:0:0:
324,79,84559,1,0,1:2:0:0:
166,180,85028,5,0,3:0:0:0:
85,131,85263,2,0,P|78:83|77:34,2,93.75,8|0|0,0:2|0:0|3:0,0:0:0:0:
83,224,85966,2,0,P|44:254|2:279,2,93.75,2|0|2,3:0|0:0|3:0,0:0:0:0:
166,180,86669,5,10,0:2:0:0:
256,156,86903,1,2,0:3:0:0:
346,180,87138,1,2,0:3:0:0:
388,202,87255,1,2,0:3:0:0:
429,224,87372,1,6,0:2:0:0:
