osu file format v14

[General]
AudioFilename: abdiel110.mp3
AudioLeadIn: 2
PreviewTime: 45347
Countdown: 0
SampleSet: Normal
StackLeniency: 0.7
Mode: 3
LetterboxInBreaks: 0
SpecialStyle: 0
WidescreenStoryboard: 0

[Editor]
DistanceSpacing: 0.8
BeatDivisor: 12
GridSize: 8
TimelineZoom: 1.8

[Metadata]
Title:Companthem / Abdiel (Cut Ver.)
TitleUnicode:Companthem / Abdiel (Cut Ver.)
Artist:Okabe Keiichi
ArtistUnicode:岡部 啓一
Creator:[GB]SuddenDeath
Version:Celeb's 25 1.1x
Source:Drakengard 3
Tags:SQEX-10415 square enix platinumgames drag on drag-on dragoon 3 ドラッグ オン ドラグーン3 video game ost soundtrack Monaca japanese battle j-rock jrock rock celeb celebelian valedumps 3 (route B) dump
BeatmapID:4556563
BeatmapSetID:2160760

[Difficulty]
HPDrainRate:5
CircleSize:4
OverallDifficulty:7
ApproachRate:10
SliderMultiplier:1.4
SliderTickRate:1

[Events]
//Background and Video events
0,0,"background.jpg",0,0
//Break Periods
//Storyboard Layer 0 (Background)
//Storyboard Layer 1 (Fail)
//Storyboard Layer 2 (Pass)
//Storyboard Layer 3 (Foreground)
//Storyboard Layer 4 (Overlay)
//Storyboard Sound Samples

[TimingPoints]
552,373.599,4,1,0,30,1,0

[HitObjects]
192,192,552,5,0,0:0:0:0:
448,192,552,1,0,0:0:0:0:
192,192,738,1,0,0:0:0:0:
448,192,738,1,0,0:0:0:0:
64,192,1112,1,0,0:0:0:0:
192,192,1112,1,0,0:0:0:0:
320,192,1205,1,0,0:0:0:0:
448,192,1205,1,0,0:0:0:0:
320,192,1392,1,0,0:0:0:0:
448,192,1392,1,0,0:0:0:0:
64,192,1485,1,0,0:0:0:0:
192,192,1485,1,0,0:0:0:0:
64,192,2046,1,0,0:0:0:0:
320,192,2046,1,0,0:0:0:0:
64,192,2233,1,0,0:0:0:0:
320,192,2233,1,0,0:0:0:0:
64,192,2606,1,0,0:0:0:0:
192,192,2606,1,0,0:0:0:0:
320,192,2700,1,0,0:0:0:0:
448,192,2700,1,0,0:0:0:0:
320,192,2886,1,0,0:0:0:0:
448,192,2886,1,0,0:0:0:0:
64,192,2980,1,0,0:0:0:0:
192,192,2980,1,0,0:0:0:0:
64,192,3540,1,0,0:0:0:0:
192,192,3540,1,0,0:0:0:0:
320,192,3540,1,0,0:0:0:0:
64,192,3727,1,0,0:0:0:0:
448,192,3727,1,0,0:0:0:0:
192,192,3820,1,0,0:0:0:0:
448,192,3820,1,0,0:0:0:0:
192,192,4007,1,0,0:0:0:0:
320,192,4007,1,0,0:0:0:0:
64,192,4101,1,0,0:0:0:0:
192,192,4101,1,0,0:0:0:0:
64,192,4194,1,0,0:0:0:0:
320,192,4194,1,0,0:0:0:0:
192,192,4381,1,0,0:0:0:0:
448,192,4381,1,0,0:0:0:0:
320,192,4474,1,0,0:0:0:0:
448,192,4474,1,0,0:0:0:0:
64,192,4661,1,0,0:0:0:0:
320,192,4661,1,0,0:0:0:0:
192,192,4848,1,0,0:0:0:0:
448,192,4848,1,0,0:0:0:0:
64,192,5035,1,0,0:0:0:0:
192,192,5035,1,0,0:0:0:0:
64,192,5221,1,0,0:0:0:0:
320,192,5221,1,0,0:0:0:0:
192,192,5315,1,0,0:0:0:0:
320,192,5315,1,0,0:0:0:0:
448,192,5408,1,0,0:0:0:0:
64,192,5502,1,0,0:0:0:0:
320,192,5502,1,0,0:0:0:0:
192,192,5595,1,0,0:0:0:0:
448,192,5595,1,0,0:0:0:0:
64,192,5782,1,0,0:0:0:0:
192,192,5782,1,0,0:0:0:0:
64,192,5875,1,0,0:0:0:0:
320,192,5875,1,0,0:0:0:0:
192,192,5969,1,0,0:0:0:0:
320,192,6155,1,0,0:0:0:0:
448,192,6155,1,0,0:0:0:0:
192,192,6249,1,0,0:0:0:0:
448,192,6249,1,0,0:0:0:0:
64,192,6342,1,0,0:0:0:0:
192,192,6342,1,0,0:0:0:0:
64,192,6529,1,0,0:0:0:0:
320,192,6529,1,0,0:0:0:0:
448,192,6529,1,0,0:0:0:0:
64,192,6716,1,0,0:0:0:0:
448,192,6716,1,0,0:0:0:0:
192,192,6809,1,0,0:0:0:0:
448,192,6809,1,0,0:0:0:0:
192,192,6996,1,0,0:0:0:0:
320,192,6996,1,0,0:0:0:0:
64,192,7089,1,0,0:0:0:0:
192,192,7089,1,0,0:0:0:0:
64,192,7183,1,0,0:0:0:0:
320,192,7183,1,0,0:0:0:0:
192,192,7370,1,0,0:0:0:0:
448,192,7370,1,0,0:0:0:0:
320,192,7463,1,0,0:0:0:0:
448,192,7463,1,0,0:0:0:0:
64,192,7650,1,0,0:0:0:0:
320,192,7650,1,0,0:0:0:0:
192,192,7837,1,0,0:0:0:0:
448,192,7837,1,0,0:0:0:0:
64,192,8023,1,0,0:0:0:0:
192,192,8023,1,0,0:0:0:0:
64,192,8210,1,0,0:0:0:0:
320,192,8210,1,0,0:0:0:0:
192,192,8304,1,0,0:0:0:0:
320,192,8304,1,0,0:0:0:0:
448,192,8397,1,0,0:0:0:0:
64,192,8490,1,0,0:0:0:0:
320,192,8490,1,0,0:0:0:0:
192,192,8584,1,0,0:0:0:0:
448,192,8584,1,0,0:0:0:0:
64,192,8771,1,0,0:0:0:0:
192,192,8771,1,0,0:0:0:0:
64,192,8864,1,0,0:0:0:0:
320,192,8864,1,0,0:0:0:0:
192,192,8957,1,0,0:0:0:0:
320,192,9144,1,0,0:0:0:0:
448,192,9144,1,0,0:0:0:0:
64,0,9144,128,0,9424:1:0:0:0:
192,0,9144,128,0,9471:1:0:0:0:
448,0,9331,128,0,9424:1:0:0:0:
320,0,9331,128,0,9518:1:0:0:0:
64,192,9518,1,0,0:0:0:0:
448,192,9518,1,0,0:0:0:0:
320,192,9611,1,0,0:0:0:0:
64,192,9705,1,0,0:0:0:0:
192,192,9705,1,0,0:0:0:0:
192,192,9798,1,0,0:0:0:0:
448,192,9798,1,0,0:0:0:0:
320,192,9845,1,0,0:0:0:0:
64,192,9891,1,0,0:0:0:0:
448,192,9891,1,0,0:0:0:0:
320,192,9985,1,0,0:0:0:0:
64,192,10078,1,0,0:0:0:0:
448,192,10078,1,0,0:0:0:0:
192,192,10125,1,0,0:0:0:0:
320,192,10172,1,0,0:0:0:0:
192,192,10265,1,0,0:0:0:0:
448,192,10265,1,0,0:0:0:0:
64,192,10358,1,0,0:0:0:0:
448,192,10358,1,0,0:0:0:0:
192,192,10405,1,0,0:0:0:0:
64,192,10452,1,0,0:0:0:0:
320,192,10452,1,0,0:0:0:0:
192,192,10545,1,0,0:0:0:0:
64,192,10639,1,0,0:0:0:0:
320,192,10639,1,0,0:0:0:0:
448,192,10685,1,0,0:0:0:0:
192,192,10732,1,0,0:0:0:0:
320,192,10825,1,0,0:0:0:0:
448,192,10825,1,0,0:0:0:0:
192,192,10872,1,0,0:0:0:0:
64,192,10919,1,0,0:0:0:0:
448,192,10919,1,0,0:0:0:0:
320,192,10966,1,0,0:0:0:0:
64,192,11012,1,0,0:0:0:0:
192,192,11012,1,0,0:0:0:0:
320,192,11106,1,0,0:0:0:0:
192,192,11199,1,0,0:0:0:0:
448,192,11199,1,0,0:0:0:0:
320,192,11292,1,0,0:0:0:0:
448,192,11292,1,0,0:0:0:0:
192,192,11339,1,0,0:0:0:0:
64,192,11386,1,0,0:0:0:0:
320,192,11386,1,0,0:0:0:0:
448,192,11479,1,0,0:0:0:0:
64,192,11573,1,0,0:0:0:0:
192,192,11573,1,0,0:0:0:0:
320,192,11619,1,0,0:0:0:0:
192,192,11666,1,0,0:0:0:0:
448,192,11666,1,0,0:0:0:0:
64,192,11759,1,0,0:0:0:0:
192,192,11853,1,0,0:0:0:0:
320,192,11853,1,0,0:0:0:0:
448,192,11900,1,0,0:0:0:0:
64,192,11946,1,0,0:0:0:0:
192,192,11946,1,0,0:0:0:0:
320,192,12040,1,0,0:0:0:0:
64,192,12133,1,0,0:0:0:0:
192,192,12133,1,0,0:0:0:0:
448,192,12180,1,0,0:0:0:0:
64,192,12226,1,0,0:0:0:0:
320,192,12226,1,0,0:0:0:0:
192,192,12273,1,0,0:0:0:0:
320,192,12320,1,0,0:0:0:0:
448,192,12320,1,0,0:0:0:0:
64,192,12367,1,0,0:0:0:0:
192,192,12413,1,0,0:0:0:0:
64,192,12507,1,0,0:0:0:0:
448,192,12507,1,0,0:0:0:0:
320,192,12600,1,0,0:0:0:0:
64,192,12693,1,0,0:0:0:0:
448,192,12693,1,0,0:0:0:0:
192,192,12787,1,0,0:0:0:0:
448,192,12787,1,0,0:0:0:0:
320,192,12834,1,0,0:0:0:0:
64,192,12880,1,0,0:0:0:0:
192,192,12880,1,0,0:0:0:0:
448,192,12974,1,0,0:0:0:0:
64,192,13067,1,0,0:0:0:0:
320,192,13067,1,0,0:0:0:0:
192,192,13114,1,0,0:0:0:0:
448,192,13160,1,0,0:0:0:0:
192,192,13254,1,0,0:0:0:0:
320,192,13254,1,0,0:0:0:0:
64,192,13347,1,0,0:0:0:0:
320,192,13347,1,0,0:0:0:0:
448,192,13394,1,0,0:0:0:0:
64,192,13441,1,0,0:0:0:0:
192,192,13441,1,0,0:0:0:0:
320,192,13534,1,0,0:0:0:0:
64,192,13627,1,0,0:0:0:0:
192,192,13627,1,0,0:0:0:0:
448,192,13674,1,0,0:0:0:0:
320,192,13721,1,0,0:0:0:0:
64,192,13814,1,0,0:0:0:0:
448,192,13814,1,0,0:0:0:0:
320,192,13861,1,0,0:0:0:0:
192,192,13908,1,0,0:0:0:0:
448,192,13908,1,0,0:0:0:0:
64,192,13954,1,0,0:0:0:0:
192,192,14001,1,0,0:0:0:0:
320,192,14001,1,0,0:0:0:0:
448,192,14094,1,0,0:0:0:0:
192,192,14188,1,0,0:0:0:0:
320,192,14188,1,0,0:0:0:0:
64,192,14281,1,0,0:0:0:0:
320,192,14281,1,0,0:0:0:0:
192,192,14328,1,0,0:0:0:0:
64,192,14375,1,0,0:0:0:0:
448,192,14375,1,0,0:0:0:0:
320,192,14468,1,0,0:0:0:0:
64,192,14561,1,0,0:0:0:0:
448,192,14561,1,0,0:0:0:0:
192,192,14608,1,0,0:0:0:0:
320,192,14655,1,0,0:0:0:0:
448,192,14655,1,0,0:0:0:0:
64,192,14748,1,0,0:0:0:0:
192,192,14842,1,0,0:0:0:0:
320,192,14842,1,0,0:0:0:0:
448,192,14888,1,0,0:0:0:0:
64,192,14935,1,0,0:0:0:0:
192,192,14935,1,0,0:0:0:0:
448,192,15028,1,0,0:0:0:0:
64,192,15122,1,0,0:0:0:0:
320,192,15122,1,0,0:0:0:0:
192,192,15169,1,0,0:0:0:0:
64,192,15215,1,0,0:0:0:0:
448,192,15215,1,0,0:0:0:0:
320,192,15262,1,0,0:0:0:0:
192,192,15309,1,0,0:0:0:0:
448,192,15309,1,0,0:0:0:0:
64,192,15355,1,0,0:0:0:0:
320,192,15402,1,0,0:0:0:0:
64,192,15495,1,0,0:0:0:0:
448,192,15495,1,0,0:0:0:0:
320,192,15589,1,0,0:0:0:0:
64,192,15682,1,0,0:0:0:0:
192,192,15682,1,0,0:0:0:0:
192,192,15776,1,0,0:0:0:0:
448,192,15776,1,0,0:0:0:0:
320,192,15822,1,0,0:0:0:0:
64,192,15869,1,0,0:0:0:0:
448,192,15869,1,0,0:0:0:0:
320,192,15962,1,0,0:0:0:0:
64,192,16056,1,0,0:0:0:0:
448,192,16056,1,0,0:0:0:0:
192,192,16103,1,0,0:0:0:0:
320,192,16149,1,0,0:0:0:0:
192,192,16243,1,0,0:0:0:0:
448,192,16243,1,0,0:0:0:0:
64,192,16336,1,0,0:0:0:0:
448,192,16336,1,0,0:0:0:0:
192,192,16383,1,0,0:0:0:0:
64,192,16429,1,0,0:0:0:0:
320,192,16429,1,0,0:0:0:0:
192,192,16523,1,0,0:0:0:0:
64,192,16616,1,0,0:0:0:0:
320,192,16616,1,0,0:0:0:0:
448,192,16663,1,0,0:0:0:0:
192,192,16710,1,0,0:0:0:0:
320,192,16803,1,0,0:0:0:0:
448,192,16803,1,0,0:0:0:0:
192,192,16850,1,0,0:0:0:0:
64,192,16896,1,0,0:0:0:0:
448,192,16896,1,0,0:0:0:0:
320,192,16943,1,0,0:0:0:0:
64,192,16990,1,0,0:0:0:0:
192,192,16990,1,0,0:0:0:0:
320,192,17083,1,0,0:0:0:0:
192,192,17177,1,0,0:0:0:0:
448,192,17177,1,0,0:0:0:0:
320,192,17270,1,0,0:0:0:0:
448,192,17270,1,0,0:0:0:0:
192,192,17317,1,0,0:0:0:0:
64,192,17363,1,0,0:0:0:0:
320,192,17363,1,0,0:0:0:0:
448,192,17457,1,0,0:0:0:0:
64,192,17550,1,0,0:0:0:0:
192,192,17550,1,0,0:0:0:0:
320,192,17597,1,0,0:0:0:0:
192,192,17644,1,0,0:0:0:0:
448,192,17644,1,0,0:0:0:0:
64,192,17737,1,0,0:0:0:0:
192,192,17830,1,0,0:0:0:0:
320,192,17830,1,0,0:0:0:0:
448,192,17877,1,0,0:0:0:0:
64,192,17924,1,0,0:0:0:0:
192,192,17924,1,0,0:0:0:0:
320,192,18017,1,0,0:0:0:0:
64,192,18111,1,0,0:0:0:0:
192,192,18111,1,0,0:0:0:0:
448,192,18157,1,0,0:0:0:0:
64,192,18204,1,0,0:0:0:0:
320,192,18204,1,0,0:0:0:0:
192,192,18251,1,0,0:0:0:0:
320,192,18297,1,0,0:0:0:0:
448,192,18297,1,0,0:0:0:0:
64,192,18344,1,0,0:0:0:0:
192,192,18391,1,0,0:0:0:0:
64,192,18484,1,0,0:0:0:0:
448,192,18484,1,0,0:0:0:0:
320,192,18578,1,0,0:0:0:0:
64,192,18671,1,0,0:0:0:0:
448,192,18671,1,0,0:0:0:0:
192,192,18764,1,0,0:0:0:0:
448,192,18764,1,0,0:0:0:0:
320,192,18811,1,0,0:0:0:0:
64,192,18858,1,0,0:0:0:0:
192,192,18858,1,0,0:0:0:0:
448,192,18951,1,0,0:0:0:0:
64,192,19045,1,0,0:0:0:0:
320,192,19045,1,0,0:0:0:0:
192,192,19091,1,0,0:0:0:0:
448,192,19138,1,0,0:0:0:0:
192,192,19231,1,0,0:0:0:0:
320,192,19231,1,0,0:0:0:0:
64,192,19325,1,0,0:0:0:0:
320,192,19325,1,0,0:0:0:0:
448,192,19372,1,0,0:0:0:0:
64,192,19418,1,0,0:0:0:0:
192,192,19418,1,0,0:0:0:0:
320,192,19512,1,0,0:0:0:0:
64,192,19605,1,0,0:0:0:0:
192,192,19605,1,0,0:0:0:0:
448,192,19652,1,0,0:0:0:0:
320,192,19698,1,0,0:0:0:0:
64,192,19792,1,0,0:0:0:0:
448,192,19792,1,0,0:0:0:0:
320,192,19839,1,0,0:0:0:0:
192,192,19885,1,0,0:0:0:0:
448,192,19885,1,0,0:0:0:0:
64,192,19932,1,0,0:0:0:0:
192,192,19979,1,0,0:0:0:0:
320,192,19979,1,0,0:0:0:0:
448,192,20072,1,0,0:0:0:0:
192,192,20165,1,0,0:0:0:0:
320,192,20165,1,0,0:0:0:0:
64,192,20259,1,0,0:0:0:0:
320,192,20259,1,0,0:0:0:0:
192,192,20306,1,0,0:0:0:0:
64,192,20352,1,0,0:0:0:0:
448,192,20352,1,0,0:0:0:0:
320,192,20446,1,0,0:0:0:0:
64,192,20539,1,0,0:0:0:0:
448,192,20539,1,0,0:0:0:0:
192,192,20586,1,0,0:0:0:0:
320,192,20632,1,0,0:0:0:0:
448,192,20632,1,0,0:0:0:0:
64,192,20726,1,0,0:0:0:0:
192,192,20819,1,0,0:0:0:0:
320,192,20819,1,0,0:0:0:0:
448,192,20866,1,0,0:0:0:0:
64,192,20913,1,0,0:0:0:0:
192,192,20913,1,0,0:0:0:0:
448,192,21006,1,0,0:0:0:0:
64,192,21099,1,0,0:0:0:0:
192,192,21099,1,0,0:0:0:0:
320,192,21193,1,0,0:0:0:0:
448,192,21193,1,0,0:0:0:0:
192,0,21286,128,0,21380:1:0:0:0:
64,0,21286,128,0,21426:1:0:0:0:
320,192,21473,1,0,0:0:0:0:
448,192,21473,1,0,0:0:0:0:
192,192,21535,1,0,0:0:0:0:
448,192,21598,1,0,0:0:0:0:
320,192,21660,1,0,0:0:0:0:
448,192,21722,1,0,0:0:0:0:
64,192,21753,1,0,0:0:0:0:
192,192,21753,1,0,0:0:0:0:
448,192,21847,1,0,0:0:0:0:
64,192,21909,1,0,0:0:0:0:
448,192,21971,1,0,0:0:0:0:
192,192,22033,1,0,0:0:0:0:
320,192,22033,1,0,0:0:0:0:
448,192,22096,1,0,0:0:0:0:
64,192,22158,1,0,0:0:0:0:
448,192,22220,1,0,0:0:0:0:
64,192,22314,1,0,0:0:0:0:
192,192,22314,1,0,0:0:0:0:
448,192,22345,1,0,0:0:0:0:
320,192,22407,1,0,0:0:0:0:
448,192,22469,1,0,0:0:0:0:
192,192,22532,1,0,0:0:0:0:
320,192,22594,1,0,0:0:0:0:
448,192,22594,1,0,0:0:0:0:
64,192,22656,1,0,0:0:0:0:
448,192,22718,1,0,0:0:0:0:
64,192,22781,1,0,0:0:0:0:
192,192,22781,1,0,0:0:0:0:
448,192,22843,1,0,0:0:0:0:
192,192,22905,1,0,0:0:0:0:
320,192,22967,1,0,0:0:0:0:
448,192,22967,1,0,0:0:0:0:
64,192,23030,1,0,0:0:0:0:
448,192,23092,1,0,0:0:0:0:
320,192,23154,1,0,0:0:0:0:
448,192,23217,1,0,0:0:0:0:
64,192,23248,1,0,0:0:0:0:
192,192,23248,1,0,0:0:0:0:
448,192,23341,1,0,0:0:0:0:
64,192,23403,1,0,0:0:0:0:
448,192,23466,1,0,0:0:0:0:
192,192,23528,1,0,0:0:0:0:
320,192,23528,1,0,0:0:0:0:
448,192,23590,1,0,0:0:0:0:
64,192,23652,1,0,0:0:0:0:
320,192,23715,1,0,0:0:0:0:
64,192,23808,1,0,0:0:0:0:
192,192,23808,1,0,0:0:0:0:
320,192,23839,1,0,0:0:0:0:
448,192,23901,1,0,0:0:0:0:
320,192,23964,1,0,0:0:0:0:
64,192,24026,1,0,0:0:0:0:
192,192,24088,1,0,0:0:0:0:
320,192,24088,1,0,0:0:0:0:
448,192,24151,1,0,0:0:0:0:
320,192,24213,1,0,0:0:0:0:
64,192,24275,1,0,0:0:0:0:
448,192,24275,1,0,0:0:0:0:
320,192,24337,1,0,0:0:0:0:
192,192,24400,1,0,0:0:0:0:
64,192,24462,1,0,0:0:0:0:
448,192,24462,1,0,0:0:0:0:
320,192,24524,1,0,0:0:0:0:
64,192,24586,1,0,0:0:0:0:
192,192,24649,1,0,0:0:0:0:
64,192,24711,1,0,0:0:0:0:
320,192,24742,1,0,0:0:0:0:
448,192,24742,1,0,0:0:0:0:
64,192,24835,1,0,0:0:0:0:
320,192,24898,1,0,0:0:0:0:
64,192,24960,1,0,0:0:0:0:
192,192,25022,1,0,0:0:0:0:
448,192,25022,1,0,0:0:0:0:
64,192,25085,1,0,0:0:0:0:
320,192,25147,1,0,0:0:0:0:
64,192,25209,1,0,0:0:0:0:
320,192,25302,1,0,0:0:0:0:
448,192,25302,1,0,0:0:0:0:
64,192,25334,1,0,0:0:0:0:
192,192,25396,1,0,0:0:0:0:
64,192,25458,1,0,0:0:0:0:
320,192,25520,1,0,0:0:0:0:
64,192,25583,1,0,0:0:0:0:
448,192,25583,1,0,0:0:0:0:
320,192,25645,1,0,0:0:0:0:
64,192,25707,1,0,0:0:0:0:
192,192,25769,1,0,0:0:0:0:
448,192,25769,1,0,0:0:0:0:
64,192,25832,1,0,0:0:0:0:
320,192,25894,1,0,0:0:0:0:
64,192,25956,1,0,0:0:0:0:
448,192,25956,1,0,0:0:0:0:
320,192,26018,1,0,0:0:0:0:
64,192,26081,1,0,0:0:0:0:
192,192,26143,1,0,0:0:0:0:
64,192,26205,1,0,0:0:0:0:
320,192,26236,1,0,0:0:0:0:
448,192,26236,1,0,0:0:0:0:
64,192,26330,1,0,0:0:0:0:
320,192,26392,1,0,0:0:0:0:
64,192,26454,1,0,0:0:0:0:
192,192,26517,1,0,0:0:0:0:
448,192,26517,1,0,0:0:0:0:
64,192,26579,1,0,0:0:0:0:
320,192,26641,1,0,0:0:0:0:
64,192,26703,1,0,0:0:0:0:
320,192,26797,1,0,0:0:0:0:
448,192,26797,1,0,0:0:0:0:
64,192,26828,1,0,0:0:0:0:
192,192,26890,1,0,0:0:0:0:
64,192,26952,1,0,0:0:0:0:
448,192,27015,1,0,0:0:0:0:
64,192,27077,1,0,0:0:0:0:
320,192,27077,1,0,0:0:0:0:
192,192,27170,1,0,0:0:0:0:
448,192,27170,1,0,0:0:0:0:
64,192,27264,1,0,0:0:0:0:
320,192,27264,1,0,0:0:0:0:
448,192,27264,1,0,0:0:0:0:
192,192,27357,1,0,0:0:0:0:
64,192,27451,1,0,0:0:0:0:
320,192,27451,1,0,0:0:0:0:
448,192,27513,1,0,0:0:0:0:
320,192,27575,1,0,0:0:0:0:
192,192,27637,1,0,0:0:0:0:
320,192,27700,1,0,0:0:0:0:
64,192,27731,1,0,0:0:0:0:
448,192,27731,1,0,0:0:0:0:
320,192,27824,1,0,0:0:0:0:
192,192,27886,1,0,0:0:0:0:
320,192,27949,1,0,0:0:0:0:
64,192,28011,1,0,0:0:0:0:
192,192,28011,1,0,0:0:0:0:
320,192,28073,1,0,0:0:0:0:
192,192,28136,1,0,0:0:0:0:
320,192,28198,1,0,0:0:0:0:
64,192,28291,1,0,0:0:0:0:
448,192,28291,1,0,0:0:0:0:
320,192,28322,1,0,0:0:0:0:
192,192,28385,1,0,0:0:0:0:
320,192,28447,1,0,0:0:0:0:
448,192,28509,1,0,0:0:0:0:
64,192,28571,1,0,0:0:0:0:
320,192,28571,1,0,0:0:0:0:
192,192,28634,1,0,0:0:0:0:
320,192,28696,1,0,0:0:0:0:
192,192,28758,1,0,0:0:0:0:
448,192,28758,1,0,0:0:0:0:
320,192,28820,1,0,0:0:0:0:
192,192,28883,1,0,0:0:0:0:
64,192,28945,1,0,0:0:0:0:
320,192,28945,1,0,0:0:0:0:
448,192,29007,1,0,0:0:0:0:
320,192,29070,1,0,0:0:0:0:
192,192,29132,1,0,0:0:0:0:
320,192,29194,1,0,0:0:0:0:
64,192,29225,1,0,0:0:0:0:
448,192,29225,1,0,0:0:0:0:
320,192,29319,1,0,0:0:0:0:
192,192,29381,1,0,0:0:0:0:
320,192,29443,1,0,0:0:0:0:
64,192,29505,1,0,0:0:0:0:
192,192,29505,1,0,0:0:0:0:
320,192,29568,1,0,0:0:0:0:
192,192,29630,1,0,0:0:0:0:
448,192,29692,1,0,0:0:0:0:
192,192,29786,1,0,0:0:0:0:
320,192,29786,1,0,0:0:0:0:
448,192,29817,1,0,0:0:0:0:
64,192,29879,1,0,0:0:0:0:
448,192,29941,1,0,0:0:0:0:
192,192,30004,1,0,0:0:0:0:
64,192,30066,1,0,0:0:0:0:
448,192,30066,1,0,0:0:0:0:
320,192,30128,1,0,0:0:0:0:
448,192,30190,1,0,0:0:0:0:
192,192,30253,1,0,0:0:0:0:
320,192,30253,1,0,0:0:0:0:
448,192,30315,1,0,0:0:0:0:
64,192,30377,1,0,0:0:0:0:
192,192,30439,1,0,0:0:0:0:
320,192,30439,1,0,0:0:0:0:
448,192,30502,1,0,0:0:0:0:
192,192,30564,1,0,0:0:0:0:
320,192,30626,1,0,0:0:0:0:
192,192,30688,1,0,0:0:0:0:
64,192,30720,1,0,0:0:0:0:
448,192,30720,1,0,0:0:0:0:
192,192,30813,1,0,0:0:0:0:
448,192,30875,1,0,0:0:0:0:
192,192,30938,1,0,0:0:0:0:
64,192,31000,1,0,0:0:0:0:
320,192,31000,1,0,0:0:0:0:
192,192,31062,1,0,0:0:0:0:
448,192,31124,1,0,0:0:0:0:
192,192,31187,1,0,0:0:0:0:
64,192,31280,1,0,0:0:0:0:
448,192,31280,1,0,0:0:0:0:
192,192,31311,1,0,0:0:0:0:
320,192,31373,1,0,0:0:0:0:
192,192,31436,1,0,0:0:0:0:
64,192,31498,1,0,0:0:0:0:
192,192,31560,1,0,0:0:0:0:
320,192,31560,1,0,0:0:0:0:
448,192,31622,1,0,0:0:0:0:
192,192,31685,1,0,0:0:0:0:
320,192,31747,1,0,0:0:0:0:
448,192,31747,1,0,0:0:0:0:
192,192,31809,1,0,0:0:0:0:
320,192,31872,1,0,0:0:0:0:
64,192,31934,1,0,0:0:0:0:
448,192,31934,1,0,0:0:0:0:
192,192,31981,1,0,0:0:0:0:
64,192,32058,1,0,0:0:0:0:
320,192,32074,1,0,0:0:0:0:
448,192,32167,1,0,0:0:0:0:
64,192,32183,1,0,0:0:0:0:
192,192,32214,1,0,0:0:0:0:
320,192,32214,1,0,0:0:0:0:
64,192,32307,1,0,0:0:0:0:
192,192,32307,1,0,0:0:0:0:
448,192,32354,1,0,0:0:0:0:
64,192,32432,1,0,0:0:0:0:
320,192,32448,1,0,0:0:0:0:
192,192,32494,1,0,0:0:0:0:
448,192,32494,1,0,0:0:0:0:
64,192,32556,1,0,0:0:0:0:
320,192,32588,1,0,0:0:0:0:
448,192,32588,1,0,0:0:0:0:
192,192,32634,1,0,0:0:0:0:
64,192,32681,1,0,0:0:0:0:
448,192,32728,1,0,0:0:0:0:
192,192,32774,1,0,0:0:0:0:
320,192,32774,1,0,0:0:0:0:
64,192,32806,1,0,0:0:0:0:
320,192,32868,1,0,0:0:0:0:
448,192,32868,1,0,0:0:0:0:
192,192,32915,1,0,0:0:0:0:
64,192,32930,1,0,0:0:0:0:
320,192,33008,1,0,0:0:0:0:
64,192,33055,1,0,0:0:0:0:
448,192,33055,1,0,0:0:0:0:
192,192,33148,1,0,0:0:0:0:
320,192,33148,1,0,0:0:0:0:
64,192,33241,1,0,0:0:0:0:
320,192,33241,1,0,0:0:0:0:
448,192,33241,1,0,0:0:0:0:
192,192,33335,1,0,0:0:0:0:
64,192,33428,1,0,0:0:0:0:
320,192,33428,1,0,0:0:0:0:
448,192,33428,1,0,0:0:0:0:
192,192,33490,1,0,0:0:0:0:
320,192,33553,1,0,0:0:0:0:
448,192,33615,1,0,0:0:0:0:
320,192,33677,1,0,0:0:0:0:
64,192,33708,1,0,0:0:0:0:
192,192,33708,1,0,0:0:0:0:
320,192,33802,1,0,0:0:0:0:
192,192,33864,1,0,0:0:0:0:
320,192,33926,1,0,0:0:0:0:
64,192,33989,1,0,0:0:0:0:
448,192,33989,1,0,0:0:0:0:
320,192,34051,1,0,0:0:0:0:
192,192,34113,1,0,0:0:0:0:
320,192,34175,1,0,0:0:0:0:
64,192,34269,1,0,0:0:0:0:
192,192,34269,1,0,0:0:0:0:
320,192,34300,1,0,0:0:0:0:
448,192,34362,1,0,0:0:0:0:
320,192,34424,1,0,0:0:0:0:
192,192,34487,1,0,0:0:0:0:
64,192,34549,1,0,0:0:0:0:
320,192,34549,1,0,0:0:0:0:
448,192,34611,1,0,0:0:0:0:
320,192,34674,1,0,0:0:0:0:
64,192,34736,1,0,0:0:0:0:
192,192,34736,1,0,0:0:0:0:
320,192,34798,1,0,0:0:0:0:
448,192,34860,1,0,0:0:0:0:
64,192,34923,1,0,0:0:0:0:
320,192,34923,1,0,0:0:0:0:
192,192,34985,1,0,0:0:0:0:
320,192,35047,1,0,0:0:0:0:
448,192,35109,1,0,0:0:0:0:
320,192,35172,1,0,0:0:0:0:
64,192,35203,1,0,0:0:0:0:
192,192,35203,1,0,0:0:0:0:
320,192,35296,1,0,0:0:0:0:
64,192,35358,1,0,0:0:0:0:
320,192,35421,1,0,0:0:0:0:
192,192,35483,1,0,0:0:0:0:
448,192,35483,1,0,0:0:0:0:
320,192,35545,1,0,0:0:0:0:
448,192,35608,1,0,0:0:0:0:
64,192,35670,1,0,0:0:0:0:
320,192,35763,1,0,0:0:0:0:
448,192,35763,1,0,0:0:0:0:
64,192,35794,1,0,0:0:0:0:
192,192,35857,1,0,0:0:0:0:
64,192,35919,1,0,0:0:0:0:
320,192,35981,1,0,0:0:0:0:
64,192,36043,1,0,0:0:0:0:
448,192,36043,1,0,0:0:0:0:
192,192,36106,1,0,0:0:0:0:
64,192,36168,1,0,0:0:0:0:
192,192,36230,1,0,0:0:0:0:
320,192,36230,1,0,0:0:0:0:
64,192,36292,1,0,0:0:0:0:
320,192,36355,1,0,0:0:0:0:
192,192,36417,1,0,0:0:0:0:
448,192,36417,1,0,0:0:0:0:
64,192,36479,1,0,0:0:0:0:
448,192,36542,1,0,0:0:0:0:
320,192,36604,1,0,0:0:0:0:
448,192,36666,1,0,0:0:0:0:
64,192,36697,1,0,0:0:0:0:
192,192,36697,1,0,0:0:0:0:
448,192,36791,1,0,0:0:0:0:
64,192,36853,1,0,0:0:0:0:
448,192,36915,1,0,0:0:0:0:
192,192,36977,1,0,0:0:0:0:
320,192,36977,1,0,0:0:0:0:
448,192,37040,1,0,0:0:0:0:
64,192,37102,1,0,0:0:0:0:
448,192,37164,1,0,0:0:0:0:
64,192,37258,1,0,0:0:0:0:
192,192,37258,1,0,0:0:0:0:
448,192,37289,1,0,0:0:0:0:
320,192,37351,1,0,0:0:0:0:
448,192,37413,1,0,0:0:0:0:
64,192,37476,1,0,0:0:0:0:
192,192,37538,1,0,0:0:0:0:
448,192,37538,1,0,0:0:0:0:
64,192,37600,1,0,0:0:0:0:
448,192,37662,1,0,0:0:0:0:
192,192,37725,1,0,0:0:0:0:
320,192,37725,1,0,0:0:0:0:
448,192,37787,1,0,0:0:0:0:
320,192,37849,1,0,0:0:0:0:
64,192,37911,1,0,0:0:0:0:
448,192,37911,1,0,0:0:0:0:
192,192,37974,1,0,0:0:0:0:
448,192,38036,1,0,0:0:0:0:
320,192,38098,1,0,0:0:0:0:
448,192,38160,1,0,0:0:0:0:
64,192,38192,1,0,0:0:0:0:
192,192,38192,1,0,0:0:0:0:
448,192,38285,1,0,0:0:0:0:
192,192,38347,1,0,0:0:0:0:
448,192,38410,1,0,0:0:0:0:
64,192,38472,1,0,0:0:0:0:
320,192,38472,1,0,0:0:0:0:
448,192,38534,1,0,0:0:0:0:
192,192,38596,1,0,0:0:0:0:
448,192,38659,1,0,0:0:0:0:
64,192,38752,1,0,0:0:0:0:
192,192,38752,1,0,0:0:0:0:
448,192,38783,1,0,0:0:0:0:
320,192,38845,1,0,0:0:0:0:
192,192,38939,1,0,0:0:0:0:
64,192,39032,1,0,0:0:0:0:
448,192,39032,1,0,0:0:0:0:
320,192,39126,1,0,0:0:0:0:
448,192,39126,1,0,0:0:0:0:
64,192,39219,1,0,0:0:0:0:
192,192,39219,1,0,0:0:0:0:
320,192,39219,1,0,0:0:0:0:
448,192,39312,1,0,0:0:0:0:
64,192,39406,1,0,0:0:0:0:
192,192,39406,1,0,0:0:0:0:
448,192,39468,1,0,0:0:0:0:
64,192,39530,1,0,0:0:0:0:
192,192,39593,1,0,0:0:0:0:
64,192,39655,1,0,0:0:0:0:
320,192,39686,1,0,0:0:0:0:
448,192,39686,1,0,0:0:0:0:
64,192,39779,1,0,0:0:0:0:
448,192,39842,1,0,0:0:0:0:
64,192,39904,1,0,0:0:0:0:
192,192,39966,1,0,0:0:0:0:
320,192,39966,1,0,0:0:0:0:
64,192,40028,1,0,0:0:0:0:
448,192,40091,1,0,0:0:0:0:
64,192,40153,1,0,0:0:0:0:
320,192,40246,1,0,0:0:0:0:
448,192,40246,1,0,0:0:0:0:
64,192,40278,1,0,0:0:0:0:
192,192,40340,1,0,0:0:0:0:
64,192,40402,1,0,0:0:0:0:
448,192,40464,1,0,0:0:0:0:
64,192,40527,1,0,0:0:0:0:
192,192,40527,1,0,0:0:0:0:
320,192,40589,1,0,0:0:0:0:
64,192,40651,1,0,0:0:0:0:
192,192,40713,1,0,0:0:0:0:
448,192,40713,1,0,0:0:0:0:
64,192,40776,1,0,0:0:0:0:
320,192,40838,1,0,0:0:0:0:
64,192,40900,1,0,0:0:0:0:
192,192,40900,1,0,0:0:0:0:
448,192,40962,1,0,0:0:0:0:
64,192,41025,1,0,0:0:0:0:
192,192,41087,1,0,0:0:0:0:
64,192,41149,1,0,0:0:0:0:
320,192,41180,1,0,0:0:0:0:
448,192,41180,1,0,0:0:0:0:
64,192,41274,1,0,0:0:0:0:
448,192,41336,1,0,0:0:0:0:
64,192,41398,1,0,0:0:0:0:
192,192,41461,1,0,0:0:0:0:
320,192,41461,1,0,0:0:0:0:
64,192,41523,1,0,0:0:0:0:
320,192,41585,1,0,0:0:0:0:
448,192,41647,1,0,0:0:0:0:
64,192,41741,1,0,0:0:0:0:
192,192,41741,1,0,0:0:0:0:
448,192,41772,1,0,0:0:0:0:
320,192,41834,1,0,0:0:0:0:
448,192,41896,1,0,0:0:0:0:
64,192,41959,1,0,0:0:0:0:
192,192,42021,1,0,0:0:0:0:
448,192,42021,1,0,0:0:0:0:
320,192,42083,1,0,0:0:0:0:
448,192,42146,1,0,0:0:0:0:
64,192,42208,1,0,0:0:0:0:
192,192,42208,1,0,0:0:0:0:
448,192,42270,1,0,0:0:0:0:
192,192,42332,1,0,0:0:0:0:
64,192,42395,1,0,0:0:0:0:
320,192,42395,1,0,0:0:0:0:
448,192,42457,1,0,0:0:0:0:
320,192,42519,1,0,0:0:0:0:
192,192,42581,1,0,0:0:0:0:
320,192,42644,1,0,0:0:0:0:
64,192,42675,1,0,0:0:0:0:
448,192,42675,1,0,0:0:0:0:
320,192,42768,1,0,0:0:0:0:
64,192,42830,1,0,0:0:0:0:
320,192,42893,1,0,0:0:0:0:
64,192,42955,1,0,0:0:0:0:
192,192,42955,1,0,0:0:0:0:
320,192,43017,1,0,0:0:0:0:
448,192,43080,1,0,0:0:0:0:
320,192,43142,1,0,0:0:0:0:
64,192,43235,1,0,0:0:0:0:
448,192,43235,1,0,0:0:0:0:
320,192,43266,1,0,0:0:0:0:
192,192,43329,1,0,0:0:0:0:
320,192,43391,1,0,0:0:0:0:
448,192,43453,1,0,0:0:0:0:
64,192,43515,1,0,0:0:0:0:
320,192,43515,1,0,0:0:0:0:
192,192,43578,1,0,0:0:0:0:
320,192,43640,1,0,0:0:0:0:
64,192,43702,1,0,0:0:0:0:
192,192,43702,1,0,0:0:0:0:
320,192,43764,1,0,0:0:0:0:
64,192,43827,1,0,0:0:0:0:
192,192,43889,1,0,0:0:0:0:
448,192,43889,1,0,0:0:0:0:
320,192,43936,1,0,0:0:0:0:
192,192,44014,1,0,0:0:0:0:
64,192,44029,1,0,0:0:0:0:
320,192,44122,1,0,0:0:0:0:
192,192,44138,1,0,0:0:0:0:
64,192,44169,1,0,0:0:0:0:
448,192,44169,1,0,0:0:0:0:
320,192,44216,1,0,0:0:0:0:
192,192,44263,1,0,0:0:0:0:
448,192,44263,1,0,0:0:0:0:
64,192,44309,1,0,0:0:0:0:
192,192,44387,1,0,0:0:0:0:
320,192,44403,1,0,0:0:0:0:
64,192,44449,1,0,0:0:0:0:
448,192,44449,1,0,0:0:0:0:
192,192,44512,1,0,0:0:0:0:
320,192,44543,1,0,0:0:0:0:
448,192,44543,1,0,0:0:0:0:
64,192,44589,1,0,0:0:0:0:
192,192,44636,1,0,0:0:0:0:
320,192,44683,1,0,0:0:0:0:
64,192,44730,1,0,0:0:0:0:
448,192,44730,1,0,0:0:0:0:
192,192,44761,1,0,0:0:0:0:
320,192,44823,1,0,0:0:0:0:
448,192,44823,1,0,0:0:0:0:
64,192,44870,1,0,0:0:0:0:
192,192,44885,1,0,0:0:0:0:
320,192,44963,1,0,0:0:0:0:
192,192,45010,1,0,0:0:0:0:
448,192,45010,1,0,0:0:0:0:
64,192,45103,1,0,0:0:0:0:
320,192,45103,1,0,0:0:0:0:
192,192,45197,1,0,0:0:0:0:
320,192,45197,1,0,0:0:0:0:
448,192,45197,1,0,0:0:0:0:
64,192,45290,1,0,0:0:0:0:
192,192,45383,1,0,0:0:0:0:
448,192,45383,1,0,0:0:0:0:
320,192,45430,1,0,0:0:0:0:
64,192,45477,1,0,0:0:0:0:
192,192,45477,1,0,0:0:0:0:
448,192,45570,1,0,0:0:0:0:
64,192,45664,1,0,0:0:0:0:
320,192,45664,1,0,0:0:0:0:
448,192,45710,1,0,0:0:0:0:
192,192,45757,1,0,0:0:0:0:
320,192,45757,1,0,0:0:0:0:
64,192,45804,1,0,0:0:0:0:
192,192,45944,1,0,0:0:0:0:
448,192,45944,1,0,0:0:0:0:
64,192,45990,1,0,0:0:0:0:
320,192,46037,1,0,0:0:0:0:
448,192,46037,1,0,0:0:0:0:
192,192,46084,1,0,0:0:0:0:
64,192,46224,1,0,0:0:0:0:
320,192,46224,1,0,0:0:0:0:
448,192,46271,1,0,0:0:0:0:
64,192,46317,1,0,0:0:0:0:
192,192,46317,1,0,0:0:0:0:
320,192,46364,1,0,0:0:0:0:
192,192,46411,1,0,0:0:0:0:
448,192,46411,1,0,0:0:0:0:
320,192,46457,1,0,0:0:0:0:
64,192,46504,1,0,0:0:0:0:
448,192,46504,1,0,0:0:0:0:
192,192,46598,1,0,0:0:0:0:
320,192,46598,1,0,0:0:0:0:
64,192,46691,1,0,0:0:0:0:
448,192,46691,1,0,0:0:0:0:
192,192,46784,1,0,0:0:0:0:
320,192,46784,1,0,0:0:0:0:
64,192,46878,1,0,0:0:0:0:
448,192,46878,1,0,0:0:0:0:
192,192,46924,1,0,0:0:0:0:
64,192,46971,1,0,0:0:0:0:
320,192,46971,1,0,0:0:0:0:
448,192,47065,1,0,0:0:0:0:
192,192,47158,1,0,0:0:0:0:
320,192,47158,1,0,0:0:0:0:
448,192,47205,1,0,0:0:0:0:
64,192,47251,1,0,0:0:0:0:
192,192,47251,1,0,0:0:0:0:
320,192,47298,1,0,0:0:0:0:
320,192,47438,1,0,0:0:0:0:
448,192,47438,1,0,0:0:0:0:
192,192,47485,1,0,0:0:0:0:
64,192,47532,1,0,0:0:0:0:
320,192,47532,1,0,0:0:0:0:
192,192,47625,1,0,0:0:0:0:
320,192,47718,1,0,0:0:0:0:
448,192,47718,1,0,0:0:0:0:
64,192,47765,1,0,0:0:0:0:
192,192,47812,1,0,0:0:0:0:
448,192,47812,1,0,0:0:0:0:
64,192,47858,1,0,0:0:0:0:
192,192,47905,1,0,0:0:0:0:
320,192,47905,1,0,0:0:0:0:
64,0,47999,128,0,48279:1:0:0:0:
448,0,47999,128,0,48279:1:0:0:0:
192,192,48372,1,0,0:0:0:0:
320,192,48372,1,0,0:0:0:0:
448,192,48419,1,0,0:0:0:0:
64,192,48466,1,0,0:0:0:0:
192,192,48466,1,0,0:0:0:0:
320,192,48559,1,0,0:0:0:0:
64,192,48652,1,0,0:0:0:0:
448,192,48652,1,0,0:0:0:0:
192,192,48699,1,0,0:0:0:0:
320,192,48746,1,0,0:0:0:0:
448,192,48746,1,0,0:0:0:0:
64,192,48792,1,0,0:0:0:0:
192,192,48933,1,0,0:0:0:0:
320,192,48933,1,0,0:0:0:0:
64,192,48979,1,0,0:0:0:0:
320,192,49026,1,0,0:0:0:0:
448,192,49026,1,0,0:0:0:0:
192,192,49073,1,0,0:0:0:0:
320,192,49213,1,0,0:0:0:0:
448,192,49213,1,0,0:0:0:0:
64,192,49259,1,0,0:0:0:0:
192,192,49306,1,0,0:0:0:0:
448,192,49306,1,0,0:0:0:0:
320,192,49353,1,0,0:0:0:0:
64,192,49400,1,0,0:0:0:0:
192,192,49400,1,0,0:0:0:0:
320,192,49446,1,0,0:0:0:0:
64,192,49493,1,0,0:0:0:0:
448,192,49493,1,0,0:0:0:0:
192,192,49586,1,0,0:0:0:0:
320,192,49586,1,0,0:0:0:0:
64,192,49680,1,0,0:0:0:0:
448,192,49680,1,0,0:0:0:0:
192,192,49773,1,0,0:0:0:0:
320,192,49773,1,0,0:0:0:0:
64,192,49867,1,0,0:0:0:0:
448,192,49867,1,0,0:0:0:0:
192,192,49913,1,0,0:0:0:0:
64,192,49960,1,0,0:0:0:0:
320,192,49960,1,0,0:0:0:0:
448,192,50053,1,0,0:0:0:0:
64,192,50147,1,0,0:0:0:0:
192,192,50147,1,0,0:0:0:0:
320,192,50193,1,0,0:0:0:0:
192,192,50240,1,0,0:0:0:0:
448,192,50240,1,0,0:0:0:0:
320,192,50287,1,0,0:0:0:0:
64,192,50427,1,0,0:0:0:0:
448,192,50427,1,0,0:0:0:0:
192,192,50474,1,0,0:0:0:0:
64,192,50520,1,0,0:0:0:0:
320,192,50520,1,0,0:0:0:0:
192,192,50614,1,0,0:0:0:0:
64,192,50707,1,0,0:0:0:0:
448,192,50707,1,0,0:0:0:0:
320,192,50754,1,0,0:0:0:0:
192,192,50801,1,0,0:0:0:0:
448,192,50801,1,0,0:0:0:0:
64,192,50847,1,0,0:0:0:0:
192,192,50894,1,0,0:0:0:0:
320,192,50894,1,0,0:0:0:0:
64,0,50987,128,0,51268:1:0:0:0:
448,0,50987,128,0,51268:1:0:0:0:
192,192,51361,1,0,0:0:0:0:
448,192,51361,1,0,0:0:0:0:
320,192,51408,1,0,0:0:0:0:
64,192,51454,1,0,0:0:0:0:
192,192,51454,1,0,0:0:0:0:
448,192,51548,1,0,0:0:0:0:
64,192,51641,1,0,0:0:0:0:
320,192,51641,1,0,0:0:0:0:
448,192,51688,1,0,0:0:0:0:
192,192,51735,1,0,0:0:0:0:
320,192,51735,1,0,0:0:0:0:
64,192,51781,1,0,0:0:0:0:
192,192,51921,1,0,0:0:0:0:
448,192,51921,1,0,0:0:0:0:
64,192,51968,1,0,0:0:0:0:
320,192,52015,1,0,0:0:0:0:
448,192,52015,1,0,0:0:0:0:
192,192,52061,1,0,0:0:0:0:
64,192,52202,1,0,0:0:0:0:
320,192,52202,1,0,0:0:0:0:
448,192,52248,1,0,0:0:0:0:
64,192,52295,1,0,0:0:0:0:
192,192,52295,1,0,0:0:0:0:
320,192,52342,1,0,0:0:0:0:
192,192,52388,1,0,0:0:0:0:
448,192,52388,1,0,0:0:0:0:
320,192,52435,1,0,0:0:0:0:
64,192,52482,1,0,0:0:0:0:
448,192,52482,1,0,0:0:0:0:
192,192,52575,1,0,0:0:0:0:
320,192,52575,1,0,0:0:0:0:
64,192,52669,1,0,0:0:0:0:
448,192,52669,1,0,0:0:0:0:
192,192,52762,1,0,0:0:0:0:
320,192,52762,1,0,0:0:0:0:
64,192,52855,1,0,0:0:0:0:
448,192,52855,1,0,0:0:0:0:
192,192,52902,1,0,0:0:0:0:
64,192,52949,1,0,0:0:0:0:
320,192,52949,1,0,0:0:0:0:
448,192,53042,1,0,0:0:0:0:
192,192,53136,1,0,0:0:0:0:
320,192,53136,1,0,0:0:0:0:
448,192,53182,1,0,0:0:0:0:
64,192,53229,1,0,0:0:0:0:
192,192,53229,1,0,0:0:0:0:
320,192,53276,1,0,0:0:0:0:
320,192,53416,1,0,0:0:0:0:
448,192,53416,1,0,0:0:0:0:
192,192,53462,1,0,0:0:0:0:
64,192,53509,1,0,0:0:0:0:
320,192,53509,1,0,0:0:0:0:
192,192,53603,1,0,0:0:0:0:
320,192,53696,1,0,0:0:0:0:
448,192,53696,1,0,0:0:0:0:
64,192,53743,1,0,0:0:0:0:
192,192,53789,1,0,0:0:0:0:
448,192,53789,1,0,0:0:0:0:
64,192,53836,1,0,0:0:0:0:
192,192,53883,1,0,0:0:0:0:
320,192,53883,1,0,0:0:0:0:
64,0,53976,128,0,54256:1:0:0:0:
448,0,53976,128,0,54256:1:0:0:0:
192,192,54350,1,0,0:0:0:0:
320,192,54350,1,0,0:0:0:0:
448,192,54396,1,0,0:0:0:0:
64,192,54443,1,0,0:0:0:0:
192,192,54443,1,0,0:0:0:0:
320,192,54537,1,0,0:0:0:0:
64,192,54630,1,0,0:0:0:0:
448,192,54630,1,0,0:0:0:0:
192,192,54677,1,0,0:0:0:0:
320,192,54723,1,0,0:0:0:0:
448,192,54723,1,0,0:0:0:0:
64,192,54770,1,0,0:0:0:0:
192,192,54910,1,0,0:0:0:0:
320,192,54910,1,0,0:0:0:0:
64,192,54957,1,0,0:0:0:0:
320,192,55004,1,0,0:0:0:0:
448,192,55004,1,0,0:0:0:0:
192,192,55050,1,0,0:0:0:0:
320,192,55190,1,0,0:0:0:0:
448,192,55190,1,0,0:0:0:0:
64,192,55237,1,0,0:0:0:0:
192,192,55284,1,0,0:0:0:0:
448,192,55284,1,0,0:0:0:0:
320,192,55330,1,0,0:0:0:0:
64,192,55377,1,0,0:0:0:0:
192,192,55377,1,0,0:0:0:0:
320,192,55424,1,0,0:0:0:0:
64,192,55471,1,0,0:0:0:0:
448,192,55471,1,0,0:0:0:0:
192,192,55564,1,0,0:0:0:0:
320,192,55564,1,0,0:0:0:0:
64,192,55657,1,0,0:0:0:0:
448,192,55657,1,0,0:0:0:0:
192,192,55751,1,0,0:0:0:0:
320,192,55751,1,0,0:0:0:0:
64,192,55844,1,0,0:0:0:0:
448,192,55844,1,0,0:0:0:0:
192,192,55891,1,0,0:0:0:0:
64,192,55938,1,0,0:0:0:0:
320,192,55938,1,0,0:0:0:0:
448,192,56031,1,0,0:0:0:0:
64,192,56124,1,0,0:0:0:0:
192,192,56124,1,0,0:0:0:0:
320,192,56171,1,0,0:0:0:0:
192,192,56218,1,0,0:0:0:0:
448,192,56218,1,0,0:0:0:0:
320,192,56264,1,0,0:0:0:0:
64,192,56405,1,0,0:0:0:0:
448,192,56405,1,0,0:0:0:0:
192,192,56451,1,0,0:0:0:0:
64,192,56498,1,0,0:0:0:0:
320,192,56498,1,0,0:0:0:0:
192,192,56591,1,0,0:0:0:0:
64,192,56685,1,0,0:0:0:0:
320,192,56685,1,0,0:0:0:0:
448,192,56731,1,0,0:0:0:0:
64,192,56778,1,0,0:0:0:0:
192,192,56778,1,0,0:0:0:0:
320,192,56825,1,0,0:0:0:0:
192,192,56872,1,0,0:0:0:0:
448,192,56872,1,0,0:0:0:0:
64,192,56965,1,0,0:0:0:0:
320,192,56965,1,0,0:0:0:0:
192,192,57058,1,0,0:0:0:0:
448,0,57058,128,0,57245:1:0:0:0:
320,192,57152,1,0,0:0:0:0:
64,192,57245,1,0,0:0:0:0:
192,192,57245,1,0,0:0:0:0:
320,192,57339,1,0,0:0:0:0:
448,192,57339,1,0,0:0:0:0:
64,192,57401,1,0,0:0:0:0:
192,192,57463,1,0,0:0:0:0:
64,192,57525,1,0,0:0:0:0:
320,192,57525,1,0,0:0:0:0:
448,192,57588,1,0,0:0:0:0:
192,192,57650,1,0,0:0:0:0:
64,192,57712,1,0,0:0:0:0:
448,192,57712,1,0,0:0:0:0:
320,192,57774,1,0,0:0:0:0:
64,192,57837,1,0,0:0:0:0:
192,192,57899,1,0,0:0:0:0:
448,192,57899,1,0,0:0:0:0:
320,192,57946,1,0,0:0:0:0:
64,192,57992,1,0,0:0:0:0:
192,192,57992,1,0,0:0:0:0:
320,192,58086,1,0,0:0:0:0:
192,192,58179,1,0,0:0:0:0:
448,192,58179,1,0,0:0:0:0:
320,192,58226,1,0,0:0:0:0:
64,192,58273,1,0,0:0:0:0:
192,192,58273,1,0,0:0:0:0:
448,192,58335,1,0,0:0:0:0:
320,192,58397,1,0,0:0:0:0:
64,192,58459,1,0,0:0:0:0:
448,192,58459,1,0,0:0:0:0:
192,192,58522,1,0,0:0:0:0:
64,192,58584,1,0,0:0:0:0:
320,192,58646,1,0,0:0:0:0:
192,192,58708,1,0,0:0:0:0:
448,192,58740,1,0,0:0:0:0:
320,192,58771,1,0,0:0:0:0:
64,192,58833,1,0,0:0:0:0:
192,192,58833,1,0,0:0:0:0:
448,192,58895,1,0,0:0:0:0:
320,192,58957,1,0,0:0:0:0:
64,192,59020,1,0,0:0:0:0:
192,192,59020,1,0,0:0:0:0:
448,192,59082,1,0,0:0:0:0:
192,192,59144,1,0,0:0:0:0:
64,192,59207,1,0,0:0:0:0:
448,192,59207,1,0,0:0:0:0:
320,192,59269,1,0,0:0:0:0:
64,192,59331,1,0,0:0:0:0:
192,192,59393,1,0,0:0:0:0:
448,192,59393,1,0,0:0:0:0:
320,192,59440,1,0,0:0:0:0:
64,192,59487,1,0,0:0:0:0:
192,192,59487,1,0,0:0:0:0:
320,192,59580,1,0,0:0:0:0:
192,192,59674,1,0,0:0:0:0:
448,192,59674,1,0,0:0:0:0:
320,192,59720,1,0,0:0:0:0:
64,192,59767,1,0,0:0:0:0:
192,192,59767,1,0,0:0:0:0:
448,192,59860,1,0,0:0:0:0:
64,192,59954,1,0,0:0:0:0:
320,192,59954,1,0,0:0:0:0:
192,192,60047,1,0,0:0:0:0:
320,192,60141,1,0,0:0:0:0:
448,192,60234,1,0,0:0:0:0:
64,192,60327,1,0,0:0:0:0:
192,192,60327,1,0,0:0:0:0:
320,192,60390,1,0,0:0:0:0:
448,192,60452,1,0,0:0:0:0:
64,192,60514,1,0,0:0:0:0:
192,192,60514,1,0,0:0:0:0:
320,192,60576,1,0,0:0:0:0:
192,192,60639,1,0,0:0:0:0:
320,192,60701,1,0,0:0:0:0:
448,192,60701,1,0,0:0:0:0:
64,192,60763,1,0,0:0:0:0:
192,192,60825,1,0,0:0:0:0:
64,192,60888,1,0,0:0:0:0:
320,192,60888,1,0,0:0:0:0:
448,192,60934,1,0,0:0:0:0:
64,192,60981,1,0,0:0:0:0:
192,192,60981,1,0,0:0:0:0:
448,192,61075,1,0,0:0:0:0:
64,192,61168,1,0,0:0:0:0:
320,192,61168,1,0,0:0:0:0:
448,192,61215,1,0,0:0:0:0:
64,192,61261,1,0,0:0:0:0:
192,192,61261,1,0,0:0:0:0:
320,192,61324,1,0,0:0:0:0:
192,192,61386,1,0,0:0:0:0:
64,192,61448,1,0,0:0:0:0:
448,192,61448,1,0,0:0:0:0:
320,192,61510,1,0,0:0:0:0:
192,192,61573,1,0,0:0:0:0:
448,192,61635,1,0,0:0:0:0:
64,192,61697,1,0,0:0:0:0:
192,192,61759,1,0,0:0:0:0:
64,192,61822,1,0,0:0:0:0:
320,192,61822,1,0,0:0:0:0:
448,192,61884,1,0,0:0:0:0:
192,192,61946,1,0,0:0:0:0:
64,192,62009,1,0,0:0:0:0:
320,192,62009,1,0,0:0:0:0:
448,192,62071,1,0,0:0:0:0:
320,192,62133,1,0,0:0:0:0:
64,192,62195,1,0,0:0:0:0:
448,192,62195,1,0,0:0:0:0:
192,192,62258,1,0,0:0:0:0:
64,192,62320,1,0,0:0:0:0:
320,192,62382,1,0,0:0:0:0:
448,192,62382,1,0,0:0:0:0:
192,192,62429,1,0,0:0:0:0:
64,192,62476,1,0,0:0:0:0:
320,192,62476,1,0,0:0:0:0:
192,192,62569,1,0,0:0:0:0:
320,192,62662,1,0,0:0:0:0:
448,192,62662,1,0,0:0:0:0:
192,192,62709,1,0,0:0:0:0:
64,192,62756,1,0,0:0:0:0:
320,192,62756,1,0,0:0:0:0:
64,192,62943,1,0,0:0:0:0:
448,192,62943,1,0,0:0:0:0:
192,192,63036,1,0,0:0:0:0:
320,192,63129,1,0,0:0:0:0:
448,192,63223,1,0,0:0:0:0:
64,192,63316,1,0,0:0:0:0:
192,192,63316,1,0,0:0:0:0:
320,192,63378,1,0,0:0:0:0:
448,192,63441,1,0,0:0:0:0:
64,192,63503,1,0,0:0:0:0:
192,192,63503,1,0,0:0:0:0:
448,192,63565,1,0,0:0:0:0:
192,192,63627,1,0,0:0:0:0:
64,192,63690,1,0,0:0:0:0:
320,192,63690,1,0,0:0:0:0:
448,192,63752,1,0,0:0:0:0:
64,192,63814,1,0,0:0:0:0:
192,192,63877,1,0,0:0:0:0:
320,192,63877,1,0,0:0:0:0:
448,192,63923,1,0,0:0:0:0:
64,192,63970,1,0,0:0:0:0:
192,192,63970,1,0,0:0:0:0:
448,192,64063,1,0,0:0:0:0:
192,192,64157,1,0,0:0:0:0:
320,192,64157,1,0,0:0:0:0:
448,192,64203,1,0,0:0:0:0:
64,192,64250,1,0,0:0:0:0:
192,192,64250,1,0,0:0:0:0:
320,192,64312,1,0,0:0:0:0:
448,192,64375,1,0,0:0:0:0:
64,192,64437,1,0,0:0:0:0:
320,192,64437,1,0,0:0:0:0:
192,192,64499,1,0,0:0:0:0:
448,192,64561,1,0,0:0:0:0:
320,192,64624,1,0,0:0:0:0:
192,192,64686,1,0,0:0:0:0:
64,192,64717,1,0,0:0:0:0:
320,192,64748,1,0,0:0:0:0:
192,192,64811,1,0,0:0:0:0:
448,192,64811,1,0,0:0:0:0:
64,192,64873,1,0,0:0:0:0:
320,192,64935,1,0,0:0:0:0:
448,192,64997,1,0,0:0:0:0:
192,192,64997,1,0,0:0:0:0:
320,192,65060,1,0,0:0:0:0:
192,192,65122,1,0,0:0:0:0:
64,192,65184,1,0,0:0:0:0:
448,192,65184,1,0,0:0:0:0:
320,192,65246,1,0,0:0:0:0:
64,192,65309,1,0,0:0:0:0:
320,192,65371,1,0,0:0:0:0:
448,192,65371,1,0,0:0:0:0:
192,192,65418,1,0,0:0:0:0:
320,192,65464,1,0,0:0:0:0:
64,192,65464,1,0,0:0:0:0:
192,192,65558,1,0,0:0:0:0:
320,192,65651,1,0,0:0:0:0:
448,192,65651,1,0,0:0:0:0:
192,192,65698,1,0,0:0:0:0:
64,192,65745,1,0,0:0:0:0:
320,192,65745,1,0,0:0:0:0:
64,192,65931,1,0,0:0:0:0:
448,192,65931,1,0,0:0:0:0:
192,192,66025,1,0,0:0:0:0:
320,192,66118,1,0,0:0:0:0:
448,192,66212,1,0,0:0:0:0:
64,192,66305,1,0,0:0:0:0:
320,192,66305,1,0,0:0:0:0:
192,192,66367,1,0,0:0:0:0:
448,192,66429,1,0,0:0:0:0:
64,192,66492,1,0,0:0:0:0:
320,192,66492,1,0,0:0:0:0:
192,192,66554,1,0,0:0:0:0:
320,192,66616,1,0,0:0:0:0:
64,192,66679,1,0,0:0:0:0:
448,192,66679,1,0,0:0:0:0:
192,192,66741,1,0,0:0:0:0:
64,192,66803,1,0,0:0:0:0:
192,192,66865,1,0,0:0:0:0:
320,192,66865,1,0,0:0:0:0:
448,192,66912,1,0,0:0:0:0:
64,192,66959,1,0,0:0:0:0:
320,192,66959,1,0,0:0:0:0:
448,192,67052,1,0,0:0:0:0:
192,192,67146,1,0,0:0:0:0:
320,192,67146,1,0,0:0:0:0:
448,192,67192,1,0,0:0:0:0:
64,192,67239,1,0,0:0:0:0:
320,192,67239,1,0,0:0:0:0:
192,192,67301,1,0,0:0:0:0:
320,192,67363,1,0,0:0:0:0:
64,192,67426,1,0,0:0:0:0:
448,192,67426,1,0,0:0:0:0:
192,192,67488,1,0,0:0:0:0:
320,192,67550,1,0,0:0:0:0:
192,192,67613,1,0,0:0:0:0:
448,192,67675,1,0,0:0:0:0:
64,192,67706,1,0,0:0:0:0:
192,192,67737,1,0,0:0:0:0:
320,192,67799,1,0,0:0:0:0:
448,192,67799,1,0,0:0:0:0:
64,192,67893,1,0,0:0:0:0:
320,192,67893,1,0,0:0:0:0:
192,192,67986,1,0,0:0:0:0:
448,192,67986,1,0,0:0:0:0:
320,192,68080,1,0,0:0:0:0:
448,192,68080,1,0,0:0:0:0:
64,192,68173,1,0,0:0:0:0:
192,192,68173,1,0,0:0:0:0:
64,192,68360,1,0,0:0:0:0:
320,192,68360,1,0,0:0:0:0:
448,192,68360,1,0,0:0:0:0:
192,192,68453,1,0,0:0:0:0:
320,192,68453,1,0,0:0:0:0:
448,192,68547,1,0,0:0:0:0:
64,192,68640,1,0,0:0:0:0:
192,192,68640,1,0,0:0:0:0:
320,192,68640,1,0,0:0:0:0:
192,192,68733,1,0,0:0:0:0:
448,192,68733,1,0,0:0:0:0:
64,192,68827,1,0,0:0:0:0:
192,192,68920,1,0,0:0:0:0:
320,192,68920,1,0,0:0:0:0:
64,192,69014,1,0,0:0:0:0:
448,192,69014,1,0,0:0:0:0:
192,0,69107,128,0,69200:1:0:0:0:
320,0,69107,128,0,69200:1:0:0:0:
64,192,69294,1,0,0:0:0:0:
192,192,69294,1,0,0:0:0:0:
448,192,69356,1,0,0:0:0:0:
320,192,69418,1,0,0:0:0:0:
192,192,69481,1,0,0:0:0:0:
448,192,69481,1,0,0:0:0:0:
64,192,69543,1,0,0:0:0:0:
320,192,69605,1,0,0:0:0:0:
64,192,69667,1,0,0:0:0:0:
448,192,69667,1,0,0:0:0:0:
192,192,69730,1,0,0:0:0:0:
448,192,69792,1,0,0:0:0:0:
64,192,69854,1,0,0:0:0:0:
320,192,69854,1,0,0:0:0:0:
192,192,69901,1,0,0:0:0:0:
320,192,69948,1,0,0:0:0:0:
448,192,69948,1,0,0:0:0:0:
192,192,70041,1,0,0:0:0:0:
64,192,70134,1,0,0:0:0:0:
320,192,70134,1,0,0:0:0:0:
192,192,70181,1,0,0:0:0:0:
320,192,70228,1,0,0:0:0:0:
448,192,70228,1,0,0:0:0:0:
64,192,70290,1,0,0:0:0:0:
192,192,70352,1,0,0:0:0:0:
64,192,70415,1,0,0:0:0:0:
448,192,70415,1,0,0:0:0:0:
320,192,70477,1,0,0:0:0:0:
448,192,70539,1,0,0:0:0:0:
192,192,70601,1,0,0:0:0:0:
320,192,70664,1,0,0:0:0:0:
64,192,70695,1,0,0:0:0:0:
192,192,70726,1,0,0:0:0:0:
320,192,70788,1,0,0:0:0:0:
448,192,70788,1,0,0:0:0:0:
64,192,70850,1,0,0:0:0:0:
192,192,70913,1,0,0:0:0:0:
320,192,70975,1,0,0:0:0:0:
448,192,70975,1,0,0:0:0:0:
64,192,71037,1,0,0:0:0:0:
320,192,71099,1,0,0:0:0:0:
64,192,71162,1,0,0:0:0:0:
448,192,71162,1,0,0:0:0:0:
192,192,71224,1,0,0:0:0:0:
448,192,71286,1,0,0:0:0:0:
64,192,71349,1,0,0:0:0:0:
320,192,71349,1,0,0:0:0:0:
192,192,71395,1,0,0:0:0:0:
320,192,71442,1,0,0:0:0:0:
448,192,71442,1,0,0:0:0:0:
192,192,71535,1,0,0:0:0:0:
64,192,71629,1,0,0:0:0:0:
320,192,71629,1,0,0:0:0:0:
192,192,71675,1,0,0:0:0:0:
320,192,71722,1,0,0:0:0:0:
448,192,71722,1,0,0:0:0:0:
192,192,71816,1,0,0:0:0:0:
64,192,71909,1,0,0:0:0:0:
448,192,71909,1,0,0:0:0:0:
192,192,72002,1,0,0:0:0:0:
320,192,72096,1,0,0:0:0:0:
448,192,72189,1,0,0:0:0:0:
64,192,72283,1,0,0:0:0:0:
320,192,72283,1,0,0:0:0:0:
448,192,72345,1,0,0:0:0:0:
192,192,72407,1,0,0:0:0:0:
64,192,72469,1,0,0:0:0:0:
320,192,72469,1,0,0:0:0:0:
448,192,72532,1,0,0:0:0:0:
320,192,72594,1,0,0:0:0:0:
64,192,72656,1,0,0:0:0:0:
192,192,72656,1,0,0:0:0:0:
448,192,72718,1,0,0:0:0:0:
320,192,72781,1,0,0:0:0:0:
192,192,72843,1,0,0:0:0:0:
448,192,72843,1,0,0:0:0:0:
64,192,72890,1,0,0:0:0:0:
320,192,72936,1,0,0:0:0:0:
448,192,72936,1,0,0:0:0:0:
64,192,73030,1,0,0:0:0:0:
192,192,73123,1,0,0:0:0:0:
448,192,73123,1,0,0:0:0:0:
64,192,73170,1,0,0:0:0:0:
320,192,73217,1,0,0:0:0:0:
448,192,73217,1,0,0:0:0:0:
192,192,73279,1,0,0:0:0:0:
320,192,73341,1,0,0:0:0:0:
64,192,73403,1,0,0:0:0:0:
448,192,73403,1,0,0:0:0:0:
192,192,73466,1,0,0:0:0:0:
320,192,73528,1,0,0:0:0:0:
64,192,73590,1,0,0:0:0:0:
448,192,73652,1,0,0:0:0:0:
320,192,73715,1,0,0:0:0:0:
192,192,73777,1,0,0:0:0:0:
448,192,73777,1,0,0:0:0:0:
64,192,73839,1,0,0:0:0:0:
320,192,73901,1,0,0:0:0:0:
192,192,73964,1,0,0:0:0:0:
448,192,73964,1,0,0:0:0:0:
64,192,74026,1,0,0:0:0:0:
192,192,74088,1,0,0:0:0:0:
64,192,74151,1,0,0:0:0:0:
448,192,74151,1,0,0:0:0:0:
320,192,74213,1,0,0:0:0:0:
448,192,74275,1,0,0:0:0:0:
64,192,74337,1,0,0:0:0:0:
192,192,74337,1,0,0:0:0:0:
320,192,74384,1,0,0:0:0:0:
192,192,74431,1,0,0:0:0:0:
448,192,74431,1,0,0:0:0:0:
320,192,74524,1,0,0:0:0:0:
64,192,74618,1,0,0:0:0:0:
192,192,74618,1,0,0:0:0:0:
320,192,74664,1,0,0:0:0:0:
192,192,74711,1,0,0:0:0:0:
448,192,74711,1,0,0:0:0:0:
64,192,74898,1,0,0:0:0:0:
448,192,74898,1,0,0:0:0:0:
192,192,74991,1,0,0:0:0:0:
320,192,75085,1,0,0:0:0:0:
448,192,75178,1,0,0:0:0:0:
64,192,75271,1,0,0:0:0:0:
320,192,75271,1,0,0:0:0:0:
192,192,75334,1,0,0:0:0:0:
448,192,75396,1,0,0:0:0:0:
64,192,75458,1,0,0:0:0:0:
320,192,75458,1,0,0:0:0:0:
192,192,75520,1,0,0:0:0:0:
320,192,75583,1,0,0:0:0:0:
192,192,75645,1,0,0:0:0:0:
448,192,75645,1,0,0:0:0:0:
64,192,75707,1,0,0:0:0:0:
448,192,75769,1,0,0:0:0:0:
192,192,75832,1,0,0:0:0:0:
320,192,75832,1,0,0:0:0:0:
64,192,75878,1,0,0:0:0:0:
320,192,75925,1,0,0:0:0:0:
448,192,75925,1,0,0:0:0:0:
64,192,76018,1,0,0:0:0:0:
192,192,76112,1,0,0:0:0:0:
320,192,76112,1,0,0:0:0:0:
64,192,76159,1,0,0:0:0:0:
320,192,76205,1,0,0:0:0:0:
448,192,76205,1,0,0:0:0:0:
192,192,76268,1,0,0:0:0:0:
64,192,76330,1,0,0:0:0:0:
192,192,76392,1,0,0:0:0:0:
448,192,76392,1,0,0:0:0:0:
320,192,76454,1,0,0:0:0:0:
64,192,76517,1,0,0:0:0:0:
192,192,76579,1,0,0:0:0:0:
320,192,76641,1,0,0:0:0:0:
448,192,76672,1,0,0:0:0:0:
192,192,76703,1,0,0:0:0:0:
64,192,76766,1,0,0:0:0:0:
320,192,76766,1,0,0:0:0:0:
448,192,76828,1,0,0:0:0:0:
192,192,76890,1,0,0:0:0:0:
64,192,76952,1,0,0:0:0:0:
320,192,76952,1,0,0:0:0:0:
192,192,77015,1,0,0:0:0:0:
320,192,77077,1,0,0:0:0:0:
64,192,77139,1,0,0:0:0:0:
448,192,77139,1,0,0:0:0:0:
192,192,77202,1,0,0:0:0:0:
448,192,77264,1,0,0:0:0:0:
64,192,77326,1,0,0:0:0:0:
192,192,77326,1,0,0:0:0:0:
320,192,77373,1,0,0:0:0:0:
192,192,77419,1,0,0:0:0:0:
448,192,77419,1,0,0:0:0:0:
320,192,77513,1,0,0:0:0:0:
64,192,77606,1,0,0:0:0:0:
192,192,77606,1,0,0:0:0:0:
320,192,77653,1,0,0:0:0:0:
192,192,77700,1,0,0:0:0:0:
448,192,77700,1,0,0:0:0:0:
64,192,77886,1,0,0:0:0:0:
448,192,77886,1,0,0:0:0:0:
192,192,77980,1,0,0:0:0:0:
320,192,78073,1,0,0:0:0:0:
448,192,78167,1,0,0:0:0:0:
64,192,78260,1,0,0:0:0:0:
192,192,78260,1,0,0:0:0:0:
320,192,78260,1,0,0:0:0:0:
448,192,78322,1,0,0:0:0:0:
192,192,78385,1,0,0:0:0:0:
448,192,78447,1,0,0:0:0:0:
64,192,78509,1,0,0:0:0:0:
448,192,78571,1,0,0:0:0:0:
192,192,78634,1,0,0:0:0:0:
448,192,78696,1,0,0:0:0:0:
320,192,78758,1,0,0:0:0:0:
64,192,78820,1,0,0:0:0:0:
448,192,78820,1,0,0:0:0:0:
64,192,78914,1,0,0:0:0:0:
192,192,78914,1,0,0:0:0:0:
448,192,78945,1,0,0:0:0:0:
320,192,79007,1,0,0:0:0:0:
448,192,79070,1,0,0:0:0:0:
64,192,79101,1,0,0:0:0:0:
192,192,79101,1,0,0:0:0:0:
64,192,79194,1,0,0:0:0:0:
448,192,79194,1,0,0:0:0:0:
320,192,79256,1,0,0:0:0:0:
448,192,79319,1,0,0:0:0:0:
192,192,79381,1,0,0:0:0:0:
448,192,79443,1,0,0:0:0:0:
64,192,79505,1,0,0:0:0:0:
448,192,79568,1,0,0:0:0:0:
192,192,79630,1,0,0:0:0:0:
448,192,79692,1,0,0:0:0:0:
320,192,79754,1,0,0:0:0:0:
448,192,79817,1,0,0:0:0:0:
64,192,79848,1,0,0:0:0:0:
192,192,79941,1,0,0:0:0:0:
320,192,80035,1,0,0:0:0:0:
448,192,80128,1,0,0:0:0:0:
192,192,80221,1,0,0:0:0:0:
320,192,80315,1,0,0:0:0:0:
448,192,80315,1,0,0:0:0:0:
64,192,80408,1,0,0:0:0:0:
192,192,80408,1,0,0:0:0:0:
320,192,80502,1,0,0:0:0:0:
448,192,80502,1,0,0:0:0:0:
64,192,80595,1,0,0:0:0:0:
192,192,80595,1,0,0:0:0:0:
320,192,80688,1,0,0:0:0:0:
448,192,80688,1,0,0:0:0:0:
64,192,80782,1,0,0:0:0:0:
192,192,80782,1,0,0:0:0:0:
320,192,80875,1,0,0:0:0:0:
448,192,80875,1,0,0:0:0:0:
64,0,80875,128,0,81109:1:0:0:0:
192,0,80875,128,0,81155:1:0:0:0:
448,0,81062,128,0,81155:1:0:0:0:
320,0,81062,128,0,81249:1:0:0:0:
64,192,81249,1,0,0:0:0:0:
448,192,81249,1,0,0:0:0:0:
192,192,81311,1,0,0:0:0:0:
448,192,81373,1,0,0:0:0:0:
320,192,81436,1,0,0:0:0:0:
448,192,81498,1,0,0:0:0:0:
192,192,81560,1,0,0:0:0:0:
64,192,81622,1,0,0:0:0:0:
448,192,81622,1,0,0:0:0:0:
320,192,81685,1,0,0:0:0:0:
448,192,81747,1,0,0:0:0:0:
64,192,81809,1,0,0:0:0:0:
192,192,81809,1,0,0:0:0:0:
320,192,81903,1,0,0:0:0:0:
64,192,81996,1,0,0:0:0:0:
192,192,81996,1,0,0:0:0:0:
448,192,82043,1,0,0:0:0:0:
320,192,82089,1,0,0:0:0:0:
64,192,82136,1,0,0:0:0:0:
192,192,82183,1,0,0:0:0:0:
448,192,82230,1,0,0:0:0:0:
64,192,82276,1,0,0:0:0:0:
320,192,82323,1,0,0:0:0:0:
192,192,82370,1,0,0:0:0:0:
448,192,82370,1,0,0:0:0:0:
64,192,82416,1,0,0:0:0:0:
320,192,82463,1,0,0:0:0:0:
192,192,82510,1,0,0:0:0:0:
64,192,82556,1,0,0:0:0:0:
448,192,82556,1,0,0:0:0:0:
192,192,82650,1,0,0:0:0:0:
64,192,82743,1,0,0:0:0:0:
320,192,82743,1,0,0:0:0:0:
448,192,82806,1,0,0:0:0:0:
320,192,82868,1,0,0:0:0:0:
64,192,82930,1,0,0:0:0:0:
192,192,82930,1,0,0:0:0:0:
320,192,82992,1,0,0:0:0:0:
64,192,83055,1,0,0:0:0:0:
320,192,83117,1,0,0:0:0:0:
448,192,83117,1,0,0:0:0:0:
192,192,83179,1,0,0:0:0:0:
320,192,83241,1,0,0:0:0:0:
64,192,83304,1,0,0:0:0:0:
448,192,83304,1,0,0:0:0:0:
320,192,83397,1,0,0:0:0:0:
64,192,83490,1,0,0:0:0:0:
192,192,83490,1,0,0:0:0:0:
320,192,83537,1,0,0:0:0:0:
448,192,83584,1,0,0:0:0:0:
64,192,83631,1,0,0:0:0:0:
192,192,83677,1,0,0:0:0:0:
448,192,83724,1,0,0:0:0:0:
64,192,83771,1,0,0:0:0:0:
320,192,83817,1,0,0:0:0:0:
192,192,83864,1,0,0:0:0:0:
448,192,83864,1,0,0:0:0:0:
64,192,83911,1,0,0:0:0:0:
320,192,83957,1,0,0:0:0:0:
192,192,84004,1,0,0:0:0:0:
64,192,84051,1,0,0:0:0:0:
448,192,84051,1,0,0:0:0:0:
320,192,84144,1,0,0:0:0:0:
192,192,84238,1,0,0:0:0:0:
448,192,84238,1,0,0:0:0:0:
64,192,84300,1,0,0:0:0:0:
192,192,84362,1,0,0:0:0:0:
448,192,84424,1,0,0:0:0:0:
192,192,84487,1,0,0:0:0:0:
320,192,84487,1,0,0:0:0:0:
64,192,84549,1,0,0:0:0:0:
192,192,84611,1,0,0:0:0:0:
448,192,84611,1,0,0:0:0:0:
320,192,84674,1,0,0:0:0:0:
192,192,84736,1,0,0:0:0:0:
64,192,84798,1,0,0:0:0:0:
448,192,84798,1,0,0:0:0:0:
320,192,84891,1,0,0:0:0:0:
64,192,84985,1,0,0:0:0:0:
448,192,84985,1,0,0:0:0:0:
192,192,85032,1,0,0:0:0:0:
320,192,85078,1,0,0:0:0:0:
64,192,85125,1,0,0:0:0:0:
192,192,85172,1,0,0:0:0:0:
320,192,85218,1,0,0:0:0:0:
64,192,85265,1,0,0:0:0:0:
448,192,85312,1,0,0:0:0:0:
192,192,85358,1,0,0:0:0:0:
320,192,85358,1,0,0:0:0:0:
64,192,85405,1,0,0:0:0:0:
448,192,85452,1,0,0:0:0:0:
192,192,85499,1,0,0:0:0:0:
64,192,85545,1,0,0:0:0:0:
320,192,85545,1,0,0:0:0:0:
448,192,85639,1,0,0:0:0:0:
64,192,85732,1,0,0:0:0:0:
320,192,85732,1,0,0:0:0:0:
192,192,85794,1,0,0:0:0:0:
64,192,85857,1,0,0:0:0:0:
320,192,85919,1,0,0:0:0:0:
64,192,85981,1,0,0:0:0:0:
448,192,85981,1,0,0:0:0:0:
192,192,86043,1,0,0:0:0:0:
64,192,86106,1,0,0:0:0:0:
320,192,86106,1,0,0:0:0:0:
448,192,86168,1,0,0:0:0:0:
64,192,86230,1,0,0:0:0:0:
192,192,86292,1,0,0:0:0:0:
320,192,86292,1,0,0:0:0:0:
448,192,86386,1,0,0:0:0:0:
64,192,86479,1,0,0:0:0:0:
192,192,86479,1,0,0:0:0:0:
448,192,86526,1,0,0:0:0:0:
320,192,86573,1,0,0:0:0:0:
64,192,86619,1,0,0:0:0:0:
192,192,86666,1,0,0:0:0:0:
448,192,86713,1,0,0:0:0:0:
64,192,86759,1,0,0:0:0:0:
320,192,86806,1,0,0:0:0:0:
192,192,86853,1,0,0:0:0:0:
448,192,86853,1,0,0:0:0:0:
64,192,86900,1,0,0:0:0:0:
320,192,86946,1,0,0:0:0:0:
192,192,86993,1,0,0:0:0:0:
64,192,87040,1,0,0:0:0:0:
448,192,87040,1,0,0:0:0:0:
192,192,87133,1,0,0:0:0:0:
64,192,87226,1,0,0:0:0:0:
448,192,87226,1,0,0:0:0:0:
192,192,87289,1,0,0:0:0:0:
448,192,87351,1,0,0:0:0:0:
320,192,87413,1,0,0:0:0:0:
448,192,87476,1,0,0:0:0:0:
192,192,87538,1,0,0:0:0:0:
64,192,87600,1,0,0:0:0:0:
448,192,87600,1,0,0:0:0:0:
320,192,87662,1,0,0:0:0:0:
448,192,87725,1,0,0:0:0:0:
64,192,87787,1,0,0:0:0:0:
192,192,87787,1,0,0:0:0:0:
320,192,87880,1,0,0:0:0:0:
64,192,87974,1,0,0:0:0:0:
192,192,87974,1,0,0:0:0:0:
448,192,88020,1,0,0:0:0:0:
320,192,88067,1,0,0:0:0:0:
64,192,88114,1,0,0:0:0:0:
192,192,88160,1,0,0:0:0:0:
448,192,88207,1,0,0:0:0:0:
64,192,88254,1,0,0:0:0:0:
320,192,88301,1,0,0:0:0:0:
192,192,88347,1,0,0:0:0:0:
448,192,88347,1,0,0:0:0:0:
64,192,88394,1,0,0:0:0:0:
320,192,88441,1,0,0:0:0:0:
192,192,88487,1,0,0:0:0:0:
64,192,88534,1,0,0:0:0:0:
448,192,88534,1,0,0:0:0:0:
192,192,88627,1,0,0:0:0:0:
64,192,88721,1,0,0:0:0:0:
320,192,88721,1,0,0:0:0:0:
448,192,88783,1,0,0:0:0:0:
320,192,88845,1,0,0:0:0:0:
64,192,88908,1,0,0:0:0:0:
192,192,88908,1,0,0:0:0:0:
320,192,88970,1,0,0:0:0:0:
64,192,89032,1,0,0:0:0:0:
320,192,89094,1,0,0:0:0:0:
448,192,89094,1,0,0:0:0:0:
192,192,89157,1,0,0:0:0:0:
320,192,89219,1,0,0:0:0:0:
64,192,89281,1,0,0:0:0:0:
448,192,89281,1,0,0:0:0:0:
320,192,89375,1,0,0:0:0:0:
64,192,89468,1,0,0:0:0:0:
192,192,89468,1,0,0:0:0:0:
320,192,89515,1,0,0:0:0:0:
448,192,89561,1,0,0:0:0:0:
64,192,89608,1,0,0:0:0:0:
192,192,89655,1,0,0:0:0:0:
448,192,89702,1,0,0:0:0:0:
64,192,89748,1,0,0:0:0:0:
320,192,89795,1,0,0:0:0:0:
192,192,89842,1,0,0:0:0:0:
448,192,89842,1,0,0:0:0:0:
64,192,89888,1,0,0:0:0:0:
320,192,89935,1,0,0:0:0:0:
192,192,89982,1,0,0:0:0:0:
64,192,90028,1,0,0:0:0:0:
448,192,90028,1,0,0:0:0:0:
320,192,90122,1,0,0:0:0:0:
192,192,90215,1,0,0:0:0:0:
448,192,90215,1,0,0:0:0:0:
64,192,90278,1,0,0:0:0:0:
192,192,90340,1,0,0:0:0:0:
448,192,90402,1,0,0:0:0:0:
192,192,90464,1,0,0:0:0:0:
320,192,90464,1,0,0:0:0:0:
64,192,90527,1,0,0:0:0:0:
192,192,90589,1,0,0:0:0:0:
448,192,90589,1,0,0:0:0:0:
320,192,90651,1,0,0:0:0:0:
192,192,90713,1,0,0:0:0:0:
64,192,90776,1,0,0:0:0:0:
448,192,90776,1,0,0:0:0:0:
320,192,90869,1,0,0:0:0:0:
64,192,90962,1,0,0:0:0:0:
448,192,90962,1,0,0:0:0:0:
192,192,91009,1,0,0:0:0:0:
320,192,91056,1,0,0:0:0:0:
64,192,91103,1,0,0:0:0:0:
192,192,91149,1,0,0:0:0:0:
320,192,91196,1,0,0:0:0:0:
64,192,91243,1,0,0:0:0:0:
448,192,91289,1,0,0:0:0:0:
192,192,91336,1,0,0:0:0:0:
320,192,91336,1,0,0:0:0:0:
64,192,91383,1,0,0:0:0:0:
448,192,91429,1,0,0:0:0:0:
192,192,91476,1,0,0:0:0:0:
64,192,91523,1,0,0:0:0:0:
320,192,91523,1,0,0:0:0:0:
448,192,91616,1,0,0:0:0:0:
64,192,91710,1,0,0:0:0:0:
320,192,91710,1,0,0:0:0:0:
192,192,91772,1,0,0:0:0:0:
64,192,91834,1,0,0:0:0:0:
320,192,91896,1,0,0:0:0:0:
64,192,91959,1,0,0:0:0:0:
448,192,91959,1,0,0:0:0:0:
192,192,92021,1,0,0:0:0:0:
64,192,92083,1,0,0:0:0:0:
320,192,92083,1,0,0:0:0:0:
448,192,92146,1,0,0:0:0:0:
64,192,92208,1,0,0:0:0:0:
192,192,92270,1,0,0:0:0:0:
320,192,92270,1,0,0:0:0:0:
448,192,92363,1,0,0:0:0:0:
64,192,92457,1,0,0:0:0:0:
192,192,92457,1,0,0:0:0:0:
448,192,92504,1,0,0:0:0:0:
320,192,92550,1,0,0:0:0:0:
64,192,92597,1,0,0:0:0:0:
192,192,92644,1,0,0:0:0:0:
448,192,92690,1,0,0:0:0:0:
64,192,92737,1,0,0:0:0:0:
320,192,92784,1,0,0:0:0:0:
192,192,92830,1,0,0:0:0:0:
448,192,92830,1,0,0:0:0:0:
64,192,92877,1,0,0:0:0:0:
320,192,92924,1,0,0:0:0:0:
192,192,92971,1,0,0:0:0:0:
64,192,93017,1,0,0:0:0:0:
448,192,93017,1,0,0:0:0:0:
192,192,93111,1,0,0:0:0:0:
64,192,93204,1,0,0:0:0:0:
448,192,93204,1,0,0:0:0:0:
192,192,93266,1,0,0:0:0:0:
448,192,93329,1,0,0:0:0:0:
320,192,93391,1,0,0:0:0:0:
448,192,93453,1,0,0:0:0:0:
192,192,93515,1,0,0:0:0:0:
64,192,93578,1,0,0:0:0:0:
448,192,93578,1,0,0:0:0:0:
320,192,93640,1,0,0:0:0:0:
448,192,93702,1,0,0:0:0:0:
64,192,93764,1,0,0:0:0:0:
192,192,93764,1,0,0:0:0:0:
320,192,93858,1,0,0:0:0:0:
64,192,93951,1,0,0:0:0:0:
192,192,93951,1,0,0:0:0:0:
448,192,93998,1,0,0:0:0:0:
320,192,94045,1,0,0:0:0:0:
64,192,94091,1,0,0:0:0:0:
192,192,94138,1,0,0:0:0:0:
448,192,94185,1,0,0:0:0:0:
64,192,94231,1,0,0:0:0:0:
320,192,94278,1,0,0:0:0:0:
192,192,94325,1,0,0:0:0:0:
448,192,94325,1,0,0:0:0:0:
64,192,94372,1,0,0:0:0:0:
320,192,94418,1,0,0:0:0:0:
192,192,94465,1,0,0:0:0:0:
64,192,94512,1,0,0:0:0:0:
448,192,94512,1,0,0:0:0:0:
192,192,94605,1,0,0:0:0:0:
64,192,94698,1,0,0:0:0:0:
320,192,94698,1,0,0:0:0:0:
448,192,94761,1,0,0:0:0:0:
320,192,94823,1,0,0:0:0:0:
64,192,94885,1,0,0:0:0:0:
192,192,94885,1,0,0:0:0:0:
320,192,94948,1,0,0:0:0:0:
64,192,95010,1,0,0:0:0:0:
320,192,95072,1,0,0:0:0:0:
448,192,95072,1,0,0:0:0:0:
192,192,95134,1,0,0:0:0:0:
320,192,95197,1,0,0:0:0:0:
64,192,95259,1,0,0:0:0:0:
448,192,95259,1,0,0:0:0:0:
320,192,95352,1,0,0:0:0:0:
64,192,95446,1,0,0:0:0:0:
192,192,95446,1,0,0:0:0:0:
320,192,95492,1,0,0:0:0:0:
448,192,95539,1,0,0:0:0:0:
64,192,95586,1,0,0:0:0:0:
192,192,95632,1,0,0:0:0:0:
448,192,95679,1,0,0:0:0:0:
64,192,95726,1,0,0:0:0:0:
320,192,95773,1,0,0:0:0:0:
192,192,95819,1,0,0:0:0:0:
448,192,95819,1,0,0:0:0:0:
64,192,95866,1,0,0:0:0:0:
320,192,95913,1,0,0:0:0:0:
192,192,95959,1,0,0:0:0:0:
64,192,96006,1,0,0:0:0:0:
448,192,96006,1,0,0:0:0:0:
320,192,96099,1,0,0:0:0:0:
192,192,96193,1,0,0:0:0:0:
448,192,96193,1,0,0:0:0:0:
64,192,96255,1,0,0:0:0:0:
192,192,96317,1,0,0:0:0:0:
448,192,96380,1,0,0:0:0:0:
192,192,96442,1,0,0:0:0:0:
320,192,96442,1,0,0:0:0:0:
64,192,96504,1,0,0:0:0:0:
192,192,96566,1,0,0:0:0:0:
448,192,96566,1,0,0:0:0:0:
320,192,96629,1,0,0:0:0:0:
192,192,96691,1,0,0:0:0:0:
64,192,96753,1,0,0:0:0:0:
448,192,96753,1,0,0:0:0:0:
320,192,96847,1,0,0:0:0:0:
64,192,96940,1,0,0:0:0:0:
448,192,96940,1,0,0:0:0:0:
192,192,96987,1,0,0:0:0:0:
320,192,97033,1,0,0:0:0:0:
64,192,97080,1,0,0:0:0:0:
192,192,97127,1,0,0:0:0:0:
320,192,97174,1,0,0:0:0:0:
64,192,97220,1,0,0:0:0:0:
448,192,97267,1,0,0:0:0:0:
192,192,97314,1,0,0:0:0:0:
320,192,97314,1,0,0:0:0:0:
64,192,97360,1,0,0:0:0:0:
448,192,97407,1,0,0:0:0:0:
192,192,97454,1,0,0:0:0:0:
64,192,97500,1,0,0:0:0:0:
320,192,97500,1,0,0:0:0:0:
448,192,97594,1,0,0:0:0:0:
64,192,97687,1,0,0:0:0:0:
320,192,97687,1,0,0:0:0:0:
192,192,97750,1,0,0:0:0:0:
64,192,97812,1,0,0:0:0:0:
320,192,97874,1,0,0:0:0:0:
64,192,97936,1,0,0:0:0:0:
448,192,97936,1,0,0:0:0:0:
192,192,97999,1,0,0:0:0:0:
64,192,98061,1,0,0:0:0:0:
320,192,98061,1,0,0:0:0:0:
448,192,98123,1,0,0:0:0:0:
64,192,98185,1,0,0:0:0:0:
192,192,98248,1,0,0:0:0:0:
320,192,98248,1,0,0:0:0:0:
448,192,98341,1,0,0:0:0:0:
64,192,98434,1,0,0:0:0:0:
192,192,98434,1,0,0:0:0:0:
448,192,98481,1,0,0:0:0:0:
320,192,98528,1,0,0:0:0:0:
64,192,98575,1,0,0:0:0:0:
192,192,98621,1,0,0:0:0:0:
448,192,98668,1,0,0:0:0:0:
64,192,98715,1,0,0:0:0:0:
320,192,98761,1,0,0:0:0:0:
192,192,98808,1,0,0:0:0:0:
448,192,98808,1,0,0:0:0:0:
64,192,98855,1,0,0:0:0:0:
320,192,98901,1,0,0:0:0:0:
192,192,98948,1,0,0:0:0:0:
64,192,98995,1,0,0:0:0:0:
448,192,98995,1,0,0:0:0:0:
192,192,99088,1,0,0:0:0:0:
64,192,99182,1,0,0:0:0:0:
448,192,99182,1,0,0:0:0:0:
192,192,99244,1,0,0:0:0:0:
448,192,99306,1,0,0:0:0:0:
320,192,99368,1,0,0:0:0:0:
448,192,99431,1,0,0:0:0:0:
192,192,99493,1,0,0:0:0:0:
64,192,99555,1,0,0:0:0:0:
448,192,99555,1,0,0:0:0:0:
320,192,99618,1,0,0:0:0:0:
448,192,99680,1,0,0:0:0:0:
64,192,99742,1,0,0:0:0:0:
192,192,99742,1,0,0:0:0:0:
320,192,99835,1,0,0:0:0:0:
64,192,99929,1,0,0:0:0:0:
192,192,99929,1,0,0:0:0:0:
448,192,99976,1,0,0:0:0:0:
320,192,100022,1,0,0:0:0:0:
64,192,100069,1,0,0:0:0:0:
192,192,100116,1,0,0:0:0:0:
448,192,100162,1,0,0:0:0:0:
64,192,100209,1,0,0:0:0:0:
320,192,100256,1,0,0:0:0:0:
192,192,100302,1,0,0:0:0:0:
448,192,100302,1,0,0:0:0:0:
64,192,100349,1,0,0:0:0:0:
320,192,100396,1,0,0:0:0:0:
192,192,100443,1,0,0:0:0:0:
64,192,100489,1,0,0:0:0:0:
448,192,100489,1,0,0:0:0:0:
192,192,100583,1,0,0:0:0:0:
64,192,100676,1,0,0:0:0:0:
320,192,100676,1,0,0:0:0:0:
448,192,100738,1,0,0:0:0:0:
320,192,100801,1,0,0:0:0:0:
64,192,100863,1,0,0:0:0:0:
192,192,100863,1,0,0:0:0:0:
320,192,100925,1,0,0:0:0:0:
64,192,100987,1,0,0:0:0:0:
320,192,101050,1,0,0:0:0:0:
448,192,101050,1,0,0:0:0:0:
192,192,101112,1,0,0:0:0:0:
320,192,101174,1,0,0:0:0:0:
64,192,101236,1,0,0:0:0:0:
448,192,101236,1,0,0:0:0:0:
320,192,101330,1,0,0:0:0:0:
64,192,101423,1,0,0:0:0:0:
192,192,101423,1,0,0:0:0:0:
320,192,101470,1,0,0:0:0:0:
448,192,101517,1,0,0:0:0:0:
64,192,101563,1,0,0:0:0:0:
192,192,101610,1,0,0:0:0:0:
448,192,101657,1,0,0:0:0:0:
64,192,101703,1,0,0:0:0:0:
320,192,101750,1,0,0:0:0:0:
192,192,101797,1,0,0:0:0:0:
448,192,101797,1,0,0:0:0:0:
64,192,101844,1,0,0:0:0:0:
320,192,101890,1,0,0:0:0:0:
192,192,101937,1,0,0:0:0:0:
64,192,101984,1,0,0:0:0:0:
448,192,101984,1,0,0:0:0:0:
320,192,102077,1,0,0:0:0:0:
192,192,102170,1,0,0:0:0:0:
448,192,102170,1,0,0:0:0:0:
64,192,102233,1,0,0:0:0:0:
192,192,102295,1,0,0:0:0:0:
448,192,102357,1,0,0:0:0:0:
192,192,102419,1,0,0:0:0:0:
320,192,102419,1,0,0:0:0:0:
64,192,102482,1,0,0:0:0:0:
192,192,102544,1,0,0:0:0:0:
448,192,102544,1,0,0:0:0:0:
320,192,102606,1,0,0:0:0:0:
192,192,102669,1,0,0:0:0:0:
64,192,102731,1,0,0:0:0:0:
448,192,102731,1,0,0:0:0:0:
320,192,102824,1,0,0:0:0:0:
64,192,102918,1,0,0:0:0:0:
448,192,102918,1,0,0:0:0:0:
192,192,102964,1,0,0:0:0:0:
320,192,103011,1,0,0:0:0:0:
64,192,103058,1,0,0:0:0:0:
192,192,103104,1,0,0:0:0:0:
320,192,103151,1,0,0:0:0:0:
64,192,103198,1,0,0:0:0:0:
448,192,103245,1,0,0:0:0:0:
192,192,103291,1,0,0:0:0:0:
320,192,103291,1,0,0:0:0:0:
64,192,103338,1,0,0:0:0:0:
448,192,103385,1,0,0:0:0:0:
192,192,103431,1,0,0:0:0:0:
64,192,103478,1,0,0:0:0:0:
320,192,103478,1,0,0:0:0:0:
448,192,103571,1,0,0:0:0:0:
64,192,103665,1,0,0:0:0:0:
320,192,103665,1,0,0:0:0:0:
192,192,103727,1,0,0:0:0:0:
64,192,103789,1,0,0:0:0:0:
320,192,103852,1,0,0:0:0:0:
64,192,103914,1,0,0:0:0:0:
448,192,103914,1,0,0:0:0:0:
192,192,103976,1,0,0:0:0:0:
64,192,104038,1,0,0:0:0:0:
320,192,104038,1,0,0:0:0:0:
448,192,104101,1,0,0:0:0:0:
64,192,104163,1,0,0:0:0:0:
192,192,104225,1,0,0:0:0:0:
320,192,104225,1,0,0:0:0:0:
448,192,104319,1,0,0:0:0:0:
64,192,104412,1,0,0:0:0:0:
192,192,104412,1,0,0:0:0:0:
448,192,104459,1,0,0:0:0:0:
320,192,104505,1,0,0:0:0:0:
64,192,104552,1,0,0:0:0:0:
192,192,104599,1,0,0:0:0:0:
448,192,104646,1,0,0:0:0:0:
64,192,104692,1,0,0:0:0:0:
320,192,104739,1,0,0:0:0:0:
192,192,104786,1,0,0:0:0:0:
448,192,104786,1,0,0:0:0:0:
64,192,104832,1,0,0:0:0:0:
320,192,104879,1,0,0:0:0:0:
192,192,104926,1,0,0:0:0:0:
64,192,104972,1,0,0:0:0:0:
448,192,104972,1,0,0:0:0:0:
192,192,105066,1,0,0:0:0:0:
64,192,105159,1,0,0:0:0:0:
320,192,105159,1,0,0:0:0:0:
448,192,105159,1,0,0:0:0:0:
320,192,105346,1,0,0:0:0:0:
448,192,105346,1,0,0:0:0:0:
64,192,105439,1,0,0:0:0:0:
192,192,105439,1,0,0:0:0:0:
64,192,105533,1,0,0:0:0:0:
320,192,105533,1,0,0:0:0:0:
448,192,105533,1,0,0:0:0:0:
64,192,105720,1,0,0:0:0:0:
192,192,105720,1,0,0:0:0:0:
320,192,105720,1,0,0:0:0:0:
192,192,105813,1,0,0:0:0:0:
320,192,105813,1,0,0:0:0:0:
448,192,105813,1,0,0:0:0:0:
64,192,106000,1,0,0:0:0:0:
192,192,106000,1,0,0:0:0:0:
320,192,106000,1,0,0:0:0:0:
192,192,106093,1,0,0:0:0:0:
320,192,106093,1,0,0:0:0:0:
448,192,106093,1,0,0:0:0:0:
192,192,106280,1,0,0:0:0:0:
448,192,106280,1,0,0:0:0:0:
64,192,106373,1,0,0:0:0:0:
192,192,106373,1,0,0:0:0:0:
192,192,106467,1,0,0:0:0:0:
448,192,106467,1,0,0:0:0:0:
64,192,106654,1,0,0:0:0:0:
448,192,106654,1,0,0:0:0:0:
64,192,106747,1,0,0:0:0:0:
448,192,106747,1,0,0:0:0:0:
192,192,106840,1,0,0:0:0:0:
320,192,106840,1,0,0:0:0:0:
64,192,106934,1,0,0:0:0:0:
448,192,106934,1,0,0:0:0:0:
64,192,107027,1,0,0:0:0:0:
320,192,107027,1,0,0:0:0:0:
448,192,107027,1,0,0:0:0:0:
64,192,107214,1,0,0:0:0:0:
192,192,107214,1,0,0:0:0:0:
320,192,107214,1,0,0:0:0:0:
192,192,107307,1,0,0:0:0:0:
320,192,107307,1,0,0:0:0:0:
448,192,107307,1,0,0:0:0:0:
64,192,107494,1,0,0:0:0:0:
192,192,107494,1,0,0:0:0:0:
320,192,107494,1,0,0:0:0:0:
192,192,107588,1,0,0:0:0:0:
320,192,107588,1,0,0:0:0:0:
448,192,107588,1,0,0:0:0:0:
320,192,107774,1,0,0:0:0:0:
448,192,107774,1,0,0:0:0:0:
64,192,107868,1,0,0:0:0:0:
320,192,107868,1,0,0:0:0:0:
320,192,107961,1,0,0:0:0:0:
448,192,107961,1,0,0:0:0:0:
64,192,108148,1,0,0:0:0:0:
192,192,108148,1,0,0:0:0:0:
320,192,108148,1,0,0:0:0:0:
320,192,108335,1,0,0:0:0:0:
448,192,108335,1,0,0:0:0:0:
64,192,108428,1,0,0:0:0:0:
192,192,108428,1,0,0:0:0:0:
64,192,108522,1,0,0:0:0:0:
320,192,108522,1,0,0:0:0:0:
448,192,108522,1,0,0:0:0:0:
64,192,108708,1,0,0:0:0:0:
192,192,108708,1,0,0:0:0:0:
320,192,108708,1,0,0:0:0:0:
192,192,108802,1,0,0:0:0:0:
320,192,108802,1,0,0:0:0:0:
448,192,108802,1,0,0:0:0:0:
64,192,108989,1,0,0:0:0:0:
192,192,108989,1,0,0:0:0:0:
320,192,108989,1,0,0:0:0:0:
192,192,109082,1,0,0:0:0:0:
320,192,109082,1,0,0:0:0:0:
448,192,109082,1,0,0:0:0:0:
192,192,109269,1,0,0:0:0:0:
448,192,109269,1,0,0:0:0:0:
64,192,109362,1,0,0:0:0:0:
448,192,109362,1,0,0:0:0:0:
192,192,109456,1,0,0:0:0:0:
448,192,109456,1,0,0:0:0:0:
64,192,109642,1,0,0:0:0:0:
192,192,109642,1,0,0:0:0:0:
320,192,109642,1,0,0:0:0:0:
320,192,109829,1,0,0:0:0:0:
448,192,109829,1,0,0:0:0:0:
64,192,109923,1,0,0:0:0:0:
192,192,109923,1,0,0:0:0:0:
192,192,110016,1,0,0:0:0:0:
320,192,110016,1,0,0:0:0:0:
448,192,110016,1,0,0:0:0:0:
64,192,110203,1,0,0:0:0:0:
192,192,110203,1,0,0:0:0:0:
320,192,110203,1,0,0:0:0:0:
192,192,110296,1,0,0:0:0:0:
320,192,110296,1,0,0:0:0:0:
448,192,110296,1,0,0:0:0:0:
64,192,110483,1,0,0:0:0:0:
192,192,110483,1,0,0:0:0:0:
320,192,110483,1,0,0:0:0:0:
192,192,110576,1,0,0:0:0:0:
320,192,110576,1,0,0:0:0:0:
448,192,110576,1,0,0:0:0:0:
64,192,110763,1,0,0:0:0:0:
192,192,110763,1,0,0:0:0:0:
320,192,110763,1,0,0:0:0:0:
448,192,110763,1,0,0:0:0:0:
