osu file format v14

[General]
AudioFilename: audio.mp3
AudioLeadIn: 0
PreviewTime: 169861
Countdown: 0
SampleSet: Soft
StackLeniency: 0.4
Mode: 0
LetterboxInBreaks: 0
WidescreenStoryboard: 0

[Editor]
Bookmarks: 13405,25557,84798,98469,155431
DistanceSpacing: 0.9
BeatDivisor: 4
GridSize: 4
TimelineZoom: 1

[Metadata]
Title:Otomodachi Film
TitleUnicode:オトモダチフィルム
Artist:Oishi Masayoshi
ArtistUnicode:オーイシマサヨシ
Creator:Flask
Version:Itsumo Kokoro wa Nijiiro ni
Source:多田くんは恋をしない
Tags:tada kun wa koi wo shinai tada-kun tadakun tadakoi anime pop japanese j-pop opening 多田 光良 mitsuyoshi テレサ・ワーグナー teresa wagner -lian- lian2002 お友達フィルム お友だちフィルム Friend Film jpop 多田光良 rainbow shougun
BeatmapID:4540672
BeatmapSetID:2154278

[Difficulty]
HPDrainRate:5
CircleSize:4.5
OverallDifficulty:8.2
ApproachRate:9
SliderMultiplier:1.8
SliderTickRate:1

[Events]
//Background and Video events
0,0,"tadakoi.jpg",0,0
//Break Periods
2,170820,175906
//Storyboard Layer 0 (Background)
//Storyboard Layer 1 (Fail)
//Storyboard Layer 2 (Pass)
//Storyboard Layer 3 (Foreground)
//Storyboard Layer 4 (Overlay)
//Storyboard Sound Samples

[TimingPoints]
1254,379.746835443038,4,2,1,70,1,0
3532,-100,4,2,2,70,0,0
3912,-83.3333333333333,4,2,2,70,0,0
4291,-83.3333333333333,4,2,3,70,0,0
5621,-125,4,2,3,70,0,0
7140,-66.6666666666667,4,2,3,90,0,0
7519,-83.3333333333333,4,2,4,90,0,0
7709,-83.3333333333333,4,2,2,90,0,0
7899,-83.3333333333333,4,2,4,90,0,0
8089,-83.3333333333333,4,2,1,90,0,0
8279,-83.3333333333333,4,2,4,90,0,0
8469,-83.3333333333333,4,2,2,90,0,0
8659,-83.3333333333333,4,2,4,90,0,0
8848,-83.3333333333333,4,2,1,90,0,0
9038,-83.3333333333333,4,2,4,90,0,0
9228,-83.3333333333333,4,2,2,90,0,0
9418,-83.3333333333333,4,2,4,90,0,0
9608,-83.3333333333333,4,2,3,90,0,0
10178,-71.4285714285714,4,2,3,90,0,0
10557,-83.3333333333333,4,2,4,90,0,0
10747,-83.3333333333333,4,2,2,90,0,0
10937,-83.3333333333333,4,2,4,90,0,0
11127,-83.3333333333333,4,2,1,90,0,0
11317,-83.3333333333333,4,2,4,90,0,0
11507,-83.3333333333333,4,2,2,90,0,0
12076,-83.3333333333333,4,2,3,90,0,0
12456,-71.4285714285714,4,2,3,90,0,0
12836,-83.3333333333333,4,2,2,90,0,0
13216,-83.3333333333333,4,2,3,90,0,0
13595,-111.111111111111,4,2,3,70,0,0
13785,-111.111111111111,4,2,2,70,0,0
14735,-111.111111111111,4,2,1,70,0,0
15304,-111.111111111111,4,2,2,70,0,0
16254,-111.111111111111,4,2,1,70,0,0
16823,-111.111111111111,4,2,2,70,0,0
17203,-111.111111111111,4,2,1,70,0,0
17583,-111.111111111111,4,2,2,70,0,0
17772,-83.3333333333333,4,2,2,85,0,0
18342,-83.3333333333333,4,2,3,85,0,0
18912,-83.3333333333333,4,2,2,85,0,0
19671,-83.3333333333333,4,2,4,85,0,0
19861,-83.3333333333333,4,2,2,85,0,0
20051,-83.3333333333333,4,2,4,85,0,0
20241,-83.3333333333333,4,2,1,85,0,0
20431,-83.3333333333333,4,2,4,85,0,0
20621,-83.3333333333333,4,2,2,85,0,0
21190,-83.3333333333333,4,2,4,85,0,0
21380,-83.3333333333333,4,2,2,85,0,0
21570,-83.3333333333333,4,2,4,85,0,0
21760,-83.3333333333333,4,2,1,85,0,0
21950,-83.3333333333333,4,2,4,85,0,0
22140,-83.3333333333333,4,2,2,85,0,0
22329,-83.3333333333333,4,2,5,85,0,0
22519,-83.3333333333333,4,2,1,85,0,0
22709,-83.3333333333333,4,2,4,85,0,0
22899,-83.3333333333333,4,2,2,85,0,0
23089,-83.3333333333333,4,2,4,85,0,0
23184,-83.3333333333333,4,2,3,85,0,0
23279,-83.3333333333333,4,2,1,85,0,0
23469,-83.3333333333333,4,2,4,85,0,0
23659,-83.3333333333333,4,2,2,85,0,0
23848,-83.3333333333333,4,2,5,85,0,0
24418,-83.3333333333333,4,2,2,85,0,0
24608,-83.3333333333333,4,2,5,85,0,0
24988,-83.3333333333333,4,2,2,85,0,0
25557,-111.111111111111,4,2,2,85,0,0
25747,-111.111111111111,4,2,2,70,0,0
26886,-111.111111111111,4,2,1,70,0,0
27456,-111.111111111111,4,2,2,70,0,0
28405,-111.111111111111,4,2,1,70,0,0
28975,-111.111111111111,4,2,2,70,0,0
29355,-111.111111111111,4,2,1,70,0,0
29735,-111.111111111111,4,2,2,70,0,0
29924,-83.3333333333333,4,2,2,70,0,0
30494,-83.3333333333333,4,2,3,70,0,0
31064,-83.3333333333333,4,2,2,70,0,0
31633,-83.3333333333333,4,2,2,85,0,0
31823,-83.3333333333333,4,2,4,85,0,0
32013,-83.3333333333333,4,2,2,85,0,0
32203,-83.3333333333333,4,2,4,85,0,0
32393,-83.3333333333333,4,2,1,85,0,0
32583,-83.3333333333333,4,2,4,85,0,0
32772,-83.3333333333333,4,2,2,85,0,0
33342,-83.3333333333333,4,2,4,85,0,0
33532,-83.3333333333333,4,2,2,85,0,0
33722,-83.3333333333333,4,2,4,85,0,0
33912,-83.3333333333333,4,2,2,85,0,0
34102,-83.3333333333333,4,2,4,85,0,0
34291,-83.3333333333333,4,2,2,85,0,0
34481,-83.3333333333333,4,2,5,85,0,0
34671,-83.3333333333333,4,2,1,85,0,0
34861,-83.3333333333333,4,2,4,85,0,0
35051,-83.3333333333333,4,2,2,85,0,0
35241,-83.3333333333333,4,2,6,85,0,0
35336,-83.3333333333333,4,2,2,85,0,0
36760,-83.3333333333333,4,2,1,85,0,0
37329,-83.3333333333333,4,2,3,85,0,0
37899,-83.3333333333333,4,2,1,85,0,0
38469,-83.3333333333333,4,2,2,85,0,0
38659,-71.4285714285714,4,2,2,85,0,0
39228,-125,4,2,2,80,0,0
43405,-125,4,2,1,80,0,0
44924,-125,4,2,3,80,0,0
46064,-125,4,2,2,80,0,0
47772,-125,4,2,1,80,0,0
48152,-111.111111111111,4,2,1,80,0,0
48722,-111.111111111111,4,2,2,80,0,0
48912,-86.9565217391304,4,2,2,85,0,0
49671,-76.9230769230769,4,2,2,90,0,0
50431,-76.9230769230769,4,2,2,95,0,0
51190,-66.6666666666667,4,2,2,100,0,0
52519,-66.6666666666667,4,2,1,100,0,0
52709,-66.6666666666667,4,2,3,100,0,0
54038,-66.6666666666667,4,2,2,100,0,0
54418,-76.9230769230769,4,2,2,100,0,1
54988,-76.9230769230769,4,2,4,100,0,1
55178,-76.9230769230769,4,2,1,100,0,1
55367,-76.9230769230769,4,2,5,100,0,1
55557,-76.9230769230769,4,2,2,100,0,1
55747,-76.9230769230769,4,2,1,100,0,1
56127,-76.9230769230769,4,2,4,100,0,1
56317,-76.9230769230769,4,2,2,100,0,1
56886,-76.9230769230769,4,2,4,100,0,1
57076,-76.9230769230769,4,2,2,100,0,1
57266,-76.9230769230769,4,2,5,100,0,1
57456,-76.9230769230769,4,2,1,100,0,1
57646,-76.9230769230769,4,2,5,100,0,1
57836,-76.9230769230769,4,2,2,100,0,1
58026,-76.9230769230769,4,2,5,100,0,1
58121,-76.9230769230769,4,2,1,100,0,1
58405,-76.9230769230769,4,2,4,100,0,1
58595,-76.9230769230769,4,2,2,100,0,1
59165,-76.9230769230769,4,2,4,100,0,1
59355,-76.9230769230769,4,2,2,100,0,1
59735,-76.9230769230769,4,2,1,100,0,1
59924,-76.9230769230769,4,2,4,100,0,1
60114,-76.9230769230769,4,2,2,100,0,1
60304,-76.9230769230769,4,2,4,100,0,1
60494,-333.333333333333,4,2,2,100,0,1
60779,-55.5555555555556,4,2,2,100,0,1
61254,-76.9230769230769,4,2,2,100,0,1
61443,-76.9230769230769,4,2,4,100,0,1
61633,-76.9230769230769,4,2,2,100,0,1
61823,-76.9230769230769,4,2,4,100,0,1
62013,-333.333333333333,4,2,2,100,0,1
62393,-55.5555555555556,4,2,2,100,0,1
62583,-55.5555555555556,4,2,1,100,0,1
62962,-76.9230769230769,4,2,5,100,0,1
63152,-76.9230769230769,4,2,2,100,0,1
63342,-76.9230769230769,4,2,5,100,0,1
63437,-76.9230769230769,4,2,5,100,0,1
63532,-133.333333333333,4,2,2,100,0,1
63912,-62.5,4,2,2,100,0,1
64291,-62.5,4,2,1,100,0,1
64671,-62.5,4,2,2,100,0,1
65051,-76.9230769230769,4,2,2,100,0,1
65621,-76.9230769230769,4,2,1,100,0,1
66000,-76.9230769230769,4,2,2,100,0,1
67140,-76.9230769230769,4,2,4,100,0,1
67329,-76.9230769230769,4,2,1,100,0,1
67519,-76.9230769230769,4,2,5,100,0,1
67709,-76.9230769230769,4,2,2,100,0,1
67899,-76.9230769230769,4,2,1,100,0,1
68279,-76.9230769230769,4,2,4,100,0,1
68469,-76.9230769230769,4,2,2,100,0,1
69038,-76.9230769230769,4,2,4,100,0,1
69228,-76.9230769230769,4,2,2,100,0,1
69418,-76.9230769230769,4,2,5,100,0,1
69608,-76.9230769230769,4,2,1,100,0,1
69798,-76.9230769230769,4,2,5,100,0,1
69988,-76.9230769230769,4,2,2,100,0,1
70178,-76.9230769230769,4,2,5,100,0,1
70272,-76.9230769230769,4,2,1,100,0,1
70557,-76.9230769230769,4,2,7,100,0,1
70747,-76.9230769230769,4,2,2,100,0,1
71317,-76.9230769230769,4,2,4,100,0,1
71507,-76.9230769230769,4,2,2,100,0,1
71886,-76.9230769230769,4,2,1,100,0,1
72076,-76.9230769230769,4,2,2,100,0,1
72456,-76.9230769230769,4,2,7,100,0,1
72646,-333.333333333333,4,2,2,100,0,1
73026,-55.5555555555556,4,2,2,100,0,1
73595,-55.5555555555556,4,2,4,100,0,1
73785,-76.9230769230769,4,2,2,100,0,1
73975,-76.9230769230769,4,2,4,100,0,1
74165,-333.333333333333,4,2,2,100,0,1
74545,-55.5555555555556,4,2,2,100,0,1
74735,-55.5555555555556,4,2,1,100,0,1
75114,-55.5555555555556,4,2,5,100,0,1
75304,-55.5555555555556,4,2,2,100,0,1
75494,-55.5555555555556,4,2,5,100,0,1
75684,-133.333333333333,4,2,2,100,0,1
76064,-62.5,4,2,2,100,0,1
76443,-62.5,4,2,1,100,0,1
76823,-62.5,4,2,2,100,0,1
77203,-76.9230769230769,4,2,2,100,0,1
77488,-76.9230769230769,4,2,1,100,0,1
77583,-76.9230769230769,4,2,2,100,0,1
78532,-71.4285714285714,4,2,2,90,0,0
78912,-83.3333333333333,4,2,4,90,0,0
79102,-83.3333333333333,4,2,2,90,0,0
79291,-83.3333333333333,4,2,4,90,0,0
79481,-83.3333333333333,4,2,1,90,0,0
79671,-83.3333333333333,4,2,4,90,0,0
79861,-83.3333333333333,4,2,2,90,0,0
80051,-83.3333333333333,4,2,4,90,0,0
80241,-83.3333333333333,4,2,1,90,0,0
80431,-83.3333333333333,4,2,4,90,0,0
80621,-83.3333333333333,4,2,2,90,0,0
80810,-83.3333333333333,4,2,4,90,0,0
81000,-83.3333333333333,4,2,3,90,0,0
81570,-71.4285714285714,4,2,3,90,0,0
81950,-83.3333333333333,4,2,4,90,0,0
82140,-83.3333333333333,4,2,2,90,0,0
82329,-83.3333333333333,4,2,4,90,0,0
82519,-83.3333333333333,4,2,1,90,0,0
82709,-83.3333333333333,4,2,4,90,0,0
82899,-83.3333333333333,4,2,2,90,0,0
83089,-66.6666666666667,4,2,2,90,0,0
83469,-66.6666666666667,4,2,3,90,0,0
84038,-66.6666666666667,4,2,1,90,0,0
84228,-66.6666666666667,4,2,2,90,0,0
84608,-66.6666666666667,4,2,3,90,0,0
84988,-111.111111111111,4,2,3,75,0,0
85557,-111.111111111111,4,2,2,75,0,0
86127,-111.111111111111,4,2,1,75,0,0
87076,-111.111111111111,4,2,2,75,0,0
87646,-111.111111111111,4,2,1,75,0,0
88216,-111.111111111111,4,2,2,75,0,0
88595,352.941176470588,4,2,1,75,1,0
88595,-111.111111111111,4,2,1,75,0,0
88859,-111.111111111111,4,2,2,75,0,0
89165,379.746835443038,4,2,1,70,1,0
89165,-83.3333333333333,4,2,2,75,0,0
89735,-83.3333333333333,4,2,3,75,0,0
90304,-83.3333333333333,4,2,2,75,0,0
90873,379.746835443038,4,2,1,70,1,0
90873,-83.3333333333333,4,2,2,85,0,0
91062,-83.3333333333333,4,2,4,85,0,0
91252,-83.3333333333333,4,2,2,85,0,0
91441,-83.3333333333333,4,2,4,85,0,0
91631,-83.3333333333333,4,2,1,85,0,0
91821,-83.3333333333333,4,2,4,85,0,0
92011,-83.3333333333333,4,2,2,85,0,0
92581,-83.3333333333333,4,2,4,85,0,0
92770,-83.3333333333333,4,2,2,85,0,0
92960,-83.3333333333333,4,2,4,85,0,0
93150,-83.3333333333333,4,2,2,85,0,0
93340,-83.3333333333333,4,2,4,85,0,0
93530,-83.3333333333333,4,2,2,85,0,0
93720,-83.3333333333333,4,2,5,85,0,0
93910,-83.3333333333333,4,2,1,85,0,0
94100,-83.3333333333333,4,2,4,85,0,0
94289,-83.3333333333333,4,2,2,85,0,0
94479,-83.3333333333333,4,2,6,85,0,0
94574,-83.3333333333333,4,2,2,85,0,0
96188,-83.3333333333333,4,2,1,85,0,0
96758,-83.3333333333333,4,2,2,85,0,0
97138,-83.3333333333333,4,2,1,85,0,0
97707,-83.3333333333333,4,2,2,85,0,0
97897,-71.4285714285714,4,2,2,85,0,0
98467,-125,4,2,2,80,0,0
102644,-125,4,2,1,80,0,0
104163,-125,4,2,2,80,0,0
106821,-111.111111111111,4,2,2,80,0,0
107011,-111.111111111111,4,2,1,80,0,0
107391,-95.2380952380952,4,2,1,80,0,0
107960,-95.2380952380952,4,2,2,80,0,0
108150,-86.9565217391304,4,2,2,85,0,0
108910,-76.9230769230769,4,2,2,90,0,0
109669,-76.9230769230769,4,2,2,95,0,0
110429,-66.6666666666667,4,2,2,100,0,0
111663,-66.6666666666667,4,2,1,100,0,0
111948,-66.6666666666667,4,2,3,100,0,0
113277,-66.6666666666667,4,2,2,100,0,0
113657,-76.9230769230769,4,2,2,100,0,1
114226,-76.9230769230769,4,2,4,100,0,1
114416,-76.9230769230769,4,2,1,100,0,1
114606,-76.9230769230769,4,2,5,100,0,1
114796,-76.9230769230769,4,2,2,100,0,1
114986,-76.9230769230769,4,2,1,100,0,1
115365,-76.9230769230769,4,2,4,100,0,1
115555,-76.9230769230769,4,2,2,100,0,1
116125,-76.9230769230769,4,2,4,100,0,1
116315,-76.9230769230769,4,2,2,100,0,1
116505,-76.9230769230769,4,2,5,100,0,1
116695,-76.9230769230769,4,2,1,100,0,1
116884,-76.9230769230769,4,2,5,100,0,1
117074,-76.9230769230769,4,2,2,100,0,1
117264,-76.9230769230769,4,2,5,100,0,1
117359,-76.9230769230769,4,2,1,100,0,1
117644,-76.9230769230769,4,2,4,100,0,1
117834,-76.9230769230769,4,2,2,100,0,1
118403,-76.9230769230769,4,2,4,100,0,1
118593,-76.9230769230769,4,2,2,100,0,1
119163,-76.9230769230769,4,2,4,100,0,1
119353,-76.9230769230769,4,2,2,100,0,1
119543,-76.9230769230769,4,2,4,100,0,1
119733,-333.333333333333,4,2,2,100,0,1
120112,-55.5555555555556,4,2,2,100,0,1
120682,-55.5555555555556,4,2,4,100,0,1
120872,-55.5555555555556,4,2,2,100,0,1
121062,-55.5555555555556,4,2,4,100,0,1
121252,-333.333333333333,4,2,2,100,0,1
121631,-55.5555555555556,4,2,2,100,0,1
121821,-55.5555555555556,4,2,1,100,0,1
122201,-55.5555555555556,4,2,5,100,0,1
122391,-55.5555555555556,4,2,2,100,0,1
122581,-55.5555555555556,4,2,5,100,0,1
122770,-133.333333333333,4,2,2,100,0,1
123150,-62.5,4,2,2,100,0,1
123530,-62.5,4,2,1,100,0,1
123910,-62.5,4,2,2,100,0,1
124859,-62.5,4,2,1,100,0,1
125239,-62.5,4,2,2,100,0,1
125808,-76.9230769230769,4,2,2,100,0,1
126378,-76.9230769230769,4,2,4,100,0,1
126568,-76.9230769230769,4,2,1,100,0,1
126758,-76.9230769230769,4,2,5,100,0,1
126948,-76.9230769230769,4,2,2,100,0,1
127138,-76.9230769230769,4,2,1,100,0,1
127517,-76.9230769230769,4,2,4,100,0,1
127707,-76.9230769230769,4,2,2,100,0,1
128277,-76.9230769230769,4,2,4,100,0,1
128467,-76.9230769230769,4,2,2,100,0,1
128657,-76.9230769230769,4,2,5,100,0,1
128846,-76.9230769230769,4,2,1,100,0,1
129036,-76.9230769230769,4,2,5,100,0,1
129226,-76.9230769230769,4,2,2,100,0,1
129416,-76.9230769230769,4,2,5,100,0,1
129511,-76.9230769230769,4,2,1,100,0,1
129796,-76.9230769230769,4,2,7,100,0,1
129986,-76.9230769230769,4,2,2,100,0,1
130555,-76.9230769230769,4,2,4,100,0,1
130745,-76.9230769230769,4,2,2,100,0,1
131125,-76.9230769230769,4,2,1,100,0,1
131315,-76.9230769230769,4,2,2,100,0,1
131695,-76.9230769230769,4,2,7,100,0,1
131884,-333.333333333333,4,2,2,100,0,1
132264,-55.5555555555556,4,2,2,100,0,1
132834,-55.5555555555556,4,2,4,100,0,1
133024,-55.5555555555556,4,2,2,100,0,1
133214,-55.5555555555556,4,2,4,100,0,1
133403,-333.333333333333,4,2,2,100,0,1
133783,-55.5555555555556,4,2,2,100,0,1
133973,-55.5555555555556,4,2,1,100,0,1
134353,-55.5555555555556,4,2,5,100,0,1
134543,-55.5555555555556,4,2,2,100,0,1
134733,-55.5555555555556,4,2,5,100,0,1
134922,-133.333333333333,4,2,2,100,0,1
135302,-55.5555555555556,4,2,2,100,0,1
135682,-55.5555555555556,4,2,1,100,0,1
136062,-55.5555555555556,4,2,2,100,0,1
136536,-55.5555555555556,4,2,1,100,0,1
136821,-55.5555555555556,4,2,2,100,0,1
137771,-55.5555555555556,4,2,2,100,0,0
138150,-55.5555555555556,4,2,5,100,0,0
138340,-71.4285714285714,4,2,2,100,0,0
138530,-71.4285714285714,4,2,5,100,0,0
138720,-71.4285714285714,4,2,1,100,0,0
138910,-71.4285714285714,4,2,5,100,0,0
139100,-71.4285714285714,4,2,2,100,0,0
139289,-55.5555555555556,4,2,1,100,0,0
139669,-71.4285714285714,4,2,5,100,0,0
139859,-71.4285714285714,4,2,2,100,0,0
140049,-71.4285714285714,4,2,5,100,0,0
140239,-71.4285714285714,4,2,1,100,0,0
140429,-71.4285714285714,4,2,4,100,0,0
140619,-71.4285714285714,4,2,3,100,0,0
140714,-71.4285714285714,4,2,1,100,0,0
140808,-55.5555555555556,4,2,1,100,0,0
141188,-55.5555555555556,4,2,5,100,0,0
141378,-71.4285714285714,4,2,2,100,0,0
141568,-71.4285714285714,4,2,5,100,0,0
141758,-71.4285714285714,4,2,1,100,0,0
141948,-71.4285714285714,4,2,5,100,0,0
142138,-71.4285714285714,4,2,2,100,0,0
142327,-55.5555555555556,4,2,2,100,0,0
143277,-55.5555555555556,4,2,1,100,0,0
143467,-55.5555555555556,4,2,2,100,0,0
144226,-71.4285714285714,4,2,5,100,0,0
144416,-71.4285714285714,4,2,2,100,0,0
144606,-71.4285714285714,4,2,5,100,0,0
144796,-71.4285714285714,4,2,1,100,0,0
144986,-71.4285714285714,4,2,5,100,0,0
145176,-71.4285714285714,4,2,2,100,0,0
145365,-55.5555555555556,4,2,3,100,0,0
145745,-71.4285714285714,4,2,5,100,0,0
145935,-71.4285714285714,4,2,2,100,0,0
146125,-71.4285714285714,4,2,1,100,0,0
146505,-71.4285714285714,4,2,4,100,0,0
146884,-55.5555555555556,4,2,1,100,0,0
147264,-133.333333333333,4,2,1,100,0,0
147454,-133.333333333333,4,2,2,100,0,0
147644,-52.6315789473684,4,2,1,100,0,0
148024,-117.647058823529,4,2,1,100,0,0
148214,-117.647058823529,4,2,2,100,0,0
148403,-50,4,2,3,100,0,0
148783,-100,4,2,3,100,0,0
149163,-66.6666666666667,4,2,1,100,0,0
149543,-66.6666666666667,4,2,2,100,0,0
149922,-66.6666666666667,4,2,2,65,0,0
150112,-76.9230769230769,4,2,2,65,0,0
150492,-76.9230769230769,4,2,5,65,0,0
150872,-76.9230769230769,4,2,1,65,0,0
151252,-76.9230769230769,4,2,5,65,0,0
151441,-76.9230769230769,4,2,1,65,0,0
152011,-76.9230769230769,4,2,5,65,0,0
152391,-76.9230769230769,4,2,1,65,0,0
152770,-76.9230769230769,4,2,5,65,0,0
152960,-76.9230769230769,4,2,1,65,0,0
153530,-181.818181818181,4,2,5,65,0,0
153720,-181.818181818181,4,2,3,65,0,0
154100,-181.818181818181,4,2,1,65,0,0
154289,-181.818181818181,4,2,2,65,0,0
154479,-66.6666666666667,4,2,1,80,0,0
154859,-66.6666666666667,4,2,2,80,0,0
155239,-66.6666666666667,4,2,1,80,0,0
155431,379.746835443038,4,2,1,80,1,0
155620,-133.333333333333,4,2,1,80,0,0
156190,-133.333333333333,4,2,2,80,0,0
158468,-133.333333333333,4,2,1,80,0,0
159228,-133.333333333333,4,2,2,80,0,0
159798,-90.9090909090909,4,2,2,80,0,0
160177,-90.9090909090909,4,2,1,80,0,0
160557,-133.333333333333,4,2,1,80,0,0
160937,-133.333333333333,4,2,2,80,0,0
161506,-133.333333333333,4,2,2,85,0,0
162836,-100,4,2,2,85,0,0
163215,-133.333333333333,4,2,2,85,0,0
163975,-133.333333333333,4,2,1,85,0,0
164355,-100,4,2,2,85,0,0
164734,-100,4,2,1,85,0,0
165874,-80,4,2,1,85,0,0
166823,-133.333333333333,4,2,2,85,0,0
167013,-100,4,2,2,85,0,0
167203,-80,4,2,2,85,0,0
167393,-66.6666666666667,4,2,2,90,0,0
168152,-66.6666666666667,4,2,1,90,0,0
168342,-100,4,2,1,90,0,0
168532,-83.3333333333333,4,2,1,90,0,0
168722,-71.4285714285714,4,2,1,90,0,0
169861,-71.4285714285714,4,2,2,90,0,0
170620,-71.4285714285714,4,2,2,60,0,0
176696,-125,4,2,2,70,0,0
177076,-125,4,2,8,70,0,0
177456,-125,4,2,1,70,0,0
177836,-125,4,2,8,70,0,0
178025,-125,4,2,1,70,0,0
178595,-125,4,2,8,70,0,0
178975,-125,4,2,1,70,0,0
179355,-125,4,2,8,70,0,0
179734,-125,4,2,1,80,0,0
180114,-125,4,2,8,80,0,0
180494,-125,4,2,1,80,0,0
180874,-125,4,2,2,80,0,0
181253,-125,4,2,2,90,0,0
181633,-66.6666666666667,4,2,2,90,0,0
182772,-333.333333333333,4,2,2,90,0,1
182867,-333.333333333333,4,2,2,90,0,0
183152,-55.5555555555556,4,2,2,100,0,1
183342,-55.5555555555556,4,2,4,100,0,1
183532,-76.9230769230769,4,2,1,100,0,1
183722,-76.9230769230769,4,2,5,100,0,1
183912,-76.9230769230769,4,2,2,100,0,1
184101,-76.9230769230769,4,2,1,100,0,1
184481,-76.9230769230769,4,2,4,100,0,1
184671,-76.9230769230769,4,2,2,100,0,1
185241,-76.9230769230769,4,2,4,100,0,1
185431,-76.9230769230769,4,2,2,100,0,1
185620,-76.9230769230769,4,2,5,100,0,1
185810,-76.9230769230769,4,2,1,100,0,1
186000,-76.9230769230769,4,2,5,100,0,1
186190,-76.9230769230769,4,2,2,100,0,1
186380,-76.9230769230769,4,2,5,100,0,1
186475,-76.9230769230769,4,2,1,100,0,1
186760,-76.9230769230769,4,2,7,100,0,1
186949,-76.9230769230769,4,2,2,100,0,1
187519,-76.9230769230769,4,2,4,100,0,1
187709,-76.9230769230769,4,2,2,100,0,1
188089,-76.9230769230769,4,2,1,100,0,1
188279,-76.9230769230769,4,2,2,100,0,1
188658,-76.9230769230769,4,2,7,100,0,1
188753,-333.333333333333,4,2,2,100,0,1
189228,-55.5555555555556,4,2,2,100,0,1
189798,-55.5555555555556,4,2,4,100,0,1
189987,-55.5555555555556,4,2,2,100,0,1
190177,-55.5555555555556,4,2,4,100,0,1
190367,-333.333333333333,4,2,2,100,0,1
190747,-55.5555555555556,4,2,2,100,0,1
190937,-55.5555555555556,4,2,1,100,0,1
191317,-55.5555555555556,4,2,5,100,0,1
191506,-55.5555555555556,4,2,2,100,0,1
191696,-55.5555555555556,4,2,5,100,0,1
191886,-133.333333333333,4,2,2,100,0,1
192266,-55.5555555555556,4,2,2,100,0,1
192646,-55.5555555555556,4,2,1,100,0,1
193025,-55.5555555555556,4,2,2,100,0,1
193690,-55.5555555555556,4,2,1,100,0,1
193785,-55.5555555555556,4,2,2,100,0,1
194734,-100,4,2,2,85,0,0
195304,-100,4,2,1,85,0,0
197013,-100,4,2,2,85,0,0
199481,-100,4,2,1,85,0,0
200051,-100,4,2,3,85,0,0
200810,-71.4285714285714,4,2,3,90,0,0
201190,-83.3333333333333,4,2,4,90,0,0
201380,-83.3333333333333,4,2,2,90,0,0
201570,-83.3333333333333,4,2,4,90,0,0
201760,-83.3333333333333,4,2,1,90,0,0
201949,-83.3333333333333,4,2,4,90,0,0
202139,-83.3333333333333,4,2,2,90,0,0
202329,-83.3333333333333,4,2,4,90,0,0
202519,-83.3333333333333,4,2,1,90,0,0
202709,-83.3333333333333,4,2,4,90,0,0
202899,-83.3333333333333,4,2,2,90,0,0
203089,-83.3333333333333,4,2,4,90,0,0
203279,-83.3333333333333,4,2,2,90,0,0
205367,-83.3333333333333,4,2,3,90,0,0
205747,-83.3333333333333,4,2,2,5,0,0
205794,-83.3333333333333,4,2,3,60,0,0
205937,-83.3333333333333,4,2,3,30,0,0

[Colours]
Combo1 : 45,187,255
Combo2 : 173,255,91
Combo3 : 255,255,89
Combo4 : 255,149,149
Combo5 : 255,179,102

[HitObjects]
45,184,1254,5,2,3:2:0:0:
98,258,1823,1,2,2:2:0:0:
98,258,2013,1,10,3:2:0:0:
171,126,2203,1,2,2:2:0:0:
242,294,2583,5,10,3:2:0:0:
323,98,2962,1,2,2:2:0:0:
377,297,3342,5,2,2:2:0:0:
464,77,3532,1,10,3:2:0:0:
464,77,3912,2,0,B|423:66|394:101|394:101|363:137|306:119,1,161.999995056153,10|0,3:2|0:0,0:0:0:0:
249,79,4291,5,10,3:2:0:0:
139,223,4671,1,2,2:2:0:0:
139,223,5051,5,10,3:2:0:0:
37,43,5241,1,10,3:2:0:0:
37,43,5621,6,0,B|21:79|37:128|53:123|91:130|102:183|71:233|18:233|-28:192|3:129,1,288,10|0,3:2|0:0,0:0:0:0:
112,65,6570,5,0,3:3:0:0:
241,211,6760,1,8,2:2:0:0:
241,211,6855,1,8,2:2:0:0:
241,211,6950,1,8,2:2:0:0:
487,100,7140,6,0,B|439:119|398:76|398:76|357:24|295:49,1,202.500007724762,4|0,3:2|0:0,0:0:0:0:
294,39,7519,2,0,P|285:86|269:148,1,107.999996704102,2|8,3:3|3:2,0:0:0:0:
97,339,7899,2,0,P|82:284|63:236,1,107.999996704102,2|0,3:3|3:3,0:0:0:0:
171,78,8279,1,2,3:3:0:0:
94,135,8469,1,8,3:2:0:0:
377,213,8659,6,0,P|385:140|272:54,1,215.999993408203,2|2,3:3|3:3,0:0:0:0:
377,213,9228,1,10,3:2:0:0:
161,298,9418,2,0,P|217:304|278:330,1,107.999996704102,2|0,3:3|3:3,0:0:0:0:
175,28,9798,2,0,P|149:38|115:46,1,53.9999983520508,10|0,3:2|0:0,0:0:0:0:
28,14,9988,2,0,P|18:39|12:66,1,53.9999983520508,10|0,3:2|0:0,0:0:0:0:
63,174,10178,6,0,P|127:157|219:246,1,188.999994232178,4|0,3:2|0:0,0:0:0:0:
212,244,10557,2,0,P|263:228|317:214,1,107.999996704102,2|8,3:3|3:2,0:0:0:0:
493,376,10937,2,0,P|481:324|472:266,1,107.999996704102,2|0,3:3|3:3,0:0:0:0:
380,61,11317,1,2,3:3:0:0:
467,95,11507,1,8,3:2:0:0:
321,301,11697,6,0,B|290:309|290:309|224:277|235:194,1,161.999995056153,6|0,3:2|0:0,0:0:0:0:
233,194,12076,1,10,3:2:0:0:
402,125,12266,1,10,3:2:0:0:
25,74,12456,6,0,P|113:95|100:186,1,188.999994232178,6|0,3:2|0:0,0:0:0:0:
46,225,12836,1,10,2:2:0:0:
28,273,12931,1,8,2:2:0:0:
58,310,13026,2,0,P|71:345|77:368,1,53.9999983520508,10|0,2:2|0:0,0:0:0:0:
264,368,13216,1,8,2:2:0:0:
312,345,13310,1,8,2:2:0:0:
313,290,13405,1,6,3:2:0:0:
226,289,13595,6,0,P|215:216|199:112,1,161.999995056153,2|2,2:2|2:2,0:0:0:0:
261,65,14165,2,0,P|311:61|370:149,1,161.999995056153,2|10,2:2|2:2,0:0:0:0:
440,278,14735,2,0,P|479:272|504:222,1,80.9999975280763,10|0,3:2|0:0,0:0:0:0:
502,240,15114,1,2,2:2:0:0:
437,365,15304,2,0,L|254:337,1,161.999995056153,10|2,2:2|2:2,0:0:0:0:
203,370,15874,1,0,0:0:0:0:
145,316,16064,1,10,2:2:0:0:
282,257,16254,1,10,3:2:0:0:
90,38,16633,5,2,2:2:0:0:
133,102,16823,2,0,P|138:58|242:19,1,161.999995056153,10|10,2:2|3:2,0:0:0:0:
365,51,17393,1,0,3:3:0:0:
213,92,17583,1,10,2:2:0:0:
441,0,17772,6,0,B|403:148|403:148|416:186|386:217,1,215.999993408203,6|2,3:2|2:2,0:0:0:0:
329,24,18342,1,10,3:2:0:0:
487,157,18532,1,2,2:2:0:0:
310,289,18722,1,10,3:2:0:0:
414,337,18912,5,8,2:2:0:0:
438,308,19007,1,8,2:2:0:0:
429,266,19102,1,10,2:2:0:0:
402,231,19197,1,8,2:2:0:0:
363,205,19291,1,0,3:3:0:0:
355,161,19386,1,0,3:0:0:0:
376,123,19481,6,0,P|386:66|400:8,1,107.999996704102,6|2,3:2|3:3,0:0:0:0:
265,205,19861,1,10,3:2:0:0:
44,111,20051,2,0,B|83:91|83:91|159:97|162:191,1,161.999995056153,2|0,3:3|0:0,0:0:0:0:
159,167,20431,1,2,3:3:0:0:
339,101,20621,1,10,3:2:0:0:
227,363,20810,6,0,B|219:266|305:302|271:158,1,215.999993408203,6|2,3:2|3:3,0:0:0:0:
502,63,21380,1,10,3:2:0:0:
359,168,21570,1,2,3:3:0:0:
431,250,21760,1,0,3:3:0:0:
431,250,21855,1,0,3:0:0:0:
431,250,21950,1,10,2:2:0:0:
324,48,22140,6,0,P|263:40|194:162,1,215.999993408203,10|6,2:2|3:2,0:0:0:0:
119,194,22709,1,2,3:3:0:0:
283,357,22899,2,0,P|225:342|164:332,1,107.999996704102,10|2,3:2|3:3,0:0:0:0:
178,333,23184,1,0,3:0:0:0:
178,333,23279,1,0,3:3:0:0:
331,213,23469,5,2,3:3:0:0:
390,286,23659,1,10,3:2:0:0:
463,46,23848,1,10,2:2:0:0:
463,46,24228,5,10,2:2:0:0:
322,195,24418,1,10,2:2:0:0:
223,24,24608,1,10,2:2:0:0:
223,24,24988,5,8,2:2:0:0:
452,194,25178,1,8,3:2:0:0:
46,357,25557,5,4,3:2:0:0:
17,272,25747,1,2,2:2:0:0:
17,272,25937,2,0,P|12:228|3:176,1,80.9999975280763,10|2,2:2|2:2,0:0:0:0:
141,352,26317,2,0,P|229:328|320:309,1,161.999995056153,2|10,2:2|2:2,0:0:0:0:
497,221,26886,6,0,P|475:168|365:141,1,161.999995056153,10|2,3:2|2:2,0:0:0:0:
403,366,27456,2,0,P|414:326|431:274,1,80.9999975280763,10|0,2:2|0:0,0:0:0:0:
281,217,27836,2,0,P|270:174|254:132,1,80.9999975280763,2|0,2:2|0:0,0:0:0:0:
350,270,28216,1,10,2:2:0:0:
474,68,28405,1,10,3:2:0:0:
130,19,28785,5,2,2:2:0:0:
184,80,28975,2,0,P|174:132|167:179,1,80.9999975280763,10|2,2:2|2:2,0:0:0:0:
215,355,29355,1,10,3:2:0:0:
142,273,29545,1,0,3:3:0:0:
34,373,29735,1,10,2:2:0:0:
19,153,29924,6,0,P|87:158|157:43,1,215.999993408203,6|2,3:2|3:2,0:0:0:0:
249,97,30494,1,10,3:2:0:0:
73,18,30684,1,2,2:2:0:0:
202,196,30874,1,10,3:2:0:0:
354,45,31064,1,8,2:2:0:0:
404,32,31159,1,8,2:2:0:0:
449,43,31254,1,10,2:2:0:0:
472,72,31348,1,8,2:2:0:0:
477,107,31443,1,8,2:2:0:0:
471,136,31538,1,8,2:2:0:0:
462,150,31633,6,0,P|477:210|486:259,1,107.999996704102,6|2,3:2|3:3,0:0:0:0:
345,143,32013,1,10,3:2:0:0:
201,362,32203,2,0,P|252:366|321:281,1,161.999995056153,2|0,3:3|0:0,0:0:0:0:
319,277,32583,1,2,3:3:0:0:
126,144,32772,1,10,3:2:0:0:
257,20,32962,6,0,P|238:138|222:251,1,215.999993408203,6|2,3:2|3:3,0:0:0:0:
157,48,33532,1,10,3:2:0:0:
323,158,33722,1,2,3:3:0:0:
406,88,33912,1,0,3:3:0:0:
406,88,34007,1,8,2:2:0:0:
406,88,34102,1,10,2:2:0:0:
493,290,34291,2,0,B|442:269|442:269|357:275|321:401,1,215.999993408203,10|6,2:2|3:2,0:0:0:0:
329,208,34861,5,2,3:3:0:0:
438,355,35051,1,10,3:2:0:0:
209,365,35241,1,10,2:2:0:0:
209,365,35336,1,0,3:3:0:0:
209,365,35431,2,0,P|222:319|237:249,1,107.999996704102,8|0,2:2|0:0,0:0:0:0:
234,260,35716,1,0,3:3:0:0:
234,260,35810,1,10,3:2:0:0:
168,27,36000,6,0,P|97:23|23:141,1,215.999993408203,6|10,3:2|3:2,0:0:0:0:
64,224,36570,1,10,3:2:0:0:
155,141,36760,1,10,3:2:0:0:
262,266,36950,1,10,3:2:0:0:
356,90,37140,1,10,3:2:0:0:
467,321,37329,1,10,3:2:0:0:
456,41,37519,6,0,B|434:34|416:6|416:6|374:12|374:12|338:77|262:63,1,215.999993408203,6|10,3:2|3:2,0:0:0:0:
269,65,38089,1,10,3:2:0:0:
419,216,38279,1,2,3:2:0:0:
419,216,38374,1,2,2:2:0:0:
419,216,38469,1,10,3:2:0:0:
136,373,38659,6,0,B|116:325|161:265|190:282|235:250|215:150,1,251.999992309571,6|0,3:2|0:0,0:0:0:0:
116,9,39228,6,0,P|72:4|47:100,1,144,6|2,3:2|2:2,0:0:0:0:
35,82,39798,1,0,3:3:0:0:
0,221,39988,2,0,P|44:226|69:130,1,144,8|2,2:2|2:2,0:0:0:0:
216,44,40557,5,0,3:3:0:0:
216,44,40652,1,0,3:3:0:0:
216,44,40747,1,2,3:2:0:0:
305,129,40937,1,8,2:2:0:0:
216,44,41127,2,0,P|175:33|124:11,1,72,2|0,3:2|0:0,0:0:0:0:
418,111,41507,2,0,P|383:191|359:275,1,144,10|0,2:2|3:3,0:0:0:0:
366,245,42076,1,2,2:2:0:0:
291,347,42266,5,2,3:2:0:0:
238,297,42456,1,2,2:2:0:0:
241,224,42646,1,2,2:2:0:0:
290,170,42836,1,0,3:3:0:0:
359,151,43026,2,0,P|278:146|240:78,1,144,8|8,2:2|2:2,0:0:0:0:
243,99,43595,1,0,3:3:0:0:
44,230,43785,5,2,3:2:0:0:
60,109,44165,1,2,3:2:0:0:
79,6,44545,1,2,3:2:0:0:
152,328,44924,5,8,3:2:0:0:
152,328,45304,6,0,B|178:291|218:303|218:303|251:334|302:307,1,144,6|2,3:2|3:2,0:0:0:0:
280,315,45874,1,0,0:0:0:0:
347,372,46064,2,0,P|397:367|417:269,1,144,10|2,3:2|3:2,0:0:0:0:
481,227,46633,1,0,0:0:0:0:
509,85,46823,6,0,P|459:90|439:188,1,144,2|2,3:2|3:2,0:0:0:0:
428,169,47393,1,0,0:0:0:0:
356,229,47583,1,10,3:2:0:0:
349,81,47772,1,8,2:2:0:0:
509,163,47962,1,8,2:2:0:0:
336,321,48152,6,0,P|271:320|219:233,1,161.999995056153,6|2,3:2|3:2,0:0:0:0:
336,321,48722,1,10,3:2:0:0:
236,116,48912,6,0,P|180:106|109:226,1,207.000003948212,6|2,3:2|3:2,0:0:0:0:
236,116,49481,1,10,3:2:0:0:
25,347,49671,6,0,L|-2:98,1,233.999989288331,6|2,3:2|3:2,0:0:0:0:
25,347,50241,1,10,3:2:0:0:
302,166,50431,6,0,B|411:161|364:215|491:208,1,175.499991966248,6|0,3:2|0:0,0:0:0:0:
468,208,50810,1,10,3:2:0:0:
325,32,51000,1,10,3:2:0:0:
202,368,51190,6,0,B|189:276|189:276|161:261|161:261|143:114,1,270.000010299683,6|2,3:2|3:2,0:0:0:0:
212,41,51760,1,10,3:2:0:0:
48,215,51950,1,0,3:3:0:0:
403,242,52140,1,10,3:2:0:0:
176,177,52329,1,0,3:3:0:0:
368,370,52519,1,10,3:2:0:0:
472,45,52709,5,10,3:2:0:0:
41,181,53089,1,10,3:2:0:0:
351,352,53469,1,10,3:2:0:0:
351,352,53659,2,0,P|315:347|283:344,1,67.5000025749208,10|0,2:2|0:0,0:0:0:0:
89,355,53848,1,0,3:3:0:0:
78,354,53943,1,0,3:3:0:0:
62,350,54038,5,10,2:2:0:0:
15,324,54133,1,8,2:2:0:0:
9,270,54228,1,8,2:2:0:0:
39,225,54323,1,8,2:2:0:0:
91,213,54418,6,0,P|202:237|339:265,1,233.999989288331,6|8,3:2|3:2,0:0:0:0:
91,213,54988,1,2,3:3:0:0:
305,160,55178,2,0,P|304:117|254:66,1,116.999994644165,2|2,3:2|3:3,0:0:0:0:
115,357,55557,2,0,P|159:366|220:318,1,116.999994644165,8|2,3:2|3:3,0:0:0:0:
215,327,55842,1,0,3:3:0:0:
215,327,55937,1,0,3:3:0:0:
451,192,56127,5,2,3:3:0:0:
310,303,56317,1,10,3:2:0:0:
499,374,56507,1,2,3:3:0:0:
339,113,56697,5,2,3:2:0:0:
414,307,56886,1,2,3:3:0:0:
343,95,57076,1,10,3:2:0:0:
187,239,57266,1,2,3:3:0:0:
0,8,57456,6,0,P|66:6|122:97,1,175.499991966248,2|0,3:2|0:0,0:0:0:0:
140,179,57836,2,0,P|82:184|21:201,1,116.999994644165,10|2,3:2|3:3,0:0:0:0:
217,10,58216,1,2,3:2:0:0:
46,109,58405,1,2,3:3:0:0:
267,182,58595,1,8,3:2:0:0:
181,371,58785,6,0,L|146:131,1,233.999989288331,6|2,3:2|3:3,0:0:0:0:
185,376,59355,1,8,3:2:0:0:
482,369,59545,5,2,3:3:0:0:
482,369,59735,1,10,2:2:0:0:
484,264,59924,1,2,3:3:0:0:
390,143,60114,1,10,3:2:0:0:
226,104,60304,1,2,3:3:0:0:
72,254,60494,6,0,L|62:294,1,40.4999987640381,2|0,3:2|0:0,0:0:0:0:
62,302,60874,6,0,P|138:288|114:137,1,242.999992584229,14|0,3:2|0:3,0:0:0:0:
65,115,61254,5,2,3:2:0:0:
71,218,61443,1,2,3:3:0:0:
193,311,61633,1,10,3:2:0:0:
363,278,61823,1,2,3:3:0:0:
465,101,62013,6,0,L|453:60,1,40.4999987640381,2|0,3:2|0:0,0:0:0:0:
452,51,62393,6,0,P|406:134|441:193,1,161.999995056153,14|2,3:2|3:3,0:0:0:0:
493,237,62678,1,0,3:3:0:0:
493,237,62772,1,0,3:3:0:0:
322,97,62962,2,0,P|266:111|201:126,1,116.999994644165,2|10,3:3|3:2,0:0:0:0:
60,317,63342,5,2,3:3:0:0:
60,317,63437,1,0,0:0:0:0:
60,317,63532,2,0,L|87:213,1,101.250003862381,2|0,3:2|0:0,0:0:0:0:
88,209,63912,6,0,P|45:202|31:99,1,144,12|10,3:2|2:2,0:0:0:0:
68,62,64197,1,0,3:3:0:0:
113,71,64291,1,10,2:2:0:0:
236,217,64481,5,10,3:2:0:0:
148,148,64671,1,10,2:2:0:0:
298,32,64861,1,8,3:2:0:0:
495,224,65051,5,6,3:2:0:0:
279,129,65241,1,0,3:0:0:0:
279,129,65336,1,8,2:2:0:0:
279,129,65431,1,10,3:2:0:0:
256,376,65621,1,10,3:2:0:0:
8,140,66000,1,10,3:2:0:0:
6,59,66190,1,0,3:3:0:0:
56,63,66285,1,8,3:2:0:0:
92,97,66380,1,10,3:2:0:0:
96,147,66475,1,0,3:0:0:0:
70,195,66570,6,0,P|80:290|88:388,1,175.499991966248,6|0,3:2|0:0,0:0:0:0:
86,369,66950,1,8,3:2:0:0:
222,187,67140,1,2,3:3:0:0:
86,369,67329,2,0,P|33:369|8:316,1,116.999994644165,2|2,3:2|3:3,0:0:0:0:
324,193,67709,2,0,P|308:249|297:307,1,116.999994644165,8|2,3:2|3:3,0:0:0:0:
297,306,67994,1,0,3:3:0:0:
297,306,68089,1,0,3:3:0:0:
265,67,68279,5,2,3:3:0:0:
414,160,68469,1,10,3:2:0:0:
193,190,68659,1,2,3:3:0:0:
390,49,68848,5,2,3:2:0:0:
310,267,69038,1,2,3:3:0:0:
126,91,69228,2,0,P|74:108|7:127,1,116.999994644165,10|2,3:2|3:3,0:0:0:0:
32,355,69608,5,6,3:2:0:0:
110,240,69798,1,2,3:3:0:0:
235,372,69988,1,10,3:2:0:0:
334,151,70178,1,2,3:3:0:0:
334,151,70272,1,2,2:2:0:0:
334,151,70367,1,2,3:2:0:0:
493,357,70557,1,10,2:2:0:0:
346,257,70747,1,10,3:2:0:0:
443,31,70937,6,0,L|470:290,1,233.999989288331,6|2,3:2|3:3,0:0:0:0:
348,19,71507,1,8,3:2:0:0:
200,124,71697,1,2,3:3:0:0:
200,124,71791,1,0,3:3:0:0:
200,124,71886,1,10,2:2:0:0:
289,275,72076,1,2,3:3:0:0:
329,285,72171,1,8,2:2:0:0:
370,273,72266,1,10,2:2:0:0:
393,237,72361,1,0,3:3:0:0:
393,194,72456,1,10,2:2:0:0:
193,34,72646,6,0,L|145:44,1,40.4999987640381,2|0,3:2|0:0,0:0:0:0:
74,61,73026,6,0,P|125:59|119:160,1,161.999995056153,14|2,3:2|3:3,0:0:0:0:
136,149,73310,1,0,3:3:0:0:
136,149,73405,1,2,3:2:0:0:
325,216,73595,1,2,3:3:0:0:
464,88,73785,1,10,3:2:0:0:
464,43,73880,1,2,2:2:0:0:
428,24,73975,1,2,3:3:0:0:
390,332,74165,6,0,L|431:325,1,40.4999987640381,2|0,3:2|0:0,0:0:0:0:
498,357,74545,6,0,P|440:318|453:235,1,161.999995056153,14|2,3:2|3:3,0:0:0:0:
510,185,74829,1,0,3:3:0:0:
510,185,74924,1,0,3:3:0:0:
331,251,75114,1,2,3:3:0:0:
206,142,75304,1,10,3:2:0:0:
164,105,75399,1,2,2:2:0:0:
176,52,75494,1,2,3:3:0:0:
214,293,75684,6,0,B|209:319|218:342|218:342|211:318|187:300,1,101.250003862381,2|0,3:2|0:0,0:0:0:0:
291,309,76064,6,0,B|160:352|160:352|118:381|69:354,1,216,12|0,3:2|3:3,0:0:0:0:
112,292,76443,1,10,2:2:0:0:
350,365,76633,1,10,3:2:0:0:
26,121,76823,6,0,B|157:164|157:164|199:193|248:166,1,216,14|0,2:2|0:0,0:0:0:0:
192,31,77203,2,0,P|151:43|123:115,1,116.999994644165,2|0,3:2|0:0,0:0:0:0:
204,107,77488,1,8,2:2:0:0:
204,107,77583,1,10,3:2:0:0:
476,26,77772,1,10,3:2:0:0:
413,374,78152,1,10,3:2:0:0:
496,332,78342,5,2,2:2:0:0:
496,332,78437,1,2,2:2:0:0:
496,332,78532,2,0,P|429:337|378:227,1,188.999994232178,4|0,3:2|0:0,0:0:0:0:
405,171,78912,2,0,P|464:164|521:151,1,107.999996704102,2|8,3:3|3:2,0:0:0:0:
223,63,79291,2,0,P|172:33|146:-10,1,107.999996704102,2|0,3:3|3:3,0:0:0:0:
13,234,79671,1,2,3:3:0:0:
86,175,79861,1,8,3:2:0:0:
240,369,80051,6,0,B|280:336|270:266|270:266|288:276|288:276|293:322|331:356,1,215.999993408203,2|2,3:3|3:3,0:0:0:0:
192,296,80621,1,10,3:2:0:0:
486,370,80810,6,0,B|498:332|459:303|459:303|449:302|449:302|415:273|429:228,1,161.999995056153,2|0,3:3|0:0,0:0:0:0:
512,146,81190,2,0,P|501:167|474:179,1,53.9999983520508,10|0,3:2|0:0,0:0:0:0:
351,212,81380,2,0,P|327:212|303:195,1,53.9999983520508,10|0,3:2|0:0,0:0:0:0:
476,45,81570,6,0,P|389:71|290:93,1,188.999994232178,4|0,3:2|0:0,0:0:0:0:
239,39,81950,2,0,P|192:40|174:94,1,107.999996704102,2|8,3:3|3:2,0:0:0:0:
94,306,82329,2,0,P|52:311|17:258,1,107.999996704102,2|0,3:3|3:3,0:0:0:0:
209,363,82709,1,2,3:3:0:0:
256,285,82899,1,8,3:2:0:0:
19,31,83089,6,0,B|36:54|65:64|65:64|88:223,1,202.500007724762,6|0,3:2|0:0,0:0:0:0:
85,207,83469,1,10,3:2:0:0:
233,283,83659,5,10,3:2:0:0:
290,206,83848,1,6,3:2:0:0:
493,82,84038,5,8,2:2:0:0:
446,0,84228,1,10,2:2:0:0:
355,32,84418,1,10,2:2:0:0:
495,259,84608,5,10,2:2:0:0:
495,259,84703,1,8,2:2:0:0:
495,259,84798,1,6,3:2:0:0:
491,359,84988,6,0,P|456:337|415:319,1,80.9999975280763,2|0,2:2|0:0,0:0:0:0:
419,320,85367,1,2,2:2:0:0:
252,361,85557,2,0,P|302:362|331:267,1,161.999995056153,10|10,2:2|2:2,0:0:0:0:
221,188,86127,2,0,P|218:113|210:14,1,161.999995056153,10|2,3:2|2:2,0:0:0:0:
211,26,86697,2,0,P|238:59|286:55,1,80.9999975280763,2|0,2:2|0:0,0:0:0:0:
61,122,87076,5,10,2:2:0:0:
59,33,87266,1,0,0:0:0:0:
136,78,87456,1,10,2:2:0:0:
87,266,87646,1,10,3:2:0:0:
87,266,88026,6,0,P|126:281|170:292,1,80.9999975280763,2|10,2:2|2:2,0:0:0:0:
163,290,88405,1,0,0:0:0:0:
426,150,88595,5,10,3:2:0:0:
302,278,88771,1,0,3:3:0:0:
325,85,88947,1,10,2:2:0:0:
396,286,89165,6,0,P|314:274|249:380,1,215.999993408203,6|2,3:2|2:2,0:0:0:0:
478,254,89734,1,10,3:2:0:0:
478,254,89829,1,2,0:0:0:0:
478,254,89924,1,2,2:2:0:0:
282,148,90114,1,10,3:2:0:0:
455,3,90304,2,0,P|457:34|463:62,1,53.9999983520508,8|8,2:2|2:2,0:0:0:0:
500,130,90494,1,10,2:2:0:0:
478,92,90589,1,8,2:2:0:0:
436,78,90683,1,0,3:3:0:0:
393,86,90778,1,0,3:3:0:0:
363,117,90873,6,0,P|312:107|251:91,1,107.999996704102,6|2,3:2|3:3,0:0:0:0:
423,213,91252,1,10,3:2:0:0:
146,342,91442,2,0,P|179:290|284:282,1,161.999995056153,2|0,3:3|0:0,0:0:0:0:
282,280,91822,1,2,3:3:0:0:
176,172,92012,1,10,3:2:0:0:
31,381,92202,6,0,L|3:146,1,215.999993408203,6|2,3:2|3:3,0:0:0:0:
247,97,92771,1,10,3:2:0:0:
97,205,92961,1,2,3:3:0:0:
199,266,93151,1,0,3:3:0:0:
199,266,93246,1,8,2:2:0:0:
199,266,93341,1,10,2:2:0:0:
2,83,93531,2,0,B|46:91|76:51|76:51|112:18|163:36,1,161.999995056153,10|0,2:2|0:0,0:0:0:0:
146,31,93910,5,6,3:2:0:0:
397,100,94100,1,2,3:3:0:0:
234,0,94290,2,0,L|247:111,1,107.999996704102,10|10,3:2|2:2,0:0:0:0:
246,107,94575,1,0,3:3:0:0:
246,107,94670,1,8,2:2:0:0:
446,253,94860,1,0,3:3:0:0:
446,253,94955,2,0,L|503:266,1,53.9999983520508,8|10,2:2|3:2,0:0:0:0:
231,326,95240,6,0,B|185:315|152:347|152:347|115:374|71:357,1,161.999995056153,6|0,3:2|0:0,0:0:0:0:
64,354,95619,1,10,3:2:0:0:
302,374,95809,1,10,3:2:0:0:
144,252,95999,5,10,3:2:0:0:
144,252,96094,1,0,3:0:0:0:
144,252,96189,1,10,3:2:0:0:
236,177,96379,1,10,3:2:0:0:
171,109,96569,1,10,3:2:0:0:
349,314,96759,6,0,P|422:289|439:213,1,161.999995056153,14|0,3:2|0:0,0:0:0:0:
439,135,97139,1,10,3:2:0:0:
460,133,97233,1,2,2:2:0:0:
477,144,97328,1,10,3:2:0:0:
309,16,97518,5,2,2:2:0:0:
271,44,97613,1,2,2:2:0:0:
227,31,97708,1,10,3:2:0:0:
54,227,97898,6,0,B|28:275|77:308|73:348|73:348|81:307|143:296|131:228,1,251.999992309571,6|0,3:2|0:0,0:0:0:0:
0,348,98468,6,0,P|72:355|165:374,1,144,6|2,3:2|2:2,0:0:0:0:
142,368,99037,1,0,3:3:0:0:
331,279,99227,2,0,P|316:307|302:349,1,72,8|0,2:2|0:0,0:0:0:0:
251,242,99607,2,0,P|240:276|223:307,1,72,2|0,2:2|3:3,0:0:0:0:
223,307,99892,1,0,3:3:0:0:
223,307,99987,1,2,3:2:0:0:
325,202,100177,1,8,2:2:0:0:
253,142,100366,2,0,P|287:156|335:173,1,72,2|0,3:2|0:0,0:0:0:0:
472,218,100746,6,0,P|485:184|500:151,2,72,10|0|0,2:2|0:0|3:3,0:0:0:0:
472,218,101316,1,2,2:2:0:0:
473,59,101506,5,4,3:2:0:0:
415,15,101696,1,2,2:2:0:0:
343,16,101885,1,2,2:2:0:0:
287,62,102075,1,0,3:3:0:0:
267,131,102265,2,0,P|277:173|281:204,1,72,8|0,2:2|3:3,0:0:0:0:
150,68,102645,2,0,P|117:80|77:88,1,72,8|0,2:2|3:3,0:0:0:0:
79,98,103025,5,2,3:2:0:0:
106,240,103405,1,2,3:2:0:0:
133,382,103784,1,2,3:2:0:0:
388,175,104164,5,8,3:2:0:0:
388,175,104544,6,0,P|437:191|464:274,1,144,6|2,3:2|3:2,0:0:0:0:
464,272,105113,1,0,0:0:0:0:
322,223,105303,2,0,B|292:203|258:214|258:214|223:232|179:203,1,144,10|2,3:2|3:2,0:0:0:0:
23,345,105873,1,2,0:0:0:0:
23,345,105968,1,2,0:0:0:0:
23,345,106063,1,2,3:2:0:0:
93,382,106253,1,0,0:0:0:0:
160,342,106442,2,0,P|153:309|139:253,1,72,2|0,3:2|0:0,0:0:0:0:
51,36,106822,6,0,P|29:52|20:82,1,40.4999987640381,10|0,3:2|0:0,0:0:0:0:
59,167,107012,2,0,P|83:177|115:170,1,40.4999987640381,8|0,2:2|0:0,0:0:0:0:
168,92,107202,2,0,P|164:65|142:41,1,40.4999987640381,8|0,2:2|0:0,0:0:0:0:
94,98,107392,6,0,L|293:73,1,188.999994232178,6|2,3:2|3:2,0:0:0:0:
178,186,107961,1,10,3:2:0:0:
334,355,108151,6,0,P|401:317|396:197,1,207.000003948212,6|2,3:2|3:2,0:0:0:0:
239,329,108721,1,10,3:2:0:0:
498,137,108911,6,0,P|418:155|373:70,1,175.499991966248,6|0,3:2|0:0,0:0:0:0:
372,78,109290,1,2,3:2:0:0:
506,262,109480,1,10,3:2:0:0:
227,360,109670,6,0,B|174:361|155:308|155:308|136:258|78:264,1,175.499991966248,6|0,3:2|0:0,0:0:0:0:
82,267,110050,1,10,3:2:0:0:
217,44,110240,1,10,3:2:0:0:
417,219,110430,6,0,B|287:197|287:197|282:198|282:198|139:174,1,270.000010299683,6|2,3:2|3:2,0:0:0:0:
286,18,110999,1,10,3:2:0:0:
81,79,111189,1,0,3:3:0:0:
31,10,111379,5,10,3:2:0:0:
321,126,111569,1,0,3:3:0:0:
321,126,111664,1,8,2:2:0:0:
321,126,111759,1,10,3:2:0:0:
68,279,111949,5,10,3:2:0:0:
450,339,112328,5,10,3:2:0:0:
185,20,112708,5,10,3:2:0:0:
113,62,112898,1,10,2:2:0:0:
139,92,112993,1,0,0:0:0:0:
177,103,113088,1,0,3:3:0:0:
217,97,113183,1,0,3:3:0:0:
249,69,113278,5,10,2:2:0:0:
283,32,113373,1,8,2:2:0:0:
338,25,113468,1,8,2:2:0:0:
382,50,113563,1,8,2:2:0:0:
405,103,113658,6,0,P|382:228|368:340,1,233.999989288331,6|8,3:2|3:2,0:0:0:0:
312,141,114227,1,2,3:3:0:0:
463,342,114417,2,0,P|455:291|400:263,1,116.999994644165,2|2,3:2|3:3,0:0:0:0:
123,358,114797,2,0,P|164:367|210:315,1,116.999994644165,8|2,3:2|3:3,0:0:0:0:
209,315,115082,1,0,3:3:0:0:
209,315,115177,1,0,3:3:0:0:
140,100,115366,5,2,3:3:0:0:
245,174,115556,1,10,3:2:0:0:
107,248,115746,1,2,3:3:0:0:
246,51,115936,5,2,3:2:0:0:
246,51,116031,1,0,3:0:0:0:
246,51,116126,1,2,3:3:0:0:
213,263,116316,1,10,3:2:0:0:
15,216,116506,1,2,3:3:0:0:
144,36,116696,6,0,B|206:-11|266:36|266:36|279:66|300:73,1,175.499991966248,2|0,3:2|0:0,0:0:0:0:
414,67,117075,2,0,P|395:14|322:19,1,116.999994644165,10|2,3:2|3:3,0:0:0:0:
249,295,117455,1,2,3:2:0:0:
344,137,117645,1,2,3:3:0:0:
511,182,117835,1,8,3:2:0:0:
408,360,118025,6,0,P|412:284|425:183,1,175.499991966248,6|0,3:2|0:0,0:0:0:0:
424,186,118404,2,0,L|377:233,1,58.4999973220826,2|0,3:3|0:0,0:0:0:0:
358,75,118594,1,8,3:2:0:0:
497,252,118784,5,2,3:3:0:0:
436,338,118974,1,10,2:2:0:0:
436,338,119069,1,8,2:2:0:0:
436,338,119164,1,2,3:3:0:0:
281,349,119354,1,10,3:2:0:0:
183,212,119544,1,2,3:3:0:0:
243,40,119734,6,0,L|254:-4,1,40.4999987640381,2|0,3:2|0:0,0:0:0:0:
278,10,120113,6,0,B|98:72|98:72|72:82|36:68,1,242.999992584229,14|0,3:2|3:3,0:0:0:0:
74,2,120493,5,2,3:2:0:0:
201,152,120683,1,2,3:3:0:0:
91,275,120873,1,10,3:2:0:0:
60,286,120968,1,2,2:2:0:0:
27,250,121063,1,2,3:3:0:0:
238,379,121253,6,0,L|281:370,1,40.4999987640381,2|0,3:2|0:0,0:0:0:0:
287,378,121632,6,0,P|265:313|306:223,1,161.999995056153,14|2,3:2|3:3,0:0:0:0:
250,176,121917,1,0,3:3:0:0:
250,176,122012,1,0,3:3:0:0:
416,284,122202,1,2,3:3:0:0:
499,104,122392,1,10,3:2:0:0:
491,56,122487,1,2,2:2:0:0:
452,28,122582,1,2,3:3:0:0:
404,25,122677,1,0,0:0:0:0:
365,48,122771,6,0,P|327:49|304:-10,1,101.250003862381,2|0,3:2|0:0,0:0:0:0:
212,136,123151,6,0,P|271:151|301:74,1,144,12|10,3:2|2:2,0:0:0:0:
228,37,123436,1,0,3:3:0:0:
197,63,123531,1,10,2:2:0:0:
372,154,123721,1,10,3:2:0:0:
212,136,123911,1,10,2:2:0:0:
165,299,124101,1,8,3:2:0:0:
59,54,124290,5,6,3:2:0:0:
256,213,124480,1,0,3:0:0:0:
256,213,124575,1,8,2:2:0:0:
256,213,124670,1,10,3:2:0:0:
52,346,124860,1,10,3:2:0:0:
458,313,125240,1,10,3:2:0:0:
443,233,125430,5,8,2:2:0:0:
395,249,125525,1,8,3:2:0:0:
376,295,125620,1,10,3:2:0:0:
372,244,125715,1,8,3:2:0:0:
338,221,125809,6,0,P|258:210|206:292,1,175.499991966248,6|0,3:2|0:0,0:0:0:0:
208,291,126189,1,8,3:2:0:0:
285,111,126379,1,2,3:3:0:0:
199,373,126569,2,0,P|142:368|127:318,1,116.999994644165,2|2,3:2|3:3,0:0:0:0:
14,149,126949,2,0,P|45:101|96:111,1,116.999994644165,8|2,3:2|3:3,0:0:0:0:
148,177,127234,1,0,3:3:0:0:
148,177,127328,1,0,3:3:0:0:
425,192,127518,5,2,3:3:0:0:
349,37,127708,1,10,3:2:0:0:
332,249,127898,1,2,3:3:0:0:
462,90,128088,5,2,3:2:0:0:
245,189,128278,1,2,3:3:0:0:
441,328,128468,1,10,3:2:0:0:
480,255,128658,1,2,3:3:0:0:
214,345,128847,6,0,P|160:334|130:224,1,175.499991966248,6|0,3:2|0:0,0:0:0:0:
135,98,129227,2,0,P|183:118|177:190,1,116.999994644165,10|2,3:2|3:3,0:0:0:0:
52,216,129512,1,2,2:2:0:0:
21,194,129607,1,2,3:2:0:0:
204,263,129797,1,10,2:2:0:0:
297,101,129987,1,10,3:2:0:0:
427,375,130177,6,0,L|459:184,1,175.499991966248,6|0,3:2|0:0,0:0:0:0:
456,202,130556,2,0,L|403:241,1,58.4999973220826,2|0,3:3|0:0,0:0:0:0:
352,284,130746,1,8,3:2:0:0:
500,123,130936,5,2,3:3:0:0:
500,123,131031,1,0,3:3:0:0:
500,123,131126,1,10,2:2:0:0:
305,7,131316,5,2,3:3:0:0:
259,17,131411,1,8,2:2:0:0:
230,54,131506,1,10,2:2:0:0:
227,100,131601,1,0,3:3:0:0:
253,138,131696,1,10,2:2:0:0:
122,361,131885,6,0,L|72:351,1,40.4999987640381,2|0,3:2|0:0,0:0:0:0:
8,361,132265,6,0,P|20:275|87:258,1,161.999995056153,14|2,3:2|3:3,0:0:0:0:
151,294,132550,1,0,3:3:0:0:
151,294,132645,1,2,3:2:0:0:
38,163,132835,1,2,3:3:0:0:
231,324,133025,1,10,3:2:0:0:
245,288,133120,1,2,2:2:0:0:
224,247,133215,1,2,3:3:0:0:
333,19,133404,6,0,L|352:59,1,40.4999987640381,2|0,3:2|0:0,0:0:0:0:
447,64,133784,6,0,B|427:64|407:56|407:56|283:103,1,161.999995056153,14|2,3:2|3:3,0:0:0:0:
224,130,134069,1,0,3:3:0:0:
224,130,134164,1,0,3:3:0:0:
439,238,134354,1,2,3:3:0:0:
255,372,134544,1,10,3:2:0:0:
211,368,134639,1,2,2:2:0:0:
178,341,134734,1,2,3:3:0:0:
172,300,134828,1,0,2:2:0:0:
188,260,134923,6,0,B|222:256|240:271|240:271|219:262|189:268,1,101.250003862381,2|0,3:2|0:0,0:0:0:0:
94,336,135303,6,0,L|59:169,1,161.999995056153,12|2,3:2|3:2,0:0:0:0:
339,83,135683,1,10,2:2:0:0:
173,83,135872,1,10,2:2:0:0:
418,335,136063,2,0,L|453:168,1,161.999995056153,14|2,2:2|3:2,0:0:0:0:
256,13,136442,5,2,3:2:0:0:
236,66,136537,1,8,2:2:0:0:
264,114,136632,1,8,2:2:0:0:
279,168,136727,1,8,2:2:0:0:
257,220,136822,1,10,3:2:0:0:
467,28,137012,5,10,3:2:0:0:
87,252,137392,1,10,3:2:0:0:
490,370,137771,6,0,B|498:333|457:302|457:302|317:222|317:222|279:192|291:148,1,323.999990112305,4|2,3:2|3:3,0:0:0:0:
405,11,138340,1,10,3:2:0:0:
458,99,138530,1,2,3:3:0:0:
193,189,138721,1,2,3:2:0:0:
298,64,138911,1,2,3:3:0:0:
261,281,139101,1,8,3:2:0:0:
57,273,139290,6,0,L|-1:-16,1,242.999992584229,6|0,3:3|0:0,0:0:0:0:
9,34,139670,1,2,3:3:0:0:
156,169,139860,1,8,3:2:0:0:
224,95,140050,1,2,3:3:0:0:
224,95,140145,1,0,0:0:0:0:
224,95,140240,1,0,3:3:0:0:
330,239,140430,5,2,3:3:0:0:
185,366,140620,1,10,3:2:0:0:
486,368,140809,6,0,B|239:311|239:311|210:280|162:293,1,323.999990112305,6|2,3:2|3:3,0:0:0:0:
472,279,141379,2,0,B|467:269|459:260|459:260|444:138,1,125.999996154785,10|2,3:2|3:3,0:0:0:0:
494,92,141759,1,0,3:3:0:0:
351,189,141949,1,2,3:3:0:0:
266,39,142139,1,8,3:2:0:0:
102,208,142328,6,0,B|161:226|207:169|207:169|248:112|313:126,1,242.999992584229,6|0,3:2|2:2,0:0:0:0:
102,208,142708,6,0,B|63:188|69:137|69:137|76:89|42:68,1,161.999995056153,2|12,0:2|3:2,0:0:0:0:
102,208,142993,6,0,B|88:249|128:280|128:280|167:309|159:348,1,161.999995056153,2|0,0:2|0:2,0:0:0:0:
102,208,143278,6,0,P|63:215|37:252,1,80.9999975280763,10|0,3:2|0:0,0:0:0:0:
231,371,143468,1,10,3:2:0:0:
265,377,143563,1,10,3:2:0:0:
308,361,143658,1,10,2:2:0:0:
335,311,143753,1,10,2:2:0:0:
328,242,143847,6,0,P|305:129|282:-11,1,242.999992584229,6|0,3:2|0:0,0:0:0:0:
284,3,144227,2,0,L|346:38,1,62.9999980773926,2|0,3:3|0:0,0:0:0:0:
411,72,144417,1,8,3:2:0:0:
215,55,144607,1,2,3:3:0:0:
215,55,144702,1,0,0:0:0:0:
215,55,144797,1,2,3:2:0:0:
170,265,144987,1,2,3:3:0:0:
232,211,145177,1,8,3:2:0:0:
134,20,145366,6,0,P|68:20|6:170,1,242.999992584229,12|0,3:2|0:0,0:0:0:0:
2,162,145746,1,2,3:3:0:0:
162,95,145936,1,8,3:2:0:0:
305,243,146126,5,2,3:3:0:0:
305,243,146221,1,0,3:3:0:0:
305,243,146316,2,0,P|297:275|294:304,1,62.9999980773926,2|0,3:2|0:0,0:0:0:0:
210,287,146506,2,0,P|217:254|220:225,1,62.9999980773926,10|0,2:2|0:0,0:0:0:0:
274,162,146696,1,8,2:2:0:0:
493,153,146885,6,0,B|492:124|507:108|507:108|493:24|426:-2|361:28,1,242.999992584229,12|0,3:2|0:0,0:0:0:0:
364,26,147265,2,0,P|374:44|386:63,1,33.7500012874604,0|0,3:3|0:0,0:0:0:0:
277,93,147455,2,0,P|291:85|306:76,1,33.7500012874604,10|0,3:2|0:0,0:0:0:0:
69,93,147645,6,0,P|158:113|188:269,1,256.499993150711,12|0,3:2|0:0,0:0:0:0:
193,258,148025,2,0,L|145:230,1,38.2500007295609,0|0,3:3|0:0,0:0:0:0:
278,96,148215,1,10,3:2:0:0:
333,356,148404,6,0,B|321:266|321:266|318:233|295:235|287:198|287:198|277:90,1,270,12|0,3:2|0:0,0:0:0:0:
278,96,148784,2,0,L|314:59,1,45,10|0,3:2|0:0,0:0:0:0:
247,333,148974,1,10,2:2:0:0:
247,333,149069,1,8,2:2:0:0:
247,333,149164,2,0,B|184:322|184:322|179:318|179:318|108:307,1,135.000005149842,10|8,3:2|2:2,0:0:0:0:
475,209,149544,5,10,3:2:0:0:
486,156,149639,1,8,3:2:0:0:
446,112,149734,1,10,3:2:0:0:
431,60,149828,1,8,3:2:0:0:
460,6,149923,1,2,3:2:0:0:
256,192,150303,5,2,2:2:0:0:
256,192,150493,1,2,3:3:0:0:
86,39,150873,5,2,2:2:0:0:
163,13,151063,1,2,2:2:0:0:
189,90,151253,1,2,3:3:0:0:
112,116,151442,1,2,2:2:0:0:
260,192,151822,5,2,2:2:0:0:
260,192,152012,1,2,3:3:0:0:
78,361,152392,5,2,2:2:0:0:
52,284,152582,1,2,2:2:0:0:
155,335,152772,1,2,3:3:0:0:
129,258,152961,1,2,2:2:0:0:
260,192,153341,5,2,2:2:0:0:
260,192,153531,2,0,L|311:204,1,49.5000015106202,2|2,3:3|2:2,0:0:0:0:
451,331,153911,5,10,2:2:0:0:
359,360,154101,1,10,2:2:0:0:
493,201,154290,1,10,2:2:0:0:
371,53,154480,6,0,L|402:253,1,202.500007724762,12|0,3:2|0:0,0:0:0:0:
403,254,154860,1,8,3:2:0:0:
263,93,155050,5,10,3:2:0:0:
232,108,155145,1,10,3:2:0:0:
189,106,155240,1,10,3:2:0:0:
150,66,155335,1,2,2:2:0:0:
150,4,155431,1,4,3:2:0:0:
85,128,155620,6,0,P|57:123|16:111,1,67.5,2|2,2:2|3:2,0:0:0:0:
91,134,156000,1,2,3:2:0:0:
12,330,156190,2,0,P|17:263|35:182,1,135.000005149842,10|2,3:2|2:2,0:0:0:0:
12,330,156760,2,0,P|44:340|74:356,1,67.5000025749208,2|0,3:2|0:0,0:0:0:0:
172,318,157139,5,10,2:2:0:0:
96,269,157329,1,2,3:2:0:0:
172,318,157519,1,0,3:3:0:0:
277,203,157709,2,0,P|260:233|245:275,1,67.5000025749208,8|0,2:2|0:0,0:0:0:0:
172,227,158089,2,0,P|188:196|204:155,1,67.5000025749208,2|2,2:2|2:2,0:0:0:0:
393,289,158468,5,8,3:2:0:0:
393,289,158848,2,0,P|428:274|440:238,1,67.5000025749208,2|0,2:2|3:3,0:0:0:0:
464,103,159228,2,0,P|420:107|406:195,1,135.000005149842,8|2,2:2|2:2,0:0:0:0:
307,366,159798,6,0,B|315:324|286:298|286:298|270:286|270:286|228:247|248:189,1,198.000006042481,4|8,3:2|3:2,0:0:0:0:
247,191,160367,1,2,3:2:0:0:
285,31,160557,5,2,0:0:0:0:
285,31,160652,1,8,3:2:0:0:
285,31,160747,1,8,3:2:0:0:
358,80,160937,1,10,2:2:0:0:
221,126,161127,2,0,B|139:128|173:166|81:163,1,135.000005149842,10|4,2:2|3:2,0:0:0:0:
332,245,161696,5,2,2:2:0:0:
406,210,161886,2,0,P|412:176|419:138,1,67.5000025749208,2|0,2:2|3:3,0:0:0:0:
417,143,162266,5,10,3:2:0:0:
300,307,162456,2,0,P|333:322|376:346,1,67.5000025749208,10|0,2:2|3:3,0:0:0:0:
282,220,162836,6,0,B|253:179|204:192|204:192|179:211|155:206,1,135,4|0,3:2|0:0,0:0:0:0:
155,212,163215,2,0,L|136:136,1,67.5000025749208,10|0,2:2|0:0,0:0:0:0:
82,252,163595,1,2,3:2:0:0:
194,359,163785,5,8,2:2:0:0:
275,316,163975,1,8,3:2:0:0:
394,375,164165,1,0,3:3:0:0:
471,226,164355,6,0,B|496:198|474:164|474:164|436:146|436:146|412:112|428:77,1,180,12|8,3:2|3:2,0:0:0:0:
426,79,164924,1,8,3:2:0:0:
392,154,165114,1,8,3:2:0:0:
312,39,165304,1,8,3:2:0:0:
230,184,165494,1,8,3:2:0:0:
138,22,165684,1,8,3:2:0:0:
14,263,165874,6,0,P|86:272|142:358,1,168.75,4|0,3:2|0:0,0:0:0:0:
140,345,166253,1,8,3:2:0:0:
214,292,166443,1,8,3:2:0:0:
294,371,166633,1,8,3:2:0:0:
63,357,166823,6,0,P|72:331|80:301,1,33.7500012874604,8|0,3:2|0:0,0:0:0:0:
193,272,167013,6,0,P|185:244|180:217,1,45,8|0,3:2|0:0,0:0:0:0:
18,164,167203,6,0,P|34:144|54:118,1,56.25,8|0,3:2|0:0,0:0:0:0:
361,187,167393,6,0,B|343:194|333:208|333:208|86:238,1,270.000010299683,4|8,3:2|2:2,0:0:0:0:
100,236,167867,1,8,2:2:0:0:
100,236,167962,1,8,2:2:0:0:
406,263,168152,5,8,3:2:0:0:
406,263,168247,1,8,3:2:0:0:
406,263,168342,2,0,L|440:320,1,45,10|0,3:2|0:0,0:0:0:0:
292,143,168532,6,0,L|314:85,1,53.9999983520508,2|0,3:2|0:3,0:0:0:0:
207,316,168722,6,0,L|229:380,1,62.9999980773926,2|0,3:2|0:0,0:0:0:0:
470,134,168912,5,6,3:2:0:0:
71,32,169291,1,4,3:2:0:0:
321,368,169671,1,4,3:2:0:0:
214,320,169861,5,8,2:2:0:0:
207,286,169956,1,8,2:2:0:0:
229,246,170051,1,8,2:2:0:0:
280,220,170146,1,8,2:2:0:0:
323,188,170241,1,8,2:2:0:0:
327,136,170336,1,8,2:2:0:0:
308,91,170431,1,8,2:2:0:0:
278,75,170525,1,8,2:2:0:0:
266,76,170620,5,2,2:2:0:0:
440,209,176506,5,2,0:0:0:0:
440,209,176601,1,2,0:0:0:0:
440,209,176696,2,0,P|388:218|351:145,1,144,4|2,3:2|2:2,0:0:0:0:
256,39,177266,1,0,0:0:0:0:
256,39,177456,2,0,P|222:50|182:58,1,72,2|0,2:2|0:0,0:0:0:0:
281,116,177836,2,0,P|245:122|211:134,1,72,2|0,2:2|3:3,0:0:0:0:
86,61,178215,6,0,L|141:201,1,144,2|2,3:2|2:2,0:0:0:0:
138,195,178785,1,0,0:0:0:0:
86,268,178975,2,0,L|8:250,2,72,2|0|2,2:2|0:0|2:2,0:0:0:0:
236,365,179544,5,0,0:0:0:0:
318,373,179734,2,0,B|310:296|277:328|275:220,1,144,4|2,3:2|2:2,0:0:0:0:
399,356,180304,2,0,P|438:363|486:378,1,72,0|2,0:0|2:2,0:0:0:0:
474,211,180684,5,10,2:2:0:0:
373,279,180874,1,10,2:2:0:0:
285,151,181063,1,10,2:2:0:0:
113,354,181253,5,4,3:2:0:0:
113,354,181823,2,0,B|90:228|180:284|141:145,1,202.500007724762,8|0,3:2|0:0,0:0:0:0:
219,295,182203,2,0,B|134:202|134:308|40:222,1,202.500007724762,8|0,3:2|0:0,0:0:0:0:
191,367,182582,1,8,3:2:0:0:
399,207,182772,6,0,L|418:163,1,40.4999987640381,2|0,3:2|0:0,0:0:0:0:
399,207,183152,6,0,P|321:174|363:5,1,242.999992584229,4|0,3:2|0:0,0:0:0:0:
320,32,183532,1,2,3:2:0:0:
447,91,183722,1,2,3:3:0:0:
203,183,183912,2,0,B|155:172|155:172|149:166|149:166|66:151,1,116.999994644165,8|2,3:2|3:3,0:0:0:0:
90,155,184196,1,0,3:3:0:0:
90,155,184291,1,0,3:3:0:0:
270,255,184481,5,2,3:3:0:0:
95,333,184671,1,10,3:2:0:0:
293,365,184861,1,2,3:3:0:0:
39,121,185051,5,2,3:2:0:0:
169,281,185241,1,2,3:3:0:0:
293,87,185431,1,10,3:2:0:0:
212,52,185620,1,2,3:3:0:0:
419,351,185810,6,0,P|430:298|454:234,1,116.999994644165,6|2,3:2|3:3,0:0:0:0:
419,351,186190,1,10,3:2:0:0:
406,119,186380,1,2,3:3:0:0:
406,119,186475,1,2,2:2:0:0:
406,119,186570,1,2,3:2:0:0:
335,230,186760,1,10,2:2:0:0:
512,150,186949,1,10,3:2:0:0:
305,27,187139,6,0,B|276:22|259:-5|259:-5|197:-14|143:19|131:110,1,233.999989288331,6|2,3:2|3:3,0:0:0:0:
308,32,187709,1,8,3:2:0:0:
167,261,187899,1,2,3:3:0:0:
72,188,188089,1,10,2:2:0:0:
302,181,188279,1,2,3:3:0:0:
314,177,188374,1,8,2:2:0:0:
327,173,188468,5,10,2:2:0:0:
379,178,188563,1,0,3:3:0:0:
410,220,188658,1,10,2:2:0:0:
405,272,188753,1,0,3:0:0:0:
371,311,188848,6,0,L|328:300,1,40.4999987640381,2|0,3:2|0:0,0:0:0:0:
259,324,189228,6,0,P|196:305|154:380,1,161.999995056153,14|2,3:2|3:3,0:0:0:0:
153,377,189513,1,0,3:3:0:0:
153,377,189608,1,2,3:2:0:0:
37,311,189798,1,2,3:3:0:0:
25,146,189987,1,10,3:2:0:0:
70,135,190082,1,2,2:2:0:0:
84,90,190177,1,2,3:3:0:0:
262,222,190367,6,0,L|308:212,1,40.4999987640381,2|0,3:2|0:0,0:0:0:0:
362,258,190747,6,0,B|372:245|377:232|377:232|503:148,1,161.999995056153,14|2,3:2|3:3,0:0:0:0:
439,292,191032,1,0,3:3:0:0:
439,292,191127,1,0,3:3:0:0:
442,85,191317,1,2,3:3:0:0:
263,173,191506,1,10,3:2:0:0:
215,160,191601,1,2,2:2:0:0:
191,117,191696,1,2,3:3:0:0:
195,68,191791,1,0,0:0:0:0:
229,33,191886,6,0,P|193:70|146:60,1,101.250003862381,2|0,3:2|0:0,0:0:0:0:
229,33,192266,6,0,L|399:59,1,161.999995056153,12|2,3:2|3:2,0:0:0:0:
67,192,192646,1,10,2:2:0:0:
389,326,192836,1,10,3:2:0:0:
389,326,192931,1,0,3:0:0:0:
389,326,193025,2,0,L|229:351,1,161.999995056153,14|0,2:2|3:2,0:0:0:0:
445,192,193405,5,2,3:2:0:0:
321,111,193595,1,0,3:0:0:0:
191,273,193785,1,10,3:2:0:0:
63,41,193975,5,10,3:2:0:0:
255,364,194355,1,10,3:2:0:0:
494,20,194734,6,0,P|450:22|416:136,1,180,4|2,3:2|2:2,0:0:0:0:
477,181,195304,1,8,2:2:0:0:
493,322,195494,1,2,3:2:0:0:
488,335,195589,1,0,3:3:0:0:
483,348,195684,1,0,3:0:0:0:
399,323,195874,2,0,P|355:333|305:343,1,90,10|10,3:2|3:2,0:0:0:0:
174,321,196253,6,0,P|182:243|195:114,1,180,4|0,3:2|3:3,0:0:0:0:
249,92,196823,1,2,3:2:0:0:
120,37,197013,1,8,2:2:0:0:
95,38,197108,1,8,2:2:0:0:
72,16,197203,5,8,2:2:0:0:
75,126,197393,1,8,3:2:0:0:
178,234,197582,1,8,3:2:0:0:
358,218,197772,1,8,3:2:0:0:
483,33,197962,6,0,P|435:12|366:98,1,180,2|0,3:2|3:3,0:0:0:0:
365,96,198532,1,2,2:2:0:0:
281,236,198722,2,0,P|329:257|398:171,1,180,2|0,3:2|3:3,0:0:0:0:
197,60,199291,6,0,P|190:39|184:14,1,45,2|0,2:2|0:0,0:0:0:0:
184,16,199481,1,10,3:2:0:0:
44,360,200051,5,10,3:2:0:0:
44,360,200431,1,10,3:2:0:0:
104,292,200620,1,2,3:2:0:0:
263,361,200810,6,0,P|327:362|382:260,1,188.999994232178,6|0,3:2|0:0,0:0:0:0:
440,212,201190,2,0,P|428:161|419:88,1,107.999996704102,2|8,3:3|3:2,0:0:0:0:
196,223,201570,2,0,P|145:243|79:263,1,107.999996704102,2|0,3:3|3:3,0:0:0:0:
212,25,201949,1,2,3:3:0:0:
293,81,202139,1,8,3:2:0:0:
94,258,202329,6,0,P|150:268|193:368,1,161.999995056153,2|0,3:3|0:0,0:0:0:0:
195,355,202709,2,0,P|257:360|279:319,1,107.999996704102,2|8,3:3|3:2,0:0:0:0:
391,159,203089,1,2,3:3:0:0:
464,234,203279,1,2,3:2:0:0:
279,27,203468,1,8,3:2:0:0:
279,27,203563,1,8,2:2:0:0:
279,27,203658,5,10,2:2:0:0:
230,24,203753,1,0,3:0:0:0:
188,49,203848,1,8,2:2:0:0:
172,95,203943,1,8,2:2:0:0:
184,141,204038,5,12,3:2:0:0:
475,22,204418,1,10,3:2:0:0:
401,344,204798,5,10,3:2:0:0:
329,70,204987,1,10,3:2:0:0:
50,344,205367,6,0,B|38:319|44:305|16:298|-4:266|19:228|63:237|64:290|64:290|81:237|128:247|134:296|99:321|75:311|76:330|54:349,1,323.999990112305,14|0,3:2|0:0,0:0:0:0:
