osu file format v14

[General]
AudioFilename: audio.mp3
AudioLeadIn: 0
PreviewTime: 169861
Countdown: 0
SampleSet: Soft
StackLeniency: 0.4
Mode: 0
LetterboxInBreaks: 0
WidescreenStoryboard: 1

[Editor]
Bookmarks: 13405,25557,84798,98469,155431
DistanceSpacing: 0.9
BeatDivisor: 4
GridSize: 4
TimelineZoom: 1

[Metadata]
Title:Otomodachi Film
TitleUnicode:オトモダチフィルム
Artist:Oishi Masayoshi
ArtistUnicode:オーイシマサヨシ
Creator:Flask
Version:Easy
Source:多田くんは恋をしない
Tags:tada kun wa koi wo shinai tada-kun tadakun tadakoi anime pop japanese j-pop opening 多田 光良 mitsuyoshi テレサ・ワーグナー teresa wagner -lian- lian2002 お友達フィルム お友だちフィルム Friend Film jpop 多田光良 rainbow shougun
BeatmapID:4545029
BeatmapSetID:2154278

[Difficulty]
HPDrainRate:2
CircleSize:2.5
OverallDifficulty:3
ApproachRate:3.5
SliderMultiplier:1
SliderTickRate:1

[Events]
//Background and Video events
0,0,"tadakoi.jpg",0,0
//Break Periods
2,170820,175316
//Storyboard Layer 0 (Background)
//Storyboard Layer 1 (Fail)
//Storyboard Layer 2 (Pass)
//Storyboard Layer 3 (Foreground)
//Storyboard Layer 4 (Overlay)
//Storyboard Sound Samples

[TimingPoints]
1254,379.746835443038,4,2,1,70,1,0
3532,-100,4,2,2,70,0,0
4291,-100,4,2,3,70,0,0
7140,-100,4,2,3,90,0,0
7519,-100,4,2,4,90,0,0
7709,-100,4,2,2,90,0,0
7899,-100,4,2,4,90,0,0
8089,-100,4,2,1,90,0,0
8279,-100,4,2,4,90,0,0
8469,-100,4,2,2,90,0,0
8659,-100,4,2,4,90,0,0
8848,-100,4,2,1,90,0,0
9038,-100,4,2,4,90,0,0
9228,-100,4,2,2,90,0,0
9418,-100,4,2,4,90,0,0
9608,-100,4,2,3,90,0,0
10557,-100,4,2,4,90,0,0
10747,-100,4,2,2,90,0,0
10937,-100,4,2,4,90,0,0
11127,-100,4,2,1,90,0,0
11317,-100,4,2,4,90,0,0
11507,-100,4,2,2,90,0,0
12076,-100,4,2,3,90,0,0
12836,-100,4,2,2,90,0,0
13216,-100,4,2,3,90,0,0
13595,-100,4,2,3,70,0,0
13785,-100,4,2,2,70,0,0
14735,-100,4,2,1,70,0,0
15304,-100,4,2,2,70,0,0
16254,-100,4,2,1,70,0,0
16823,-100,4,2,2,70,0,0
17203,-100,4,2,1,70,0,0
17583,-100,4,2,2,70,0,0
17772,-100,4,2,2,85,0,0
18342,-100,4,2,3,85,0,0
18912,-100,4,2,2,85,0,0
19671,-100,4,2,4,85,0,0
19861,-100,4,2,2,85,0,0
20051,-100,4,2,4,85,0,0
20241,-100,4,2,1,85,0,0
20431,-100,4,2,4,85,0,0
20621,-100,4,2,2,85,0,0
21190,-100,4,2,4,85,0,0
21380,-100,4,2,2,85,0,0
21570,-100,4,2,4,85,0,0
21760,-100,4,2,1,85,0,0
21950,-100,4,2,4,85,0,0
22140,-100,4,2,2,85,0,0
22329,-100,4,2,5,85,0,0
22519,-100,4,2,1,85,0,0
22709,-100,4,2,4,85,0,0
22899,-100,4,2,2,85,0,0
23089,-100,4,2,4,85,0,0
23184,-100,4,2,3,85,0,0
23279,-100,4,2,1,85,0,0
23469,-100,4,2,4,85,0,0
23659,-100,4,2,2,85,0,0
23848,-100,4,2,5,85,0,0
24418,-100,4,2,2,85,0,0
24608,-100,4,2,5,85,0,0
24988,-100,4,2,2,85,0,0
25747,-100,4,2,2,70,0,0
26886,-100,4,2,1,70,0,0
27456,-100,4,2,2,70,0,0
28405,-100,4,2,1,70,0,0
28975,-100,4,2,2,70,0,0
29355,-100,4,2,1,70,0,0
29735,-100,4,2,2,70,0,0
30494,-100,4,2,3,70,0,0
31064,-100,4,2,2,70,0,0
31633,-100,4,2,2,85,0,0
31823,-100,4,2,4,85,0,0
32013,-100,4,2,2,85,0,0
32203,-100,4,2,4,85,0,0
32393,-100,4,2,1,85,0,0
32583,-100,4,2,4,85,0,0
32772,-100,4,2,2,85,0,0
33342,-100,4,2,4,85,0,0
33532,-100,4,2,2,85,0,0
33722,-100,4,2,4,85,0,0
33912,-100,4,2,2,85,0,0
34102,-100,4,2,4,85,0,0
34291,-100,4,2,2,85,0,0
34481,-100,4,2,5,85,0,0
34671,-100,4,2,1,85,0,0
34861,-100,4,2,4,85,0,0
35051,-100,4,2,2,85,0,0
35241,-100,4,2,6,85,0,0
35336,-100,4,2,2,85,0,0
36760,-100,4,2,1,85,0,0
37329,-100,4,2,3,85,0,0
37899,-100,4,2,1,85,0,0
38469,-100,4,2,2,85,0,0
39228,-100,4,2,2,80,0,0
43405,-100,4,2,1,80,0,0
44924,-100,4,2,3,80,0,0
46064,-100,4,2,2,80,0,0
47772,-100,4,2,1,80,0,0
48722,-100,4,2,2,80,0,0
48912,-100,4,2,2,85,0,0
49671,-100,4,2,2,90,0,0
50431,-100,4,2,2,95,0,0
51190,-100,4,2,2,100,0,0
52519,-100,4,2,1,100,0,0
52709,-100,4,2,3,100,0,0
54038,-100,4,2,2,100,0,0
54418,-100,4,2,2,100,0,1
54988,-100,4,2,4,100,0,1
55178,-100,4,2,1,100,0,1
55367,-100,4,2,5,100,0,1
55557,-100,4,2,2,100,0,1
55747,-100,4,2,1,100,0,1
56127,-100,4,2,4,100,0,1
56317,-100,4,2,2,100,0,1
56886,-100,4,2,4,100,0,1
57076,-100,4,2,2,100,0,1
57266,-100,4,2,5,100,0,1
57456,-100,4,2,1,100,0,1
57646,-100,4,2,5,100,0,1
57836,-100,4,2,2,100,0,1
58026,-100,4,2,5,100,0,1
58121,-100,4,2,1,100,0,1
58405,-100,4,2,4,100,0,1
58595,-100,4,2,2,100,0,1
59165,-100,4,2,4,100,0,1
59355,-100,4,2,2,100,0,1
59735,-100,4,2,1,100,0,1
59924,-100,4,2,4,100,0,1
60114,-100,4,2,2,100,0,1
60304,-100,4,2,4,100,0,1
60494,-100,4,2,2,100,0,1
61443,-100,4,2,4,100,0,1
61633,-100,4,2,2,100,0,1
61823,-100,4,2,4,100,0,1
62013,-100,4,2,2,100,0,1
62583,-100,4,2,1,100,0,1
62962,-100,4,2,5,100,0,1
63152,-100,4,2,2,100,0,1
63342,-100,4,2,5,100,0,1
63532,-100,4,2,2,100,0,1
64291,-100,4,2,1,100,0,1
64671,-100,4,2,2,100,0,1
65621,-100,4,2,1,100,0,1
66000,-100,4,2,2,100,0,1
67140,-100,4,2,4,100,0,1
67329,-100,4,2,1,100,0,1
67519,-100,4,2,5,100,0,1
67709,-100,4,2,2,100,0,1
67899,-100,4,2,1,100,0,1
68279,-100,4,2,4,100,0,1
68469,-100,4,2,2,100,0,1
69038,-100,4,2,4,100,0,1
69228,-100,4,2,2,100,0,1
69418,-100,4,2,5,100,0,1
69608,-100,4,2,1,100,0,1
69798,-100,4,2,5,100,0,1
69988,-100,4,2,2,100,0,1
70178,-100,4,2,5,100,0,1
70272,-100,4,2,1,100,0,1
70557,-100,4,2,7,100,0,1
70747,-100,4,2,2,100,0,1
71317,-100,4,2,4,100,0,1
71507,-100,4,2,2,100,0,1
71886,-100,4,2,1,100,0,1
72076,-100,4,2,2,100,0,1
72456,-100,4,2,7,100,0,1
72646,-100,4,2,2,100,0,1
73595,-100,4,2,4,100,0,1
73785,-100,4,2,2,100,0,1
73975,-100,4,2,4,100,0,1
74165,-100,4,2,2,100,0,1
74735,-100,4,2,1,100,0,1
75114,-100,4,2,5,100,0,1
75304,-100,4,2,2,100,0,1
75494,-100,4,2,5,100,0,1
75684,-100,4,2,2,100,0,1
76443,-100,4,2,1,100,0,1
76823,-100,4,2,2,100,0,1
77488,-100,4,2,1,100,0,1
77583,-100,4,2,2,100,0,1
78532,-100,4,2,2,90,0,0
78912,-100,4,2,4,90,0,0
79102,-100,4,2,2,90,0,0
79291,-100,4,2,4,90,0,0
79481,-100,4,2,1,90,0,0
79671,-100,4,2,4,90,0,0
79861,-100,4,2,2,90,0,0
80051,-100,4,2,4,90,0,0
80241,-100,4,2,1,90,0,0
80431,-100,4,2,4,90,0,0
80621,-100,4,2,2,90,0,0
80810,-100,4,2,4,90,0,0
81000,-100,4,2,3,90,0,0
81950,-100,4,2,4,90,0,0
82140,-100,4,2,2,90,0,0
82329,-100,4,2,4,90,0,0
82519,-100,4,2,1,90,0,0
82709,-100,4,2,4,90,0,0
82899,-100,4,2,2,90,0,0
83469,-100,4,2,3,90,0,0
84038,-100,4,2,1,90,0,0
84228,-100,4,2,2,90,0,0
84608,-100,4,2,3,90,0,0
84988,-100,4,2,3,75,0,0
85557,-100,4,2,2,75,0,0
86127,-100,4,2,1,75,0,0
87076,-100,4,2,2,75,0,0
87646,-100,4,2,1,75,0,0
88216,-100,4,2,2,75,0,0
88595,352.941176470588,4,2,1,75,1,0
88859,-100,4,2,2,75,0,0
89165,379.746835443038,4,2,2,75,1,0
89735,-100,4,2,3,75,0,0
90304,-100,4,2,2,75,0,0
90873,379.746835443038,4,2,2,85,1,0
91062,-100,4,2,4,85,0,0
91252,-100,4,2,2,85,0,0
91441,-100,4,2,4,85,0,0
91631,-100,4,2,1,85,0,0
91821,-100,4,2,4,85,0,0
92011,-100,4,2,2,85,0,0
92581,-100,4,2,4,85,0,0
92770,-100,4,2,2,85,0,0
92960,-100,4,2,4,85,0,0
93150,-100,4,2,2,85,0,0
93340,-100,4,2,4,85,0,0
93530,-100,4,2,2,85,0,0
93720,-100,4,2,5,85,0,0
93910,-100,4,2,1,85,0,0
94100,-100,4,2,4,85,0,0
94289,-100,4,2,2,85,0,0
94479,-100,4,2,6,85,0,0
94574,-100,4,2,2,85,0,0
96188,-100,4,2,1,85,0,0
96758,-100,4,2,2,85,0,0
97138,-100,4,2,1,85,0,0
97707,-100,4,2,2,85,0,0
98467,-100,4,2,2,80,0,0
102644,-100,4,2,1,80,0,0
104163,-100,4,2,2,80,0,0
107011,-100,4,2,1,80,0,0
107960,-100,4,2,2,80,0,0
108150,-100,4,2,2,85,0,0
108910,-100,4,2,2,90,0,0
109669,-100,4,2,2,95,0,0
110429,-100,4,2,2,100,0,0
111663,-100,4,2,1,100,0,0
111948,-100,4,2,3,100,0,0
113277,-100,4,2,2,100,0,0
113657,-100,4,2,2,100,0,1
114226,-100,4,2,4,100,0,1
114416,-100,4,2,1,100,0,1
114606,-100,4,2,5,100,0,1
114796,-100,4,2,2,100,0,1
114986,-100,4,2,1,100,0,1
115365,-100,4,2,4,100,0,1
115555,-100,4,2,2,100,0,1
116125,-100,4,2,4,100,0,1
116315,-100,4,2,2,100,0,1
116505,-100,4,2,5,100,0,1
116695,-100,4,2,1,100,0,1
116884,-100,4,2,5,100,0,1
117074,-100,4,2,2,100,0,1
117264,-100,4,2,5,100,0,1
117359,-100,4,2,1,100,0,1
117644,-100,4,2,4,100,0,1
117834,-100,4,2,2,100,0,1
118403,-100,4,2,4,100,0,1
118593,-100,4,2,2,100,0,1
119163,-100,4,2,4,100,0,1
119353,-100,4,2,2,100,0,1
119543,-100,4,2,4,100,0,1
119733,-100,4,2,2,100,0,1
120682,-100,4,2,4,100,0,1
120872,-100,4,2,2,100,0,1
121062,-100,4,2,4,100,0,1
121252,-100,4,2,2,100,0,1
121821,-100,4,2,1,100,0,1
122201,-100,4,2,5,100,0,1
122391,-100,4,2,2,100,0,1
122581,-100,4,2,5,100,0,1
122770,-100,4,2,2,100,0,1
123530,-100,4,2,1,100,0,1
123910,-100,4,2,2,100,0,1
124859,-100,4,2,1,100,0,1
125239,-100,4,2,2,100,0,1
126378,-100,4,2,4,100,0,1
126568,-100,4,2,1,100,0,1
126758,-100,4,2,5,100,0,1
126948,-100,4,2,2,100,0,1
127138,-100,4,2,1,100,0,1
127517,-100,4,2,4,100,0,1
127707,-100,4,2,2,100,0,1
128277,-100,4,2,4,100,0,1
128467,-100,4,2,2,100,0,1
128657,-100,4,2,5,100,0,1
128846,-100,4,2,1,100,0,1
129036,-100,4,2,5,100,0,1
129226,-100,4,2,2,100,0,1
129416,-100,4,2,5,100,0,1
129511,-100,4,2,1,100,0,1
129796,-100,4,2,7,100,0,1
129986,-100,4,2,2,100,0,1
130555,-100,4,2,4,100,0,1
130745,-100,4,2,2,100,0,1
131125,-100,4,2,1,100,0,1
131315,-100,4,2,2,100,0,1
131695,-100,4,2,7,100,0,1
131884,-100,4,2,2,100,0,1
132834,-100,4,2,4,100,0,1
133024,-100,4,2,2,100,0,1
133214,-100,4,2,4,100,0,1
133403,-100,4,2,2,100,0,1
133973,-100,4,2,1,100,0,1
134353,-100,4,2,5,100,0,1
134543,-100,4,2,2,100,0,1
134733,-100,4,2,5,100,0,1
134922,-100,4,2,2,100,0,1
135682,-100,4,2,1,100,0,1
136062,-100,4,2,2,100,0,1
136536,-100,4,2,1,100,0,1
136821,-100,4,2,2,100,0,1
137771,-100,4,2,2,100,0,0
138150,-100,4,2,5,100,0,0
138340,-100,4,2,2,100,0,0
138530,-100,4,2,5,100,0,0
138720,-100,4,2,1,100,0,0
138910,-100,4,2,5,100,0,0
139100,-100,4,2,2,100,0,0
139289,-100,4,2,1,100,0,0
139669,-100,4,2,5,100,0,0
139859,-100,4,2,2,100,0,0
140049,-100,4,2,5,100,0,0
140239,-100,4,2,1,100,0,0
140429,-100,4,2,4,100,0,0
140619,-100,4,2,3,100,0,0
140714,-100,4,2,1,100,0,0
141188,-100,4,2,5,100,0,0
141378,-100,4,2,2,100,0,0
141568,-100,4,2,5,100,0,0
141758,-100,4,2,1,100,0,0
141948,-100,4,2,5,100,0,0
142138,-100,4,2,2,100,0,0
143277,-100,4,2,1,100,0,0
143467,-100,4,2,2,100,0,0
144226,-100,4,2,5,100,0,0
144416,-100,4,2,2,100,0,0
144606,-100,4,2,5,100,0,0
144796,-100,4,2,1,100,0,0
144986,-100,4,2,5,100,0,0
145176,-100,4,2,2,100,0,0
145365,-100,4,2,3,100,0,0
145745,-100,4,2,5,100,0,0
145935,-100,4,2,2,100,0,0
146125,-100,4,2,1,100,0,0
146505,-100,4,2,4,100,0,0
146884,-100,4,2,1,100,0,0
147454,-100,4,2,2,100,0,0
147644,-100,4,2,1,100,0,0
148214,-100,4,2,2,100,0,0
148403,-100,4,2,3,100,0,0
149163,-100,4,2,1,100,0,0
149543,-100,4,2,2,100,0,0
149922,-100,4,2,2,65,0,0
150492,-100,4,2,5,65,0,0
150872,-100,4,2,1,65,0,0
151252,-100,4,2,5,65,0,0
151441,-100,4,2,1,65,0,0
152011,-100,4,2,5,65,0,0
152391,-100,4,2,1,65,0,0
152770,-100,4,2,5,65,0,0
152960,-100,4,2,1,65,0,0
153530,-100,4,2,5,65,0,0
153720,-100,4,2,3,65,0,0
154100,-100,4,2,1,65,0,0
154289,-100,4,2,2,65,0,0
154479,-100,4,2,1,80,0,0
154859,-100,4,2,2,80,0,0
155239,-100,4,2,1,80,0,0
155431,379.746835443038,4,2,1,80,1,0
156190,-100,4,2,2,80,0,0
158468,-100,4,2,1,80,0,0
159228,-100,4,2,2,80,0,0
160177,-100,4,2,1,80,0,0
160937,-100,4,2,2,80,0,0
161506,-100,4,2,2,85,0,0
163975,-100,4,2,1,85,0,0
164355,-100,4,2,2,85,0,0
164734,-100,4,2,1,85,0,0
166823,-100,4,2,2,85,0,0
167393,-100,4,2,2,90,0,0
168152,-100,4,2,1,90,0,0
169861,-100,4,2,2,90,0,0
170620,-100,4,2,2,60,0,0
176696,-100,4,2,2,70,0,0
177076,-100,4,2,8,70,0,0
177456,-100,4,2,1,70,0,0
177836,-100,4,2,8,70,0,0
178025,-100,4,2,1,70,0,0
178595,-100,4,2,8,70,0,0
178975,-100,4,2,1,70,0,0
179355,-100,4,2,8,70,0,0
179734,-100,4,2,1,80,0,0
180114,-100,4,2,8,80,0,0
180494,-100,4,2,1,80,0,0
180874,-100,4,2,2,80,0,0
181253,-100,4,2,2,90,0,0
182772,-100,4,2,2,90,0,1
182867,-100,4,2,2,90,0,0
183152,-100,4,2,2,100,0,1
183342,-100,4,2,4,100,0,1
183532,-100,4,2,1,100,0,1
183722,-100,4,2,5,100,0,1
183912,-100,4,2,2,100,0,1
184101,-100,4,2,1,100,0,1
184481,-100,4,2,4,100,0,1
184671,-100,4,2,2,100,0,1
185241,-100,4,2,4,100,0,1
185431,-100,4,2,2,100,0,1
185620,-100,4,2,5,100,0,1
185810,-100,4,2,1,100,0,1
186000,-100,4,2,5,100,0,1
186190,-100,4,2,2,100,0,1
186380,-100,4,2,5,100,0,1
186475,-100,4,2,1,100,0,1
186760,-100,4,2,7,100,0,1
186949,-100,4,2,2,100,0,1
187519,-100,4,2,4,100,0,1
187709,-100,4,2,2,100,0,1
188089,-100,4,2,1,100,0,1
188279,-100,4,2,2,100,0,1
188658,-100,4,2,7,100,0,1
188848,-100,4,2,2,100,0,1
189798,-100,4,2,4,100,0,1
189987,-100,4,2,2,100,0,1
190177,-100,4,2,4,100,0,1
190367,-100,4,2,2,100,0,1
190937,-100,4,2,1,100,0,1
191317,-100,4,2,5,100,0,1
191506,-100,4,2,2,100,0,1
191696,-100,4,2,5,100,0,1
191886,-100,4,2,2,100,0,1
192646,-100,4,2,1,100,0,1
193025,-100,4,2,2,100,0,1
193690,-100,4,2,1,100,0,1
193785,-100,4,2,2,100,0,1
194734,-100,4,2,2,85,0,0
195304,-100,4,2,1,85,0,0
197013,-100,4,2,2,85,0,0
199481,-100,4,2,1,85,0,0
200051,-100,4,2,3,85,0,0
200810,-100,4,2,3,90,0,0
201190,-100,4,2,4,90,0,0
201380,-100,4,2,2,90,0,0
201570,-100,4,2,4,90,0,0
201760,-100,4,2,1,90,0,0
201949,-100,4,2,4,90,0,0
202139,-100,4,2,2,90,0,0
202329,-100,4,2,4,90,0,0
202519,-100,4,2,1,90,0,0
202709,-100,4,2,4,90,0,0
202899,-100,4,2,2,90,0,0
203089,-100,4,2,4,90,0,0
203279,-100,4,2,2,90,0,0
205367,-100,4,2,3,90,0,0
205747,-100,4,2,2,5,0,0
205794,-100,4,2,3,60,0,0
205937,-100,4,2,3,30,0,0

[Colours]
Combo1 : 45,187,255
Combo2 : 173,255,91
Combo3 : 255,255,89
Combo4 : 255,149,149
Combo5 : 255,179,102

[HitObjects]
71,103,1254,6,0,P|115:104|182:231,1,200,2|10,3:2|3:2,0:0:0:0:
315,253,2583,2,0,L|422:233,1,100,10|2,3:2|2:2,0:0:0:0:
429,328,3342,1,2,2:2:0:0:
429,328,3532,2,0,L|329:347,1,100,10|10,3:2|3:2,0:0:0:0:
248,383,4291,5,10,3:2:0:0:
186,317,4671,1,2,2:2:0:0:
219,233,5051,2,0,P|215:187|119:131,1,150,10|10,3:2|3:2,0:0:0:0:
382,21,6760,6,0,L|446:33,2,50,8|8|4,2:2|2:2|3:2,0:0:0:0:
316,82,7519,1,2,3:3:0:0:
372,154,7899,2,0,L|387:264,1,100,2|2,3:3|3:3,0:0:0:0:
441,324,8659,2,0,P|387:355|258:312,1,200,2|2,3:3|3:3,0:0:0:0:
199,252,9798,2,0,L|208:196,2,50,10|10|4,3:2|3:2|3:2,0:0:0:0:
135,316,10557,5,2,3:3:0:0:
51,283,10937,2,0,L|37:175,1,100,2|2,3:3|3:3,0:0:0:0:
32,93,11697,2,0,B|139:76|104:146|233:121,1,200,6|6,3:2|3:2,0:0:0:0:
283,54,12836,2,0,P|338:44|388:129,1,150,10|6,2:2|3:2,0:0:0:0:
351,193,13785,5,8,0:0:0:0:
382,277,14165,2,0,P|434:277|485:197,1,150,2|10,2:2|3:2,0:0:0:0:
509,115,15114,2,0,L|497:57,1,50,2|10,2:2|2:2,0:0:0:0:
416,29,15684,2,0,P|338:44|265:57,1,150,2|10,2:2|3:2,0:0:0:0:
186,18,16633,6,0,P|163:62|188:158,1,150,2|10,2:2|3:2,0:0:0:0:
278,177,17583,1,10,2:2:0:0:
278,177,17772,2,0,P|314:194|339:307,1,150,6|10,3:2|3:2,0:0:0:0:
283,358,18722,2,0,L|171:338,1,100,10|10,3:2|2:2,0:0:0:0:
97,362,19481,6,0,P|51:337|53:234,1,150,6|2,3:2|3:3,0:0:0:0:
112,189,20431,1,2,3:3:0:0:
198,212,20810,2,0,P|244:189|237:49,1,200,6|2,3:2|3:3,0:0:0:0:
112,35,22140,1,10,2:2:0:0:
52,101,22519,6,0,L|76:254,1,150,6|2,3:2|3:3,0:0:0:0:
66,339,23469,2,0,L|182:322,1,100,2|10,3:3|2:2,0:0:0:0:
254,322,24228,2,0,L|245:378,2,50,10|10|10,2:2|2:2|2:2,0:0:0:0:
334,280,24988,2,0,L|323:226,1,50,8|8,2:2|3:2,0:0:0:0:
240,196,25557,5,4,3:2:0:0:
258,107,25937,1,10,2:2:0:0:
280,19,26317,2,0,P|341:14|409:79,1,150,2|10,2:2|3:2,0:0:0:0:
492,90,27266,2,0,P|485:119|478:149,1,50,2|10,2:2|2:2,0:0:0:0:
405,189,27836,2,0,P|418:274|428:348,1,150,2|10,2:2|3:2,0:0:0:0:
342,370,28785,6,0,P|291:361|256:260,1,150,2|10,2:2|3:2,0:0:0:0:
319,219,29735,1,10,2:2:0:0:
319,219,29924,2,0,P|318:157|230:114,1,150,6|10,3:2|3:2,0:0:0:0:
191,42,30874,1,10,3:2:0:0:
120,97,31254,1,10,2:2:0:0:
47,43,31633,6,0,P|14:83|29:185,1,150,6|2,3:2|3:3,0:0:0:0:
82,243,32583,1,2,3:3:0:0:
169,222,32962,2,0,L|373:193,1,200,6|2,3:2|3:3,0:0:0:0:
385,327,34291,1,10,2:2:0:0:
460,375,34671,2,0,P|506:345|500:252,1,150,6|10,3:2|2:2,0:0:0:0:
510,122,35810,5,10,3:2:0:0:
510,122,36000,2,0,B|425:107|453:55|378:54,1,150,6|10,3:2|3:2,0:0:0:0:
300,14,36950,2,0,P|248:21|218:111,1,150,10|6,3:2|3:2,0:0:0:0:
277,169,37899,2,0,L|378:190,2,100,10|2|6,3:2|3:2|3:2,0:0:0:0:
226,294,39228,6,0,P|188:324|135:313,1,100,6|2,3:2|2:2,0:0:0:0:
61,361,39988,2,0,P|16:343|0:291,1,100,8|2,2:2|2:2,0:0:0:0:
52,225,40747,1,2,3:2:0:0:
85,141,41127,1,2,3:2:0:0:
21,76,41507,2,0,P|51:35|108:36,1,100,10|0,2:2|3:3,0:0:0:0:
174,76,42266,6,0,L|380:52,1,200,2|8,3:2|2:2,0:0:0:0:
422,127,43405,1,8,2:2:0:0:
358,190,43785,2,0,L|372:296,2,100,2|2|2,3:2|3:2|3:2,0:0:0:0:
190,255,45304,5,6,3:2:0:0:
163,340,45684,1,2,3:2:0:0:
246,374,46064,2,0,L|352:357,1,100,10|2,3:2|3:2,0:0:0:0:
434,365,46823,2,0,P|475:338|478:276,2,100,2|2|10,3:2|3:2|3:2,0:0:0:0:
390,236,48152,6,0,B|395:137|329:184|334:43,1,200,6|6,3:2|3:2,0:0:0:0:
245,69,49291,1,2,3:2:0:0:
174,13,49671,2,0,B|85:58|159:91|34:157,1,200,6|6,3:2|3:2,0:0:0:0:
101,222,50810,1,10,3:2:0:0:
88,311,51190,6,0,B|151:352|145:290|236:347,1,150,6|10,3:2|3:2,0:0:0:0:
317,366,52140,1,10,3:2:0:0:
406,363,52519,2,0,L|420:311,1,50,10|10,3:2|3:2,0:0:0:0:
493,263,53089,1,10,3:2:0:0:
433,202,53469,1,10,3:2:0:0:
433,202,53659,2,0,L|319:220,1,100,10|10,2:2|2:2,0:0:0:0:
267,278,54418,6,0,P|227:254|216:188,1,100,6|8,3:2|3:2,0:0:0:0:
121,201,55178,2,0,P|93:241|46:253,2,100,2|8|0,3:2|3:2|3:3,0:0:0:0:
82,119,56317,1,10,3:2:0:0:
150,60,56697,2,0,L|142:9,2,50,2|0|10,3:2|3:3|3:2,0:0:0:0:
234,92,57456,5,2,3:2:0:0:
315,50,57836,1,10,3:2:0:0:
401,92,58216,2,0,L|453:81,1,50,2|0,3:2|3:3,0:0:0:0:
509,148,58785,2,0,B|489:165|489:165|354:193,1,150,6|8,3:2|3:2,0:0:0:0:
350,278,59735,5,10,2:2:0:0:
262,256,60114,1,10,3:2:0:0:
222,175,60494,2,0,L|245:63,1,100,2|14,3:2|3:2,0:0:0:0:
161,35,61254,5,2,3:2:0:0:
73,57,61633,1,10,3:2:0:0:
33,138,62013,2,0,L|56:250,2,100,2|14|0,3:2|3:2|3:3,0:0:0:0:
123,137,63152,1,10,3:2:0:0:
174,211,63532,6,0,L|389:172,1,200,2|10,3:2|2:2,0:0:0:0:
401,260,64671,1,10,2:2:0:0:
357,339,65051,2,0,L|249:325,1,100,6|10,3:2|3:2,0:0:0:0:
213,318,65621,1,10,3:2:0:0:
132,358,66000,1,10,3:2:0:0:
54,324,66380,1,10,3:2:0:0:
54,324,66570,6,0,L|72:213,1,100,6|8,3:2|3:2,0:0:0:0:
98,140,67329,2,0,L|-13:122,2,100,2|8|0,3:2|3:2|3:3,0:0:0:0:
164,201,68469,1,10,3:2:0:0:
236,148,68848,2,0,L|228:86,2,50,2|0|10,3:2|3:3|3:2,0:0:0:0:
311,200,69608,2,0,L|291:310,1,100,6|10,3:2|3:2,0:0:0:0:
353,365,70367,2,0,L|411:376,1,50,2|8,3:2|2:2,0:0:0:0:
476,322,70937,2,0,L|502:163,1,150,6|8,3:2|3:2,0:0:0:0:
459,93,71886,5,10,2:2:0:0:
384,143,72266,1,10,2:2:0:0:
299,111,72646,2,0,P|251:121|191:132,1,100,2|14,3:2|3:2,0:0:0:0:
134,69,73405,5,2,3:2:0:0:
84,144,73785,1,10,3:2:0:0:
116,229,74165,2,0,P|105:276|95:337,2,100,2|14|0,3:2|3:2|3:3,0:0:0:0:
203,205,75304,1,10,3:2:0:0:
276,257,75684,6,0,P|327:235|321:98,1,200,2|10,3:2|2:2,0:0:0:0:
278,33,76823,1,14,2:2:0:0:
365,11,77203,2,0,L|514:50,1,150,2|10,3:2|3:2,0:0:0:0:
457,121,78152,1,10,3:2:0:0:
498,200,78532,6,0,L|478:310,1,100,4|2,3:2|3:3,0:0:0:0:
408,353,79291,2,0,L|298:333,1,100,2|2,3:3|3:3,0:0:0:0:
242,274,80051,2,0,B|261:170|261:170|158:149,1,200,2|2,3:3|3:3,0:0:0:0:
110,82,81190,6,0,L|122:29,2,50,10|10|4,3:2|3:2|3:2,0:0:0:0:
37,136,81950,1,2,3:3:0:0:
25,225,82329,2,0,L|43:330,1,100,2|2,3:3|3:3,0:0:0:0:
124,359,83089,2,0,P|182:357|219:236,1,200,6|6,3:2|3:2,0:0:0:0:
269,163,84228,2,0,L|294:11,1,150,10|6,2:2|3:2,0:0:0:0:
379,41,85178,5,2,0:0:0:0:
465,15,85557,2,0,P|502:41|500:149,1,150,10|10,2:2|3:2,0:0:0:0:
432,188,86507,2,0,L|440:247,1,50,2|2,2:2|2:2,0:0:0:0:
479,317,87076,2,0,B|440:342|440:342|318:353,1,150,10|10,2:2|3:2,0:0:0:0:
249,373,88026,6,0,P|214:344|227:245,1,150,2|10,2:2|3:2,0:0:0:0:
293,191,88947,1,10,2:2:0:0:
293,191,89165,2,0,L|268:19,1,150,6|10,3:2|3:2,0:0:0:0:
183,22,90114,2,0,L|79:44,1,100,10|10,3:2|2:2,0:0:0:0:
20,105,90873,6,0,L|45:277,1,150,6|2,3:2|3:3,0:0:0:0:
100,321,91822,1,2,3:3:0:0:
176,273,92202,2,0,B|230:256|275:283|275:283|324:312|384:271,1,200,6|2,3:2|3:3,0:0:0:0:
308,159,93531,1,10,2:2:0:0:
255,86,93910,6,0,P|293:24|365:16,1,150,6|10,3:2|2:2,0:0:0:0:
492,78,95050,1,10,3:2:0:0:
492,78,95240,2,0,P|480:164|473:239,1,150,6|10,3:2|3:2,0:0:0:0:
497,313,96189,2,0,P|445:329|370:273,1,150,10|14,3:2|3:2,0:0:0:0:
294,231,97138,2,0,P|305:188|319:125,1,100,10|2,3:2|2:2,0:0:0:0:
276,53,97898,1,6,3:2:0:0:
147,94,98467,6,0,P|98:86|47:74,1,100,6|2,3:2|2:2,0:0:0:0:
24,161,99227,2,0,P|16:209|4:261,1,100,8|2,2:2|2:2,0:0:0:0:
91,284,99986,2,0,P|139:291|191:304,2,100,2|2|10,3:2|3:2|2:2,0:0:0:0:
123,199,101126,1,0,3:3:0:0:
210,177,101505,6,0,P|264:193|293:334,1,200,4|8,3:2|2:2,0:0:0:0:
364,383,102645,1,8,2:2:0:0:
446,347,103024,2,0,P|464:304|506:272,2,100,2|2|2,3:2|3:2|3:2,0:0:0:0:
483,170,104543,5,6,3:2:0:0:
394,184,104923,1,2,3:2:0:0:
308,154,105303,2,0,P|256:160|203:165,1,100,10|2,3:2|3:2,0:0:0:0:
137,219,106062,2,0,P|89:196|77:141,2,100,2|2|10,3:2|3:2|3:2,0:0:0:0:
174,89,107391,6,0,P|201:37|328:57,1,200,6|6,3:2|3:2,0:0:0:0:
399,100,108531,1,2,3:2:0:0:
412,188,108910,2,0,P|443:237|362:337,1,200,6|6,3:2|3:2,0:0:0:0:
289,377,110050,1,10,3:2:0:0:
207,344,110429,6,0,P|164:348|116:255,1,150,6|10,3:2|3:2,0:0:0:0:
164,193,111379,1,10,3:2:0:0:
112,119,111759,2,0,L|53:128,1,50,10|10,3:2|3:2,0:0:0:0:
12,51,112328,1,10,3:2:0:0:
95,11,112708,1,10,3:2:0:0:
95,11,112898,2,0,L|208:37,1,100,10|10,2:2|2:2,0:0:0:0:
280,14,113657,6,0,P|322:30|355:89,1,100,6|8,3:2|3:2,0:0:0:0:
266,103,114417,2,0,L|240:209,2,100,2|8|0,3:2|3:2|3:3,0:0:0:0:
184,64,115556,1,10,3:2:0:0:
114,120,115936,2,0,P|65:126|-5:131,1,100,2|10,3:2|3:2,0:0:0:0:
26,219,116695,5,2,3:2:0:0:
89,282,117075,1,10,3:2:0:0:
178,275,117455,2,0,L|169:332,1,50,2|0,3:2|3:3,0:0:0:0:
250,365,118024,2,0,P|312:365|349:280,1,150,6|8,3:2|3:2,0:0:0:0:
424,240,118974,6,0,L|486:251,2,50,10|0|10,2:2|3:3|3:2,0:0:0:0:
400,153,119733,2,0,P|393:104|386:45,1,100,2|14,3:2|3:2,0:0:0:0:
298,34,120493,6,0,L|246:16,2,50,2|0|10,3:2|3:3|3:2,0:0:0:0:
254,113,121252,2,0,P|261:162|268:221,2,100,2|14|0,3:2|3:2|3:3,0:0:0:0:
343,119,122391,1,10,3:2:0:0:
425,81,122771,6,0,L|459:300,1,200,2|10,3:2|2:2,0:0:0:0:
404,352,123910,1,10,2:2:0:0:
319,319,124290,2,0,P|258:312|203:384,1,150,6|10,3:2|3:2,0:0:0:0:
129,323,125240,1,10,3:2:0:0:
47,353,125619,5,10,3:2:0:0:
47,353,125809,2,0,L|28:238,1,100,6|8,3:2|3:2,0:0:0:0:
94,190,126569,2,0,L|113:75,2,100,2|8|0,3:2|3:2|3:3,0:0:0:0:
178,221,127708,1,10,3:2:0:0:
249,165,128088,2,0,L|241:113,2,50,2|0|10,3:2|3:3|3:2,0:0:0:0:
304,235,128847,6,0,P|357:237|395:194,1,100,6|10,3:2|3:2,0:0:0:0:
459,149,129607,1,2,3:2:0:0:
459,149,129797,1,8,2:2:0:0:
422,66,130176,2,0,B|390:46|352:67|352:67|315:93|277:69,1,150,6|8,3:2|3:2,0:0:0:0:
197,37,131126,6,0,L|145:26,2,50,10|0|10,2:2|3:3|2:2,0:0:0:0:
163,120,131885,2,0,P|146:164|142:231,1,100,2|14,3:2|3:2,0:0:0:0:
216,265,132645,2,0,L|268:276,2,50,2|0|10,3:2|3:3|3:2,0:0:0:0:
250,182,133404,2,0,P|267:138|271:71,2,100,2|14|0,3:2|3:2|3:3,0:0:0:0:
337,204,134543,1,10,3:2:0:0:
416,162,134923,6,0,P|465:178|518:190,1,100,2|12,3:2|3:2,0:0:0:0:
491,276,135683,2,0,P|475:325|463:378,1,100,10|14,2:2|2:2,0:0:0:0:
379,341,136442,2,0,P|309:318|233:301,1,150,2|10,3:2|3:2,0:0:0:0:
180,229,137391,1,10,3:2:0:0:
241,163,137771,6,0,P|246:123|171:46,1,150,4|10,3:2|3:2,0:0:0:0:
90,23,138721,1,2,3:2:0:0:
27,87,139100,1,8,3:2:0:0:
27,87,139290,2,0,P|40:166|48:246,1,150,6|8,3:3|3:2,0:0:0:0:
29,324,140240,1,0,3:3:0:0:
118,358,140619,5,10,3:2:0:0:
118,358,140809,2,0,P|191:359|233:281,1,150,6|10,3:2|3:2,0:0:0:0:
273,220,141759,2,0,P|315:212|388:291,1,150,0|6,3:3|3:2,0:0:0:0:
448,345,142708,2,0,L|504:331,1,50,0|14,0:0|3:2,0:0:0:0:
509,243,143278,2,0,L|472:84,1,150,8|6,3:2|3:2,0:0:0:0:
352,39,144417,6,0,P|319:80|326:124,1,100,8|2,3:2|3:2,0:0:0:0:
362,212,145176,1,8,3:2:0:0:
362,212,145366,2,0,P|282:227|216:242,1,150,12|8,3:2|3:2,0:0:0:0:
157,312,146316,1,2,3:2:0:0:
86,266,146695,5,8,2:2:0:0:
86,266,146885,2,0,L|111:102,1,150,12|10,3:2|3:2,0:0:0:0:
145,91,147645,2,0,L|309:116,1,150,12|10,3:2|3:2,0:0:0:0:
329,140,148404,2,0,L|297:346,1,200,12|10,3:2|3:2,0:0:0:0:
385,363,149543,2,0,L|447:355,2,50,10|10|2,3:2|3:2|3:2,0:0:0:0:
256,192,150113,12,10,153910,2:2:0:0:
355,31,155431,6,0,P|406:41|438:182,1,200,4|10,3:2|3:2,0:0:0:0:
497,249,156570,1,2,2:2:0:0:
497,249,156760,2,0,P|454:288|359:279,1,150,2|2,3:2|3:2,0:0:0:0:
297,341,157709,2,0,P|248:329|193:325,2,100,8|2|8,2:2|2:2|3:2,0:0:0:0:
285,251,158848,5,2,2:2:0:0:
230,179,159228,2,0,L|242:77,1,100,8|2,2:2|2:2,0:0:0:0:
271,45,159798,2,0,P|238:11|139:26,1,150,4|0,3:2|3:3,0:0:0:0:
63,64,160747,2,0,L|53:168,1,100,8|10,3:2|2:2,0:0:0:0:
94,243,161506,6,0,P|67:289|18:297,2,100,4|2|10,3:2|2:2|3:2,0:0:0:0:
180,209,162646,1,0,3:3:0:0:
180,209,162836,2,0,P|232:216|289:302,1,150,4|0,3:2|0:0,0:0:0:0:
356,348,163785,2,0,P|405:354|452:272,1,150,8|12,2:2|3:2,0:0:0:0:
497,199,164734,6,0,P|484:151|471:33,1,150,8|8,3:2|3:2,0:0:0:0:
390,20,165684,1,8,3:2:0:0:
390,20,165874,2,0,P|354:55|259:125,1,150,4|8,3:2|3:2,0:0:0:0:
288,202,166823,2,0,P|336:214|444:262,1,150,8|4,3:2|3:2,0:0:0:0:
426,343,167772,2,0,L|371:359,1,50,8|8,2:2|2:2,0:0:0:0:
289,373,168342,6,0,B|206:371|243:324|141:334,1,150,10|6,3:2|3:2,0:0:0:0:
63,363,169291,1,4,3:2:0:0:
17,285,169671,1,4,3:2:0:0:
17,285,169861,2,0,L|30:177,2,100,8|8|2,2:2|2:2|2:2,0:0:0:0:
66,49,176696,6,0,L|170:69,1,100,4|2,3:2|2:2,0:0:0:0:
213,143,177456,2,0,L|317:163,1,100,2|2,2:2|2:2,0:0:0:0:
360,237,178215,2,0,L|464:257,2,100,2|2|2,3:2|2:2|2:2,0:0:0:0:
327,321,179355,1,2,2:2:0:0:
251,370,179734,6,0,P|206:356|172:215,1,200,4|2,3:2|2:2,0:0:0:0:
241,171,180874,2,0,L|255:58,1,100,10|4,2:2|3:2,0:0:0:0:
124,31,181823,5,8,3:2:0:0:
44,73,182203,1,8,3:2:0:0:
57,166,182582,1,8,3:2:0:0:
57,166,182772,6,0,L|41:273,1,100,2|4,3:2|3:2,0:0:0:0:
105,329,183532,2,0,L|212:345,2,100,2|8|0,3:2|3:2|3:3,0:0:0:0:
132,243,184671,1,10,3:2:0:0:
202,187,185051,2,0,L|195:132,2,50,2|0|10,3:2|3:3|3:2,0:0:0:0:
285,221,185810,2,0,L|385:249,1,100,6|10,3:2|3:2,0:0:0:0:
415,331,186570,2,0,L|468:321,1,50,2|8,3:2|2:2,0:0:0:0:
508,243,187139,2,0,P|508:189|424:122,1,150,6|8,3:2|3:2,0:0:0:0:
371,69,188089,5,10,2:2:0:0:
297,121,188468,1,10,2:2:0:0:
215,83,188848,2,0,P|209:141|200:188,1,100,2|14,3:2|3:2,0:0:0:0:
143,251,189608,5,2,3:2:0:0:
217,303,189987,1,10,3:2:0:0:
299,265,190367,2,0,P|305:323|314:370,2,100,2|14|0,3:2|3:2|3:3,0:0:0:0:
371,211,191506,1,10,3:2:0:0:
383,121,191886,6,0,P|363:82|303:66,1,100,2|12,3:2|3:2,0:0:0:0:
237,13,192646,2,0,P|193:10|149:54,1,100,10|14,2:2|2:2,0:0:0:0:
64,62,193405,2,0,P|81:141|93:224,1,150,2|10,3:2|3:2,0:0:0:0:
49,289,194355,1,10,3:2:0:0:
119,344,194734,6,0,P|180:373|266:249,1,250,4|0,3:2|3:0,0:0:0:0:
136,210,196253,2,0,B|121:169|140:141|140:141|161:107|143:65,1,150,4|2,3:2|3:2,0:0:0:0:
221,20,197203,1,8,2:2:0:0:
273,92,197582,1,8,3:2:0:0:
353,56,197962,6,0,L|455:45,1,100,2|0,3:2|3:3,0:0:0:0:
465,134,198722,2,0,L|363:145,1,100,2|0,3:2|3:3,0:0:0:0:
321,223,199481,1,10,3:2:0:0:
256,341,200051,1,10,3:2:0:0:
169,315,200431,2,0,L|110:328,2,50,10|2|6,3:2|3:2|3:2,0:0:0:0:
209,234,201190,5,2,3:3:0:0:
254,156,201570,2,0,P|243:108|233:39,1,100,2|2,3:3|3:3,0:0:0:0:
151,24,202329,2,0,P|112:27|74:82,1,100,2|2,3:3|3:3,0:0:0:0:
12,136,203089,1,2,3:3:0:0:
12,136,203279,2,0,P|23:194|28:244,1,100,2|10,3:2|2:2,0:0:0:0:
71,313,204038,5,12,3:2:0:0:
150,270,204418,1,10,3:2:0:0:
228,314,204798,2,0,L|283:306,1,50,10|10,3:2|3:2,0:0:0:0:
346,249,205367,2,0,P|399:262|426:353,1,150,14|0,3:2|0:0,0:0:0:0:
