osu file format v14

[General]
AudioFilename: audio.mp3
AudioLeadIn: 0
PreviewTime: 45729
Countdown: 0
SampleSet: Soft
StackLeniency: 0.7
Mode: 0
LetterboxInBreaks: 0
WidescreenStoryboard: 1

[Editor]
Bookmarks: 1054,1680,12060,18966,32779,38822,46592,74205,88017
DistanceSpacing: 1.2
BeatDivisor: 12
GridSize: 4
TimelineZoom: 1.9

[Metadata]
Title:Namaramenkoi Gal (TV Size)
TitleUnicode:なまらめんこいギャル (TV Size)
Artist:Oishi Masayoshi
ArtistUnicode:オーイシマサヨシ
Creator:bossandy
Version:Super Adorable!
Source:道産子ギャルはなまらめんこい
Tags:Japanese Anime Opening J-pop Jpop pop male vocalist Dosanko Gal wa Namaramenkoi Hokkaido Gals Are Super Adorable! Namara Menkoi 大石昌良 Silent Rock Silent_Rock Kyle_Y Kyle Y
BeatmapID:4447746
BeatmapSetID:2117782

[Difficulty]
HPDrainRate:5
CircleSize:4.4
OverallDifficulty:7.5
ApproachRate:8.9
SliderMultiplier:1.7
SliderTickRate:1

[Events]
//Background and Video events
0,0,"BG.jpg",0,0
Video,-175,"video.mp4"
//Break Periods
//Storyboard Layer 0 (Background)
//Storyboard Layer 1 (Fail)
//Storyboard Layer 2 (Pass)
//Storyboard Layer 3 (Foreground)
//Storyboard Layer 4 (Overlay)
//Storyboard Sound Samples

[TimingPoints]
-25,431.654676258993,4,2,1,50,1,0
1680,465.116279069767,4,2,1,50,1,0
1680,-125,4,2,1,50,0,0
1912,431.654676258993,4,2,1,50,1,8
1912,-125,4,2,1,50,0,0
2127,431.654676258993,4,2,1,50,1,8
2127,-125,4,2,1,50,0,0
3421,431.654676258993,4,2,1,50,1,8
3421,-125,4,2,1,50,0,0
9356,-100,4,2,3,70,0,0
9464,-100,4,2,2,70,0,0
11406,-100,4,2,1,70,0,0
12060,431.654676258993,4,2,1,70,1,0
12060,-90.9090909090909,4,2,1,70,0,0
14649,-50,4,2,1,70,0,0
15513,-90.9090909090909,4,2,1,70,0,0
16916,-90.9090909090909,4,2,3,70,0,0
17024,-90.9090909090909,4,2,2,70,0,0
17239,-90.9090909090909,4,2,1,70,0,0
17617,-90.9090909090909,4,2,1,5,0,0
17779,-90.9090909090909,4,2,1,70,0,0
17833,-90.9090909090909,4,2,1,5,0,0
17995,-90.9090909090909,4,2,1,70,0,0
18049,-90.9090909090909,4,2,1,5,0,0
18211,-90.9090909090909,4,2,1,70,0,0
18265,-90.9090909090909,4,2,1,5,0,0
18426,-90.9090909090909,4,2,1,70,0,0
18642,-50,4,2,1,70,0,0
18912,-90.9090909090909,4,2,1,5,0,0
18966,-100,4,2,1,70,0,0
21556,-50,4,2,1,70,0,0
22419,-100,4,2,1,70,0,0
25009,-50,4,2,1,70,0,0
25872,-100,4,2,1,70,0,0
29685,-100,4,2,1,70,0,0
29757,-100,4,2,1,5,0,0
30045,-100,4,2,1,70,0,0
30621,-100,4,2,1,70,0,0
30693,-100,4,2,1,5,0,0
31052,-90.9090909090909,4,2,3,70,0,0
31160,-90.9090909090909,4,2,2,70,0,0
31268,-90.9090909090909,4,2,1,70,0,0
33858,-90.9090909090909,4,2,1,5,0,0
33966,-50,4,2,1,70,0,0
34182,-90.9090909090909,4,2,1,5,0,0
34290,-50,4,2,1,70,0,0
34613,-50,4,2,1,5,0,0
34721,-90.9090909090909,4,2,1,70,0,0
35693,-50,4,2,1,70,0,0
35908,-50,4,2,1,5,0,0
36016,-50,4,2,1,70,0,0
36124,-50,4,2,1,5,0,0
36232,-90.9090909090909,4,2,1,70,0,0
38067,-90.9090909090909,4,2,1,5,0,0
38175,-90.9090909090909,4,2,1,70,0,0
39254,-90.9090909090909,4,2,3,70,0,0
39470,-90.9090909090909,4,2,2,70,0,0
39685,-90.9090909090909,4,2,1,70,0,0
40765,-90.9090909090909,4,2,1,5,0,0
40872,-90.9090909090909,4,2,1,70,0,0
41088,-90.9090909090909,4,2,1,5,0,0
41196,-90.9090909090909,4,2,1,70,0,0
42923,-50,4,2,1,70,0,0
44973,-50,4,2,1,5,0,0
45081,-50,4,2,1,70,0,0
45513,-100,4,2,2,70,0,0
46160,-166.666666666667,4,2,2,70,0,0
46592,-76.9230769230769,4,2,1,90,0,1
47024,-50,4,2,1,90,0,1
47239,-76.9230769230769,4,2,1,90,0,1
47995,-76.9230769230769,4,2,1,5,0,1
48103,-76.9230769230769,4,2,1,90,0,1
50477,-50,4,2,1,90,0,1
50693,-76.9230769230769,4,2,1,90,0,1
51448,-76.9230769230769,4,2,1,5,0,1
51556,-50,4,2,1,90,0,1
51772,-76.9230769230769,4,2,1,90,0,1
53175,-76.9230769230769,4,2,2,90,0,1
53283,-76.9230769230769,4,2,3,90,0,1
53498,-76.9230769230769,4,2,1,90,0,1
56736,-50,4,2,1,90,0,1
57167,-76.9230769230769,4,2,1,90,0,1
58462,-50,4,2,1,90,0,1
58894,-76.9230769230769,4,2,1,90,0,1
60729,-76.9230769230769,4,2,1,5,0,1
60836,-50,4,2,1,90,0,1
61052,-76.9230769230769,4,2,1,90,0,1
61808,-76.9230769230769,4,2,1,5,0,1
61916,-76.9230769230769,4,2,1,90,0,1
64290,-50,4,2,1,90,0,1
64506,-76.9230769230769,4,2,1,90,0,1
65261,-76.9230769230769,4,2,1,5,0,1
65369,-50,4,2,1,90,0,1
65585,-76.9230769230769,4,2,1,90,0,1
66772,-76.9230769230769,4,2,1,5,0,1
66880,-76.9230769230769,4,2,1,90,0,1
66988,-76.9230769230769,4,2,2,90,0,1
67095,-76.9230769230769,4,2,3,90,0,1
67311,-76.9230769230769,4,2,1,90,0,1
68822,-50,4,2,1,90,0,1
69038,-76.9230769230769,4,2,1,90,0,1
70980,-76.9230769230769,4,2,2,90,0,1
71088,-76.9230769230769,4,2,3,90,0,1
71196,-76.9230769230769,4,2,1,90,0,1
73354,-50,4,2,1,90,0,1
73462,-50,4,2,1,5,0,1
73558,431.654676258993,4,2,1,90,1,9
73558,-76.9230769230769,4,2,1,90,0,1
74205,431.654676258993,4,2,1,70,1,0
74205,-90.9090909090909,4,2,1,70,0,0
76794,-50,4,2,1,70,0,0
77658,-90.9090909090909,4,2,1,70,0,0
79061,-90.9090909090909,4,2,3,70,0,0
79169,-90.9090909090909,4,2,2,70,0,0
79384,-90.9090909090909,4,2,1,70,0,0
79708,-90.9090909090909,4,2,1,70,0,0
79762,-90.9090909090909,4,2,1,5,0,0
79924,-90.9090909090909,4,2,1,70,0,0
79978,-90.9090909090909,4,2,1,5,0,0
80140,-90.9090909090909,4,2,1,70,0,0
80194,-90.9090909090909,4,2,1,5,0,0
80356,-90.9090909090909,4,2,1,70,0,0
80410,-90.9090909090909,4,2,1,5,0,0
80571,-90.9090909090909,4,2,1,70,0,0
83701,-50,4,2,1,70,0,0
84564,-90.9090909090909,4,2,1,70,0,0
85967,-90.9090909090909,4,2,3,70,0,0
86075,-90.9090909090909,4,2,2,70,0,0
86291,-90.9090909090909,4,2,1,70,0,0
86615,-90.9090909090909,4,2,1,70,0,0
86669,-90.9090909090909,4,2,1,5,0,0
86830,-90.9090909090909,4,2,1,70,0,0
86885,-90.9090909090909,4,2,1,5,0,0
87046,-90.9090909090909,4,2,1,70,0,0
87100,-90.9090909090909,4,2,1,5,0,0
87262,-90.9090909090909,4,2,1,70,0,0
87316,-90.9090909090909,4,2,1,5,0,0
87478,-90.9090909090909,4,2,1,70,0,0

[Colours]
Combo1 : 190,190,218
Combo2 : 251,220,157
Combo3 : 230,115,172
Combo4 : 113,108,109

[HitObjects]
161,259,1054,5,2,0:0:0:0:
161,259,1162,1,0,0:0:0:0:
161,259,1269,1,2,1:2:0:0:
96,322,1485,1,2,0:0:0:0:
66,231,1680,5,6,3:2:0:0:
184,180,1912,2,0,L|252:192,1,68,2|2,1:2|0:0,0:0:0:0:
120,100,2342,2,0,L|52:112,1,68,2|2,1:2|0:0,0:0:0:0:
184,20,2774,2,0,L|252:32,1,68,2|2,1:2|0:0,0:0:0:0:
372,56,3206,6,0,L|508:32,1,136,2|0,1:2|0:0,0:0:0:0:
452,144,3852,1,2,0:0:0:0:
340,228,4068,2,0,L|356:145,1,68,2|0,1:2|0:0,0:0:0:0:
452,144,4500,1,0,1:0:0:0:
456,320,4715,2,0,L|439:237,1,68,2|0,0:0|1:0,0:0:0:0:
368,368,5147,5,2,0:0:0:0:
268,300,5363,2,0,P|234:302|200:320,1,68,2|2,1:2|0:0,0:0:0:0:
107,200,5795,2,0,P|140:202|172:220,1,68,2|2,1:2|0:0,0:0:0:0:
112,296,6226,1,2,1:2:0:0:
112,296,6442,1,2,0:0:0:0:
12,200,6658,6,0,P|16:132|38:67,1,136,2|2,1:2|1:2,0:0:0:0:
136,144,7305,1,2,0:0:0:0:
264,40,7521,2,0,P|261:73|244:104,1,68,2|0,1:2|0:0,0:0:0:0:
144,32,7953,1,0,1:0:0:0:
136,144,8169,2,0,P|152:176|184:200,1,68,2|2,0:0|1:2,0:0:0:0:
360,120,8600,5,2,0:0:0:0:
392,104,9032,1,2,0:0:0:0:
472,232,9248,1,2,1:2:0:0:
466,259,9356,1,0,3:0:0:0:
461,286,9464,1,2,3:2:0:0:
392,104,9679,1,2,3:2:0:0:
264,244,9895,1,2,3:2:0:0:
448,372,10111,5,10,3:2:0:0:
448,372,11190,2,0,L|456:276,1,85,2|8,3:2|0:0,0:0:0:0:
404,232,11514,1,8,0:0:0:0:
404,232,11622,2,0,L|408:176,1,42.5,10|8,0:0|0:0,0:0:0:0:
352,144,11838,2,0,L|356:84,1,42.5,8|8,0:0|0:0,0:0:0:0:
384,36,12060,6,0,P|336:32|296:56,1,93.5000028533937,6|0,3:2|1:0,0:0:0:0:
232,144,12491,1,10,0:0:0:0:
60,68,12707,2,0,L|68:0,2,46.7500014266968,0|2|2,1:0|0:0|3:2,0:0:0:0:
128,196,13139,2,0,L|120:248,1,46.7500014266968,2|2,1:2|0:0,0:0:0:0:
112,320,13354,1,8,0:0:0:0:
150,324,13462,1,2,0:0:0:0:
188,308,13570,1,2,1:2:0:0:
226,312,13678,1,2,0:0:0:0:
263,295,13786,1,2,3:2:0:0:
432,340,14002,2,0,L|492:332,2,46.7500014266968,2|2|10,1:2|0:0|0:0,0:0:0:0:
388,200,14434,1,2,1:2:0:0:
388,200,14542,1,2,0:0:0:0:
388,200,14649,6,0,B|397:136|397:136|383:93|383:93|392:34,1,170,6|0,3:2|1:0,0:0:0:0:
271,150,15081,2,0,B|261:213|261:213|275:256|275:256|266:315,1,170,14|0,0:0|1:0,0:0:0:0:
152,352,15513,6,0,L|168:252,1,93.5000028533937,6|0,3:2|1:0,0:0:0:0:
184,152,15944,1,10,0:0:0:0:
76,260,16160,2,0,L|68:308,1,46.7500014266968,0|2,1:0|0:0,0:0:0:0:
252,331,16376,1,2,3:2:0:0:
252,331,16484,1,8,0:0:0:0:
252,332,16592,2,0,L|259:285,1,46.7500014266968,2|2,1:2|3:2,0:0:0:0:
344,268,16808,1,8,0:0:0:0:
341,245,16916,1,0,3:0:0:0:
338,222,17024,1,0,3:0:0:0:
335,200,17131,1,0,3:0:0:0:
355,163,17239,5,10,0:0:0:0:
347,119,17347,1,10,0:0:0:0:
369,82,17455,1,10,0:0:0:0:
365,41,17563,2,0,L|362:17,1,23.3750007133484,10|0,0:0|0:0,0:0:0:0:
452,140,17779,2,0,L|455:166,1,23.3750007133484,10|0,0:0|0:0,0:0:0:0:
270,95,17995,2,0,L|267:69,1,23.3750007133484,10|0,0:0|0:0,0:0:0:0:
360,217,18211,2,0,L|363:243,1,23.3750007133484,10|0,0:0|0:0,0:0:0:0:
172,164,18426,1,10,0:0:0:0:
164,128,18534,1,10,0:0:0:0:
172,92,18642,6,0,B|153:55|153:55|117:33|117:33|71:25|71:25|30:34|30:34|1:61,1,212.5,10|0,0:0|0:0,0:0:0:0:
81,111,18966,5,6,3:2:0:0:
26,264,19398,2,0,B|59:238|59:238|67:195,1,85,8|2,0:0|0:0,0:0:0:0:
185,218,19829,2,0,L|178:264,1,42.5,2|0,3:2|0:0,0:0:0:0:
259,228,20045,1,2,0:0:0:0:
259,228,20153,2,0,L|246:323,1,85,2|2,0:0|0:0,0:0:0:0:
274,306,20477,5,2,0:0:0:0:
302,301,20585,1,2,0:0:0:0:
330,296,20693,1,2,3:2:0:0:
512,302,20908,2,0,L|483:333,1,42.5,2|2,0:0|0:0,0:0:0:0:
448,265,21124,2,0,L|407:278,1,42.5,10|0,0:0|0:0,0:0:0:0:
400,202,21340,2,0,L|358:193,1,42.5,2|2,0:0|0:0,0:0:0:0:
294,140,21556,6,0,B|324:107|372:111|372:111|461:130,1,170,6|0,3:2|0:0,0:0:0:0:
293,46,21988,2,0,B|263:13|215:17|215:17|126:36,1,170,14|0,0:0|0:0,0:0:0:0:
228,98,22419,5,6,3:2:0:0:
133,34,22635,2,0,L|88:41,1,42.5,2|2,0:0|0:0,0:0:0:0:
100,113,22851,2,0,L|55:120,1,42.5,10|2,0:0|0:0,0:0:0:0:
67,192,23067,2,0,L|22:199,1,42.5,2|2,0:0|0:0,0:0:0:0:
127,240,23283,1,2,3:2:0:0:
127,240,23390,2,0,L|233:223,1,85,2|2,0:0|0:0,0:0:0:0:
160,314,23714,2,0,L|201:307,1,42.5,8|2,0:0|0:0,0:0:0:0:
110,374,23930,5,2,0:0:0:0:
89,370,24038,1,2,0:0:0:0:
68,367,24146,1,2,3:2:0:0:
210,226,24362,1,2,0:0:0:0:
231,222,24470,1,2,0:0:0:0:
252,219,24577,1,10,0:0:0:0:
68,85,24793,2,0,L|27:78,1,42.5,2|2,0:0|0:0,0:0:0:0:
144,104,25009,6,0,B|185:112|185:112|226:99|226:99|267:107|267:107|308:95,1,170,6|0,3:2|0:0,0:0:0:0:
428,12,25441,2,0,B|386:3|386:3|345:16|345:16|304:8|304:8|263:20,1,170,14|0,0:0|0:0,0:0:0:0:
468,88,25872,5,6,3:2:0:0:
474,108,25980,1,2,0:0:0:0:
476,129,26088,1,2,0:0:0:0:
472,150,26196,1,2,0:0:0:0:
465,170,26304,1,10,0:0:0:0:
372,256,26520,1,2,0:0:0:0:
264,192,26736,1,2,3:2:0:0:
243,185,26844,1,2,0:0:0:0:
222,184,26952,1,2,0:0:0:0:
201,187,27060,1,2,0:0:0:0:
180,192,27167,2,0,L|172:248,1,42.5,10|2,0:0|0:0,0:0:0:0:
124,292,27383,5,2,0:0:0:0:
127,313,27491,1,2,0:0:0:0:
130,334,27599,1,2,3:2:0:0:
251,281,27815,5,2,0:0:0:0:
255,312,27923,1,2,0:0:0:0:
260,344,28031,1,10,0:0:0:0:
392,252,28247,5,2,0:0:0:0:
398,294,28354,1,2,0:0:0:0:
404,336,28462,2,0,L|476:324,1,42.5,6|8,3:2|0:0,0:0:0:0:
292,274,28678,2,0,L|250:280,1,42.5,8|8,0:0|0:0,0:0:0:0:
376,160,28894,1,14,0:0:0:0:
408,154,29002,1,8,0:0:0:0:
439,149,29110,1,8,0:0:0:0:
471,144,29218,1,8,0:0:0:0:
460,220,29326,5,6,3:2:0:0:
52,164,29685,6,0,L|18:150,1,28.3333333333333,2|0,0:0|0:0,0:0:0:0:
208,232,30045,5,8,0:0:0:0:
240,240,30153,1,8,0:0:0:0:
272,232,30261,1,8,0:0:0:0:
304,240,30369,1,12,3:2:0:0:
52,164,30621,6,0,L|18:150,1,28.3333333333333,2|0,0:0|0:0,0:0:0:0:
460,220,31052,6,0,L|448:152,1,46.7500014266968,0|0,3:0|3:0,0:0:0:0:
436,72,31268,1,8,0:0:0:0:
256,136,31484,1,8,0:0:0:0:
76,72,31700,1,8,0:0:0:0:
256,136,31916,1,10,0:0:0:0:
254,153,32024,1,0,3:0:0:0:
253,170,32131,1,0,3:0:0:0:
251,188,32239,1,0,3:0:0:0:
250,205,32347,2,0,L|241:283,1,46.7500014266968,10|0,0:0|3:0,0:0:0:0:
176,228,32563,2,0,L|170:274,1,46.7500014266968,0|0,3:0|3:0,0:0:0:0:
98,299,32779,5,6,3:2:0:0:
50,152,32995,1,2,3:2:0:0:
197,105,33211,1,10,0:0:0:0:
244,251,33426,1,2,0:0:0:0:
50,152,33642,2,0,L|144:160,1,93.5000028533936,2|0,3:2|0:0,0:0:0:0:
197,105,33966,6,0,B|258:111|258:111|300:93|300:93|371:100,1,170,6|0,3:2|0:0,0:0:0:0:
333,175,34290,6,0,P|425:155|389:23,1,255,6|0,3:2|0:0,0:0:0:0:
396,25,34721,5,2,3:2:0:0:
333,175,34937,1,10,0:0:0:0:
184,112,35153,1,2,0:0:0:0:
121,262,35369,2,0,L|142:354,1,93.5000028533936,2|2,3:2|0:0,0:0:0:0:
67,346,35693,6,0,L|28:180,1,170,6|0,3:2|0:0,0:0:0:0:
107,189,36016,6,0,B|192:201,1,85,6|0,3:2|0:0,0:0:0:0:
28,180,36232,5,2,0:0:0:0:
161,118,36448,1,2,3:2:0:0:
28,180,36664,1,10,0:0:0:0:
199,280,36880,2,0,L|263:263,1,46.7500014266968,2|8,0:0|0:0,0:0:0:0:
121,262,37095,1,2,3:2:0:0:
256,352,37311,1,2,0:0:0:0:
391,262,37527,1,10,0:0:0:0:
256,140,37743,6,0,P|183:99|180:32,1,140.25000428009,6|0,3:2|0:0,0:0:0:0:
256,60,38175,1,0,3:0:0:0:
256,224,38390,2,0,P|328:183|332:116,1,140.25000428009,8|8,0:0|0:0,0:0:0:0:
256,140,38822,6,0,P|228:136|200:120,1,46.7500014266968,2|8,3:2|0:0,0:0:0:0:
156,184,39038,2,0,P|139:161|130:130,1,46.7500014266968,8|0,0:0|3:0,0:0:0:0:
160,56,39254,1,2,3:2:0:0:
136,57,39362,1,0,3:0:0:0:
113,59,39470,1,0,3:0:0:0:
90,60,39577,1,0,3:0:0:0:
66,62,39685,5,6,3:2:0:0:
12,208,39901,1,2,3:2:0:0:
156,184,40117,1,10,0:0:0:0:
102,330,40333,1,2,0:0:0:0:
102,330,40441,1,8,0:0:0:0:
102,330,40549,2,0,L|208:300,1,93.5000028533936,2|0,3:2|0:0,0:0:0:0:
256,348,40872,2,0,L|362:318,1,93.5000028533936,2|0,3:2|0:0,0:0:0:0:
411,368,41196,6,0,P|424:328|408:272,1,93.5000028533936,6|0,3:2|3:0,0:0:0:0:
344,244,41520,1,2,3:2:0:0:
344,244,41628,2,0,L|348:197,1,46.7500014266968,2|0,3:2|0:0,0:0:0:0:
424,116,41844,2,0,L|419:162,1,46.7500014266968,10|0,0:0|3:0,0:0:0:0:
364,64,42060,2,0,L|368:17,1,46.7500014266968,2|0,0:0|0:0,0:0:0:0:
288,76,42275,2,0,L|279:169,1,93.5000028533936,2|2,3:2|0:0,0:0:0:0:
208,192,42599,1,2,3:2:0:0:
208,192,42707,1,8,0:0:0:0:
64,160,42923,6,0,P|37:24|184:70,1,340,6|2,3:2|1:2,0:0:0:0:
208,192,43570,1,2,3:2:0:0:
100,84,43786,1,2,1:2:0:0:
208,192,44002,1,2,3:2:0:0:
100,300,44218,1,0,1:0:0:0:
284,192,44434,1,2,3:2:0:0:
100,84,44649,6,0,B|151:34|216:63|216:63|282:92|333:42,1,255,6|0,3:2|0:0,0:0:0:0:
334,42,45081,1,10,0:0:0:0:
176,136,45297,1,10,0:0:0:0:
376,236,45513,1,2,3:2:0:0:
376,236,45944,5,2,0:0:0:0:
412,168,46160,2,0,L|402:113,1,50.9999984436036,2|2,0:0|0:0,0:0:0:0:
335,301,46592,5,6,3:2:0:0:
242,162,46808,1,2,1:2:0:0:
40,236,47024,6,0,B|116:264|116:264|164:280|206:247,1,170,14|2,0:0|1:2,0:0:0:0:
144,172,47455,1,2,3:2:0:0:
68,328,47671,1,2,1:2:0:0:
144,172,47887,2,0,P|126:155|93:142,1,55.2499974708558,10|0,0:0|0:0,0:0:0:0:
200,251,48103,6,0,P|236:196|152:72,1,220.999989883423,14|2,0:0|1:2,0:0:0:0:
144,172,48750,1,10,0:0:0:0:
86,5,48966,2,0,P|61:54|66:108,1,110.499994941712,2|0,1:2|3:0,0:0:0:0:
144,172,49398,1,2,1:2:0:0:
84,332,49613,2,0,P|59:283|63:229,1,110.499994941712,10|2,0:0|1:2,0:0:0:0:
272,244,50045,2,0,L|132:264,1,110.499994941712,2|0,3:2|1:0,0:0:0:0:
293,125,50477,6,0,L|461:149,1,170,14|2,0:0|0:0,0:0:0:0:
352,260,50908,1,2,3:2:0:0:
502,303,51124,1,2,1:2:0:0:
461,149,51340,2,0,L|446:96,1,55.2499974708558,10|0,0:0|0:0,0:0:0:0:
352,260,51556,6,0,P|278:226|186:246,1,170,14|0,0:0|3:0,0:0:0:0:
52,307,51988,1,2,1:2:0:0:
193,384,52203,1,10,0:0:0:0:
52,307,52419,2,0,L|64:179,1,110.499994941712,2|0,1:2|3:0,0:0:0:0:
156,16,52851,2,0,L|161:71,1,55.2499974708558,2|0,1:2|3:0,0:0:0:0:
240,64,53067,1,10,0:0:0:0:
267,61,53175,1,0,3:0:0:0:
295,58,53283,1,2,3:2:0:0:
322,56,53390,1,0,3:0:0:0:
352,52,53498,6,0,L|362:200,1,110.499994941712,6|2,3:2|0:0,0:0:0:0:
280,344,53930,2,0,L|271:233,1,110.499994941712,10|2,0:0|1:2,0:0:0:0:
196,264,54254,1,2,0:0:0:0:
196,264,54362,2,0,L|187:153,1,110.499994941712,0|2,3:0|1:2,0:0:0:0:
124,296,54793,1,10,0:0:0:0:
271,233,55009,1,2,1:2:0:0:
388,325,55225,6,0,L|280:344,1,110.499994941712,2|0,3:2|1:0,0:0:0:0:
356,204,55657,2,0,L|464:222,1,110.499994941712,10|2,0:0|1:2,0:0:0:0:
512,164,55980,1,2,0:0:0:0:
512,164,56088,1,2,3:2:0:0:
388,325,56304,1,2,1:2:0:0:
332,132,56520,1,10,0:0:0:0:
85,215,56736,6,0,P|74:344|155:247,1,340,14|0,0:0|1:0,0:0:0:0:
68,124,57383,5,8,0:0:0:0:
240,208,57599,1,0,1:0:0:0:
68,124,57815,1,0,3:0:0:0:
226,17,58031,1,2,1:2:0:0:
68,124,58247,1,10,0:0:0:0:
124,320,58462,6,0,B|227:350|227:350|331:332|331:332|454:362,1,340,14|0,0:0|3:0,0:0:0:0:
297,211,59110,6,0,L|433:239,1,110.499994941712,8|0,0:0|0:0,0:0:0:0:
481,251,59434,1,8,0:0:0:0:
481,251,59542,1,0,3:0:0:0:
484,120,59757,1,10,0:0:0:0:
447,127,59865,1,0,3:0:0:0:
411,134,59973,1,2,3:2:0:0:
380,116,60081,1,0,3:0:0:0:
344,123,60189,1,10,0:0:0:0:
308,131,60297,1,8,0:0:0:0:
277,113,60405,6,0,B|216:124|216:124|176:116|176:116|112:124,1,165.749992412568,6|0,3:2|0:0,0:0:0:0:
17,98,60836,6,0,P|79:119|87:219,1,170,14|2,0:0|0:0,0:0:0:0:
23,175,61268,1,2,3:2:0:0:
160,252,61484,1,2,1:2:0:0:
54,367,61700,2,0,P|25:369|0:363,1,55.2499974708558,10|0,0:0|0:0,0:0:0:0:
160,252,61916,2,0,P|213:240|264:259,1,110.499994941712,14|0,0:0|3:0,0:0:0:0:
208,352,62347,5,2,1:2:0:0:
356,296,62563,1,10,0:0:0:0:
488,384,62779,2,0,L|472:272,1,110.499994941712,2|0,1:2|3:0,0:0:0:0:
392,72,63211,2,0,L|376:181,1,110.499994941712,2|10,1:2|0:0,0:0:0:0:
472,274,63642,1,2,1:2:0:0:
300,352,63858,2,0,B|252:324|252:324|196:336,1,110.499994941712,0|0,3:0|1:0,0:0:0:0:
57,352,64290,6,0,B|94:128,1,170,14|2,0:0|0:0,0:0:0:0:
112,36,64721,1,2,3:2:0:0:
261,64,64937,1,2,1:2:0:0:
112,36,65153,2,0,L|51:24,1,55.2499974708558,10|0,0:0|0:0,0:0:0:0:
233,213,65369,6,0,L|404:176,1,170,14|0,0:0|3:0,0:0:0:0:
446,28,65801,1,2,1:2:0:0:
399,177,66016,1,10,0:0:0:0:
248,132,66232,1,2,1:2:0:0:
295,281,66448,1,0,3:0:0:0:
399,177,66664,2,0,L|381:124,1,55.2499974708558,2|0,1:2|0:0,0:0:0:0:
492,156,66880,1,10,0:0:0:0:
484,182,66988,1,0,3:0:0:0:
475,208,67095,1,2,3:2:0:0:
466,234,67203,1,0,3:0:0:0:
458,261,67311,6,0,P|468:320|512:316,1,110.499994941712,6|0,3:2|0:0,0:0:0:0:
399,177,67743,2,0,P|356:224|344:284,1,110.499994941712,10|2,0:0|1:2,0:0:0:0:
352,344,68067,1,0,3:0:0:0:
352,344,68175,1,2,3:2:0:0:
216,300,68390,1,2,1:2:0:0:
92,368,68606,1,10,0:0:0:0:
216,300,68822,6,0,B|220:240|220:240|200:204|200:204|204:132,1,170,14|0,0:0|3:0,0:0:0:0:
132,268,69254,1,2,1:2:0:0:
203,135,69470,2,0,L|208:24,1,110.499994941712,10|2,0:0|1:2,0:0:0:0:
276,0,69793,1,2,0:0:0:0:
276,0,69901,1,2,3:2:0:0:
80,108,70117,1,2,1:2:0:0:
203,206,70333,2,0,L|335:182,1,110.499994941712,10|2,0:0|1:2,0:0:0:0:
456,249,70765,5,6,3:2:0:0:
472,64,70980,1,2,3:2:0:0:
444,68,71088,1,0,3:0:0:0:
417,73,71196,1,10,0:0:0:0:
390,78,71304,1,0,3:0:0:0:
363,83,71412,2,0,L|308:93,1,55.2499974708558,2|0,3:2|3:0,0:0:0:0:
235,105,71628,1,10,0:0:0:0:
304,278,71844,1,10,0:2:0:0:
263,282,71952,1,8,0:0:0:0:
225,265,72060,1,10,0:0:0:0:
202,231,72167,1,8,0:0:0:0:
199,190,72275,5,6,3:2:0:0:
199,190,72707,1,2,0:0:0:0:
338,167,72923,1,2,0:0:0:0:
477,144,73139,1,2,0:0:0:0:
405,308,73354,6,0,L|391:224,1,85,6|0,3:2|0:0,0:0:0:0:
338,167,73558,5,8,0:0:0:0:
343,125,73665,1,8,0:0:0:0:
348,83,73773,2,0,L|339:26,1,55.2499974708558,10|8,0:0|0:0,0:0:0:0:
264,96,73989,2,0,L|255:41,1,55.2499974708558,8|8,0:0|0:0,0:0:0:0:
184,8,74205,6,0,P|140:4|91:25,1,93.5000028533936,6|0,3:2|1:0,0:0:0:0:
156,112,74636,1,10,0:0:0:0:
72,256,74852,2,0,L|64:315,2,46.7500014266968,0|2|2,1:0|0:0|3:2,0:0:0:0:
208,232,75284,2,0,L|214:185,1,46.7500014266968,2|2,1:2|0:0,0:0:0:0:
224,112,75499,1,8,0:0:0:0:
270,105,75607,1,2,0:0:0:0:
316,109,75715,1,2,1:2:0:0:
362,116,75823,1,2,0:0:0:0:
408,111,75931,1,2,3:2:0:0:
460,212,76147,2,0,L|448:288,2,46.7500014266968,2|2|10,1:2|0:0|0:0,0:0:0:0:
356,32,76579,1,2,1:2:0:0:
356,32,76687,1,2,0:0:0:0:
356,32,76794,6,0,B|304:4|248:24|248:24|172:56,1,170,6|0,3:2|1:0,0:0:0:0:
24,124,77226,2,0,B|76:96|132:116|132:116|185:138,1,170,14|0,0:0|1:0,0:0:0:0:
60,292,77658,6,0,L|84:196,1,93.5000028533936,6|0,3:2|1:0,0:0:0:0:
168,276,78089,1,10,0:0:0:0:
265,170,78305,2,0,L|279:119,1,46.7500014266968,0|2,1:0|0:0,0:0:0:0:
340,16,78521,1,2,3:2:0:0:
340,16,78629,1,8,0:0:0:0:
340,16,78737,2,0,L|352:61,1,46.7500014266968,2|2,1:2|3:2,0:0:0:0:
445,92,78953,1,10,0:0:0:0:
432,113,79061,1,0,3:0:0:0:
427,138,79169,1,0,3:0:0:0:
432,164,79276,1,0,3:0:0:0:
456,204,79384,5,10,0:0:0:0:
464,251,79492,1,10,0:0:0:0:
440,290,79600,1,10,0:0:0:0:
394,295,79708,2,0,L|352:303,1,23.3750007133484,10|0,0:0|0:0,0:0:0:0:
152,330,79924,2,0,L|149:307,1,23.3750007133484,10|0,0:0|0:0,0:0:0:0:
117,88,80140,2,0,L|141:85,1,23.3750007133484,10|0,0:0|0:0,0:0:0:0:
359,53,80356,2,0,L|363:77,1,23.3750007133484,10|0,0:0|0:0,0:0:0:0:
260,192,80571,1,10,0:0:0:0:
233,187,80679,1,10,0:0:0:0:
207,183,80787,1,10,0:0:0:0:
181,179,80895,1,8,0:0:0:0:
155,175,81003,1,8,0:0:0:0:
129,171,81111,6,0,L|144:287,1,93.5000028533936,6|0,3:2|1:0,0:0:0:0:
32,232,81543,1,14,0:0:0:0:
117,88,81758,2,0,L|110:31,2,46.7500014266968,0|10|2,1:0|0:0|3:2,0:0:0:0:
216,144,82190,2,0,L|262:139,1,46.7500014266968,2|2,1:2|0:0,0:0:0:0:
292,64,82406,1,8,0:0:0:0:
338,59,82514,1,2,0:0:0:0:
385,55,82622,1,2,1:2:0:0:
431,50,82730,1,10,0:0:0:0:
478,46,82838,2,0,L|464:108,1,46.7500014266968,6|8,3:2|0:0,0:0:0:0:
416,148,83053,2,0,L|402:210,1,46.7500014266968,10|10,0:0|0:0,0:0:0:0:
348,244,83269,1,10,0:0:0:0:
292,64,83485,1,2,3:2:0:0:
292,64,83593,1,10,0:0:0:0:
292,64,83701,6,0,B|235:54|235:54|184:72|184:72|126:65,1,170,6|0,3:2|0:0,0:0:0:0:
49,52,84025,1,0,3:0:0:0:
49,52,84133,2,0,L|30:154,1,85,14|0,0:0|3:2,0:0:0:0:
101,187,84348,2,0,L|82:289,1,85,8|8,0:0|0:0,0:0:0:0:
73,350,84564,6,0,P|119:349|154:319,1,93.5000028533936,6|0,3:2|1:0,0:0:0:0:
176,208,84996,1,10,0:0:0:0:
332,284,85212,2,0,L|383:270,1,46.7500014266968,0|2,1:0|3:2,0:0:0:0:
494,222,85428,1,2,3:2:0:0:
494,222,85535,1,8,0:0:0:0:
494,222,85643,2,0,L|449:210,1,46.7500014266968,10|2,0:0|3:2,0:0:0:0:
372,183,85859,1,8,0:0:0:0:
359,159,85967,1,0,3:0:0:0:
357,133,86075,1,0,3:0:0:0:
363,110,86183,1,0,3:0:0:0:
380,66,86291,5,10,0:0:0:0:
336,54,86399,1,10,0:0:0:0:
292,40,86507,1,10,0:0:0:0:
248,26,86615,2,0,L|225:30,1,23.3750007133484,10|0,0:0|0:0,0:0:0:0:
90,200,86830,2,0,L|94:223,1,23.3750007133484,10|0,0:0|0:0,0:0:0:0:
264,358,87046,2,0,L|287:354,1,23.3750007133484,10|0,0:0|0:0,0:0:0:0:
422,184,87262,2,0,L|418:161,1,23.3750007133484,10|0,0:0|0:0,0:0:0:0:
256,152,87478,5,10,0:0:0:0:
221,212,87586,5,10,0:0:0:0:
290,212,87694,5,10,1:2:0:0:
